  0
SECTION
  2
HEADER
  9
$ACADVER
  1
AC1015
  9
$ACADMAINTVER
 70
    20
  9
$DWGCODEPAGE
  3
ANSI_1252
  9
$INSBASE
 10
0.0
 20
0.0
 30
0.0
  9
$EXTMIN
 10
-1396.802174176813
 20
0.0
 30
0.0
  9
$EXTMAX
 10
4503.23432663601
 20
9406.681033258029
 30
0.0
  9
$LIMMIN
 10
0.0
 20
0.0
  9
$LIMMAX
 10
420.0
 20
297.0
  9
$ORTHOMODE
 70
     0
  9
$REGENMODE
 70
     1
  9
$FILLMODE
 70
     1
  9
$QTEXTMODE
 70
     0
  9
$MIRRTEXT
 70
     0
  9
$LTSCALE
 40
1.0
  9
$ATTMODE
 70
     1
  9
$TEXTSIZE
 40
2.5
  9
$TRACEWID
 40
1.0
  9
$TEXTSTYLE
  7
Standard
  9
$CLAYER
  8
0
  9
$CELTYPE
  6
ByLayer
  9
$CECOLOR
 62
   256
  9
$CELTSCALE
 40
1.0
  9
$DISPSILH
 70
     0
  9
$DIMSCALE
 40
1.0
  9
$DIMASZ
 40
2.5
  9
$DIMEXO
 40
0.625
  9
$DIMDLI
 40
3.75
  9
$DIMRND
 40
0.0
  9
$DIMDLE
 40
0.0
  9
$DIMEXE
 40
1.25
  9
$DIMTP
 40
0.0
  9
$DIMTM
 40
0.0
  9
$DIMTXT
 40
2.5
  9
$DIMCEN
 40
2.5
  9
$DIMTSZ
 40
0.0
  9
$DIMTOL
 70
     0
  9
$DIMLIM
 70
     0
  9
$DIMTIH
 70
     0
  9
$DIMTOH
 70
     0
  9
$DIMSE1
 70
     0
  9
$DIMSE2
 70
     0
  9
$DIMTAD
 70
     1
  9
$DIMZIN
 70
     8
  9
$DIMBLK
  1

  9
$DIMASO
 70
     1
  9
$DIMSHO
 70
     1
  9
$DIMPOST
  1

  9
$DIMAPOST
  1

  9
$DIMALT
 70
     0
  9
$DIMALTD
 70
     3
  9
$DIMALTF
 40
0.03937007874016
  9
$DIMLFAC
 40
1.0
  9
$DIMTOFL
 70
     1
  9
$DIMTVP
 40
0.0
  9
$DIMTIX
 70
     0
  9
$DIMSOXD
 70
     0
  9
$DIMSAH
 70
     0
  9
$DIMBLK1
  1

  9
$DIMBLK2
  1

  9
$DIMSTYLE
  2
ISO-25
  9
$DIMCLRD
 70
     0
  9
$DIMCLRE
 70
     0
  9
$DIMCLRT
 70
     0
  9
$DIMTFAC
 40
1.0
  9
$DIMGAP
 40
0.625
  9
$DIMJUST
 70
     0
  9
$DIMSD1
 70
     0
  9
$DIMSD2
 70
     0
  9
$DIMTOLJ
 70
     0
  9
$DIMTZIN
 70
     8
  9
$DIMALTZ
 70
     0
  9
$DIMALTTZ
 70
     0
  9
$DIMUPT
 70
     0
  9
$DIMDEC
 70
     2
  9
$DIMTDEC
 70
     2
  9
$DIMALTU
 70
     2
  9
$DIMALTTD
 70
     3
  9
$DIMTXSTY
  7
Standard
  9
$DIMAUNIT
 70
     0
  9
$DIMADEC
 70
     0
  9
$DIMALTRND
 40
0.0
  9
$DIMAZIN
 70
     0
  9
$DIMDSEP
 70
    44
  9
$DIMATFIT
 70
     3
  9
$DIMFRAC
 70
     0
  9
$DIMLDRBLK
  1

  9
$DIMLUNIT
 70
     2
  9
$DIMLWD
 70
    -2
  9
$DIMLWE
 70
    -2
  9
$DIMTMOVE
 70
     0
  9
$LUNITS
 70
     2
  9
$LUPREC
 70
     4
  9
$SKETCHINC
 40
1.0
  9
$FILLETRAD
 40
0.0
  9
$AUNITS
 70
     0
  9
$AUPREC
 70
     0
  9
$MENU
  1
.
  9
$ELEVATION
 40
0.0
  9
$PELEVATION
 40
0.0
  9
$THICKNESS
 40
0.0
  9
$LIMCHECK
 70
     0
  9
$CHAMFERA
 40
0.0
  9
$CHAMFERB
 40
0.0
  9
$CHAMFERC
 40
0.0
  9
$CHAMFERD
 40
0.0
  9
$SKPOLY
 70
     0
  9
$TDCREATE
 40
2454525.590090787
  9
$TDUCREATE
 40
2454525.548424121
  9
$TDUPDATE
 40
2454554.412185509
  9
$TDUUPDATE
 40
2454554.370518843
  9
$TDINDWG
 40
0.3517736806
  9
$TDUSRTIMER
 40
0.3517729051
  9
$USRTIMER
 70
     1
  9
$ANGBASE
 50
0.0
  9
$ANGDIR
 70
     0
  9
$PDMODE
 70
     0
  9
$PDSIZE
 40
0.0
  9
$PLINEWID
 40
0.0
  9
$SPLFRAME
 70
     0
  9
$SPLINETYPE
 70
     6
  9
$SPLINESEGS
 70
     8
  9
$HANDSEED
  5
14C6
  9
$SURFTAB1
 70
     6
  9
$SURFTAB2
 70
     6
  9
$SURFTYPE
 70
     6
  9
$SURFU
 70
     6
  9
$SURFV
 70
     6
  9
$UCSBASE
  2

  9
$UCSNAME
  2

  9
$UCSORG
 10
0.0
 20
0.0
 30
0.0
  9
$UCSXDIR
 10
1.0
 20
0.0
 30
0.0
  9
$UCSYDIR
 10
0.0
 20
1.0
 30
0.0
  9
$UCSORTHOREF
  2

  9
$UCSORTHOVIEW
 70
     0
  9
$UCSORGTOP
 10
0.0
 20
0.0
 30
0.0
  9
$UCSORGBOTTOM
 10
0.0
 20
0.0
 30
0.0
  9
$UCSORGLEFT
 10
0.0
 20
0.0
 30
0.0
  9
$UCSORGRIGHT
 10
0.0
 20
0.0
 30
0.0
  9
$UCSORGFRONT
 10
0.0
 20
0.0
 30
0.0
  9
$UCSORGBACK
 10
0.0
 20
0.0
 30
0.0
  9
$PUCSBASE
  2

  9
$PUCSNAME
  2

  9
$PUCSORG
 10
0.0
 20
0.0
 30
0.0
  9
$PUCSXDIR
 10
1.0
 20
0.0
 30
0.0
  9
$PUCSYDIR
 10
0.0
 20
1.0
 30
0.0
  9
$PUCSORTHOREF
  2

  9
$PUCSORTHOVIEW
 70
     0
  9
$PUCSORGTOP
 10
0.0
 20
0.0
 30
0.0
  9
$PUCSORGBOTTOM
 10
0.0
 20
0.0
 30
0.0
  9
$PUCSORGLEFT
 10
0.0
 20
0.0
 30
0.0
  9
$PUCSORGRIGHT
 10
0.0
 20
0.0
 30
0.0
  9
$PUCSORGFRONT
 10
0.0
 20
0.0
 30
0.0
  9
$PUCSORGBACK
 10
0.0
 20
0.0
 30
0.0
  9
$USERI1
 70
     0
  9
$USERI2
 70
     0
  9
$USERI3
 70
     0
  9
$USERI4
 70
     0
  9
$USERI5
 70
     0
  9
$USERR1
 40
0.0
  9
$USERR2
 40
0.0
  9
$USERR3
 40
0.0
  9
$USERR4
 40
0.0
  9
$USERR5
 40
0.0
  9
$WORLDVIEW
 70
     1
  9
$SHADEDGE
 70
     3
  9
$SHADEDIF
 70
    70
  9
$TILEMODE
 70
     1
  9
$MAXACTVP
 70
    64
  9
$PINSBASE
 10
0.0
 20
0.0
 30
0.0
  9
$PLIMCHECK
 70
     0
  9
$PEXTMIN
 10
0.0
 20
0.0
 30
0.0
  9
$PEXTMAX
 10
0.0
 20
0.0
 30
0.0
  9
$PLIMMIN
 10
0.0
 20
0.0
  9
$PLIMMAX
 10
12.0
 20
9.0
  9
$UNITMODE
 70
     0
  9
$VISRETAIN
 70
     1
  9
$PLINEGEN
 70
     0
  9
$PSLTSCALE
 70
     1
  9
$TREEDEPTH
 70
  3020
  9
$CMLSTYLE
  2
Standard
  9
$CMLJUST
 70
     0
  9
$CMLSCALE
 40
20.0
  9
$PROXYGRAPHICS
 70
     1
  9
$MEASUREMENT
 70
     1
  9
$CELWEIGHT
370
    -1
  9
$ENDCAPS
280
     0
  9
$JOINSTYLE
280
     0
  9
$LWDISPLAY
290
     0
  9
$INSUNITS
 70
     4
  9
$HYPERLINKBASE
  1

  9
$STYLESHEET
  1

  9
$XEDIT
290
     1
  9
$CEPSNTYPE
380
     0
  9
$PSTYLEMODE
290
     1
  9
$FINGERPRINTGUID
  2
{90462D31-D685-45AB-98C7-B299552AC70F}
  9
$VERSIONGUID
  2
{828B54C3-C696-4BFC-BB86-BFC2136DFD78}
  9
$EXTNAMES
290
     1
  9
$PSVPSCALE
 40
0.0
  9
$OLESTARTUP
290
     0
  0
ENDSEC
  0
SECTION
  2
CLASSES
  0
CLASS
  1
ACDBDICTIONARYWDFLT
  2
AcDbDictionaryWithDefault
  3
ObjectDBX Classes
 90
        0
280
     0
281
     0
  0
CLASS
  1
ACDBPLACEHOLDER
  2
AcDbPlaceHolder
  3
ObjectDBX Classes
 90
        0
280
     0
281
     0
  0
CLASS
  1
LAYOUT
  2
AcDbLayout
  3
ObjectDBX Classes
 90
        0
280
     0
281
     0
  0
CLASS
  1
DICTIONARYVAR
  2
AcDbDictionaryVar
  3
ObjectDBX Classes
 90
        0
280
     0
281
     0
  0
CLASS
  1
TABLESTYLE
  2
AcDbTableStyle
  3
ObjectDBX Classes
 90
     4095
280
     0
281
     0
  0
CLASS
  1
MATERIAL
  2
AcDbMaterial
  3
ObjectDBX Classes
 90
     1153
280
     0
281
     0
  0
CLASS
  1
VISUALSTYLE
  2
AcDbVisualStyle
  3
ObjectDBX Classes
 90
     4095
280
     0
281
     0
  0
CLASS
  1
SCALE
  2
AcDbScale
  3
ObjectDBX Classes
 90
     1153
280
     0
281
     0
  0
CLASS
  1
MLEADERSTYLE
  2
AcDbMLeaderStyle
  3
ACDB_MLEADERSTYLE_CLASS
 90
     4095
280
     0
281
     0
  0
CLASS
  1
CELLSTYLEMAP
  2
AcDbCellStyleMap
  3
ObjectDBX Classes
 90
     1152
280
     0
281
     0
  0
CLASS
  1
SORTENTSTABLE
  2
AcDbSortentsTable
  3
ObjectDBX Classes
 90
        0
280
     0
281
     0
  0
CLASS
  1
DIMASSOC
  2
AcDbDimAssoc
  3
"AcDbDimAssoc|Product Desc:     AcDim ARX App For Dimension|Company:          Autodesk, Inc.|WEB Address:      www.autodesk.com"
 90
    32768
280
     0
281
     0
  0
CLASS
  1
IMAGE
  2
AcDbRasterImage
  3
ISM
 90
    34943
280
     0
281
     1
  0
CLASS
  1
IMAGEDEF_REACTOR
  2
AcDbRasterImageDefReactor
  3
ISM
 90
    32769
280
     0
281
     0
  0
CLASS
  1
IMAGEDEF
  2
AcDbRasterImageDef
  3
ISM
 90
        0
280
     0
281
     0
  0
CLASS
  1
RASTERVARIABLES
  2
AcDbRasterVariables
  3
ISM
 90
        0
280
     0
281
     0
  0
ENDSEC
  0
SECTION
  2
TABLES
  0
TABLE
  2
VPORT
  5
8
330
0
100
AcDbSymbolTable
 70
     1
  0
VPORT
  5
EA
330
8
100
AcDbSymbolTableRecord
100
AcDbViewportTableRecord
  2
*Active
 70
     0
 10
0.0
 20
0.0
 11
1.0
 21
1.0
 12
6899.013991553568
 22
-398.5504507211372
 13
0.0
 23
0.0
 14
10.0
 24
10.0
 15
10.0
 25
10.0
 16
0.0
 26
0.0
 36
1.0
 17
0.0
 27
0.0
 37
0.0
 40
19999.86957725114
 41
1.508771929824561
 42
50.0
 43
0.0
 44
0.0
 50
0.0
 51
0.0
 71
     0
 72
  1000
 73
     1
 74
     3
 75
     0
 76
     0
 77
     0
 78
     0
281
     0
 65
     1
110
0.0
120
0.0
130
0.0
111
1.0
121
0.0
131
0.0
112
0.0
122
1.0
132
0.0
 79
     0
146
0.0
  0
ENDTAB
  0
TABLE
  2
LTYPE
  5
5
330
0
100
AcDbSymbolTable
 70
     2
  0
LTYPE
  5
14
330
5
100
AcDbSymbolTableRecord
100
AcDbLinetypeTableRecord
  2
ByBlock
 70
     0
  3

 72
    65
 73
     0
 40
0.0
  0
LTYPE
  5
15
330
5
100
AcDbSymbolTableRecord
100
AcDbLinetypeTableRecord
  2
ByLayer
 70
     0
  3

 72
    65
 73
     0
 40
0.0
  0
LTYPE
  5
16
330
5
100
AcDbSymbolTableRecord
100
AcDbLinetypeTableRecord
  2
Continuous
 70
     0
  3
Solid line
 72
    65
 73
     0
 40
0.0
  0
LTYPE
  5
11B6
330
5
100
AcDbSymbolTableRecord
100
AcDbLinetypeTableRecord
  2
ACAD_ISO03W100
 70
     0
  3
ISO dash space __    __    __    __    __    __
 72
    65
 73
     2
 40
30.0
 49
12.0
 74
     0
 49
-18.0
 74
     0
  0
ENDTAB
  0
TABLE
  2
LAYER
  5
2
330
0
100
AcDbSymbolTable
 70
     2
  0
LAYER
  5
10
102
{ACAD_XDICTIONARY
360
13C
102
}
330
2
100
AcDbSymbolTableRecord
100
AcDbLayerTableRecord
  2
0
 70
     0
 62
     7
  6
Continuous
370
    -3
390
F
  0
LAYER
  5
317
330
2
100
AcDbSymbolTableRecord
100
AcDbLayerTableRecord
  2
Defpoints
 70
     0
 62
     7
  6
Continuous
290
     0
370
    -3
390
F
  0
ENDTAB
  0
TABLE
  2
STYLE
  5
3
330
0
100
AcDbSymbolTable
 70
     3
  0
STYLE
  5
11
330
3
100
AcDbSymbolTableRecord
100
AcDbTextStyleTableRecord
  2
Standard
 70
     0
 40
0.0
 41
1.0
 50
0.0
 71
     0
 42
2.5
  3
arial.ttf
  4

1001
ACAD
1000
Arial
1071
       34
  0
STYLE
  5
132
330
3
100
AcDbSymbolTableRecord
100
AcDbTextStyleTableRecord
  2
Annotative
 70
     0
 40
0.0
 41
1.0
 50
0.0
 71
     0
 42
2.5
  3
txt.shx
  4

1001
AcadAnnotative
1000
AnnotativeData
1002
{
1070
     1
1070
     1
1002
}
  0
STYLE
  5
11B5
330
3
100
AcDbSymbolTableRecord
100
AcDbTextStyleTableRecord
  2

 70
     1
 40
0.0
 41
1.0
 50
0.0
 71
     0
 42
2.5
  3
ltypeshp.shx
  4

  0
ENDTAB
  0
TABLE
  2
VIEW
  5
6
330
0
100
AcDbSymbolTable
 70
     0
  0
ENDTAB
  0
TABLE
  2
UCS
  5
7
330
0
100
AcDbSymbolTable
 70
     0
  0
ENDTAB
  0
TABLE
  2
APPID
  5
9
330
0
100
AcDbSymbolTable
 70
    10
  0
APPID
  5
12
330
9
100
AcDbSymbolTableRecord
100
AcDbRegAppTableRecord
  2
ACAD
 70
     0
  0
APPID
  5
9E
330
9
100
AcDbSymbolTableRecord
100
AcDbRegAppTableRecord
  2
ACAD_PSEXT
 70
     0
  0
APPID
  5
133
330
9
100
AcDbSymbolTableRecord
100
AcDbRegAppTableRecord
  2
AcadAnnoPO
 70
     0
  0
APPID
  5
134
330
9
100
AcDbSymbolTableRecord
100
AcDbRegAppTableRecord
  2
AcadAnnotative
 70
     0
  0
APPID
  5
135
330
9
100
AcDbSymbolTableRecord
100
AcDbRegAppTableRecord
  2
ACAD_DSTYLE_DIMJAG
 70
     0
  0
APPID
  5
136
330
9
100
AcDbSymbolTableRecord
100
AcDbRegAppTableRecord
  2
ACAD_DSTYLE_DIMTALN
 70
     0
  0
APPID
  5
165
330
9
100
AcDbSymbolTableRecord
100
AcDbRegAppTableRecord
  2
ACAD_MLEADERVER
 70
     0
  0
APPID
  5
1AF
330
9
100
AcDbSymbolTableRecord
100
AcDbRegAppTableRecord
  2
ACAD_EXEMPT_FROM_CAD_STANDARDS
 70
     0
  0
APPID
  5
B81
330
9
100
AcDbSymbolTableRecord
100
AcDbRegAppTableRecord
  2
ACAD_DSTYLE_DIMJOGGED_JOGANGLE_SYMBOL
 70
     0
  0
APPID
  5
149B
330
9
100
AcDbSymbolTableRecord
100
AcDbRegAppTableRecord
  2
ACAD_DSTYLE_DIMEXT_LENGTH
 70
     0
  0
ENDTAB
  0
TABLE
  2
DIMSTYLE
  5
A
330
0
100
AcDbSymbolTable
 70
     7
100
AcDbDimStyleTable
 71
     2
340
27
340
137
  0
DIMSTYLE
105
27
102
{ACAD_REACTORS
330
D03
330
D04
330
C6D
330
C6E
330
14A3
102
}
330
A
100
AcDbSymbolTableRecord
100
AcDbDimStyleTableRecord
  2
ISO-25
 70
     0
 41
2.5
 42
0.625
 43
3.75
 44
1.25
 73
     0
 74
     0
 77
     1
 78
     8
140
2.5
141
2.5
143
0.03937007874016
147
0.625
171
     3
172
     1
271
     2
272
     2
274
     3
278
    44
283
     0
284
     8
340
11
  0
DIMSTYLE
105
137
330
A
100
AcDbSymbolTableRecord
100
AcDbDimStyleTableRecord
  2
Annotative
 70
     0
 40
0.0
 41
2.5
 42
0.625
 43
3.75
 44
1.25
 73
     0
 74
     0
 77
     1
 78
     8
140
2.5
141
2.5
143
0.03937007874016
147
0.625
171
     3
172
     1
271
     2
272
     2
274
     3
278
    44
283
     0
284
     8
340
11
1001
AcadAnnotative
1000
AnnotativeData
1002
{
1070
     1
1070
     1
1002
}
1001
ACAD_DSTYLE_DIMJAG
1070
   388
1040
1.5
1001
ACAD_DSTYLE_DIMTALN
1070
   392
1070
     0
  0
DIMSTYLE
105
B7F
330
A
100
AcDbSymbolTableRecord
100
AcDbDimStyleTableRecord
  2
coda-100
 70
     0
 41
2.5
 42
0.625
 43
5.0
 44
1.25
 73
     0
 74
     0
 77
     1
 78
     8
140
250.0
141
2.5
143
0.03937007874016
147
70.0
171
     3
172
     1
176
     4
177
     4
178
     1
271
     2
272
     2
274
     3
278
    44
283
     0
284
     8
340
11
341
338
342
338
372
    20
  0
DIMSTYLE
105
B80
330
A
100
AcDbSymbolTableRecord
100
AcDbDimStyleTableRecord
  2
coda-50
 70
     0
 40
50.0
 41
1.0
 42
1.0
 43
5.0
 44
1.25
 73
     0
 74
     0
 77
     1
 78
     8
140
2.0
141
1.0
143
0.03937007874016
147
0.5
171
     3
172
     1
176
     4
177
     4
178
     1
271
     2
272
     2
274
     3
278
    44
283
     0
284
     8
340
11
341
338
342
338
372
    20
1001
ACAD_DSTYLE_DIMJOGGED_JOGANGLE_SYMBOL
1070
   384
1040
0.7853981633974483
1001
ACAD_DSTYLE_DIMEXT_LENGTH
1070
   378
1040
1.25
  0
DIMSTYLE
105
132D
330
A
100
AcDbSymbolTableRecord
100
AcDbDimStyleTableRecord
  2
ISO-50
 70
     0
 41
2.5
 42
0.625
 43
3.75
 44
1.25
 73
     0
 74
     0
 77
     1
 78
     8
140
5.0
141
2.5
143
0.03937007874016
147
0.625
171
     3
172
     1
271
     2
272
     2
274
     3
278
    44
283
     0
284
     8
340
11
  0
DIMSTYLE
105
132E
330
A
100
AcDbSymbolTableRecord
100
AcDbDimStyleTableRecord
  2
Standard
 70
     0
340
11
  0
DIMSTYLE
105
132F
330
A
100
AcDbSymbolTableRecord
100
AcDbDimStyleTableRecord
  2
patch25
 70
     0
 40
50.0
 41
1.0
 42
1.0
 43
5.0
 44
1.25
 73
     0
 74
     0
 77
     1
 78
     8
140
1.0
141
1.0
143
0.03937007874016
147
0.5
171
     3
172
     1
176
     4
177
     4
178
     1
271
     2
272
     2
274
     3
278
    44
283
     0
284
     8
340
11
341
338
342
338
372
    20
  0
ENDTAB
  0
TABLE
  2
BLOCK_RECORD
  5
1
330
0
100
AcDbSymbolTable
 70
    56
  0
BLOCK_RECORD
  5
1F
102
{ACAD_XDICTIONARY
360
1CE
102
}
330
1
100
AcDbSymbolTableRecord
100
AcDbBlockTableRecord
  2
*Model_Space
340
22
  0
BLOCK_RECORD
  5
D2
330
1
100
AcDbSymbolTableRecord
100
AcDbBlockTableRecord
  2
*Paper_Space
340
D3
  0
BLOCK_RECORD
  5
D6
330
1
100
AcDbSymbolTableRecord
100
AcDbBlockTableRecord
  2
*Paper_Space0
340
D7
  0
BLOCK_RECORD
  5
318
330
1
100
AcDbSymbolTableRecord
100
AcDbBlockTableRecord
  2
*D1
340
0
  0
BLOCK_RECORD
  5
338
330
1
100
AcDbSymbolTableRecord
100
AcDbBlockTableRecord
  2
_ArchTick
340
0
102
{BLKREFS
331
724
331
725
331
72D
331
72E
331
76C
331
76D
331
7DF
331
7E0
331
7E8
331
7E9
331
80C
331
80D
331
815
331
816
331
81E
331
81F
331
827
331
828
331
854
331
855
331
866
331
867
331
86F
331
870
331
878
331
879
331
881
331
882
331
88A
331
88B
331
980
331
981
331
989
331
98A
331
A0C
331
A0D
331
A38
331
A39
331
A41
331
A42
331
A5C
331
A5D
331
A65
331
A66
331
A6E
331
A6F
331
A77
331
A78
331
F18
331
F19
331
F22
331
F23
331
F2B
331
F2C
331
F8A
331
F8B
331
F93
331
F94
331
FA6
331
FA7
331
FC2
331
FC3
331
FCC
331
FCD
331
1168
331
1169
331
1171
331
1172
331
12AC
331
12AD
331
12B5
331
12B6
331
12BE
331
12BF
331
12C7
331
12C8
331
12D0
331
12D1
331
12FB
331
12FC
331
1304
331
1305
331
130E
331
130F
331
1317
331
1318
331
13FF
331
1400
331
1423
331
1424
331
142C
331
142D
331
1435
331
1436
331
1446
331
1447
331
1457
331
1458
331
1467
331
1468
331
1470
331
1471
331
1479
331
147A
331
1482
331
1483
331
14B3
331
14B4
102
}
  0
BLOCK_RECORD
  5
3D8
330
1
100
AcDbSymbolTableRecord
100
AcDbBlockTableRecord
  2
*D3
340
0
  0
BLOCK_RECORD
  5
3F0
330
1
100
AcDbSymbolTableRecord
100
AcDbBlockTableRecord
  2
*D4
340
0
  0
BLOCK_RECORD
  5
408
330
1
100
AcDbSymbolTableRecord
100
AcDbBlockTableRecord
  2
*D5
340
0
  0
BLOCK_RECORD
  5
487
330
1
100
AcDbSymbolTableRecord
100
AcDbBlockTableRecord
  2
*D6
340
0
  0
BLOCK_RECORD
  5
4C9
330
1
100
AcDbSymbolTableRecord
100
AcDbBlockTableRecord
  2
*D7
340
0
  0
BLOCK_RECORD
  5
4EC
330
1
100
AcDbSymbolTableRecord
100
AcDbBlockTableRecord
  2
*D8
340
0
  0
BLOCK_RECORD
  5
560
330
1
100
AcDbSymbolTableRecord
100
AcDbBlockTableRecord
  2
*D9
340
0
  0
BLOCK_RECORD
  5
59A
330
1
100
AcDbSymbolTableRecord
100
AcDbBlockTableRecord
  2
*D10
340
0
  0
BLOCK_RECORD
  5
5B2
330
1
100
AcDbSymbolTableRecord
100
AcDbBlockTableRecord
  2
*D11
340
0
  0
BLOCK_RECORD
  5
5CB
330
1
100
AcDbSymbolTableRecord
100
AcDbBlockTableRecord
  2
*D12
340
0
  0
BLOCK_RECORD
  5
635
330
1
100
AcDbSymbolTableRecord
100
AcDbBlockTableRecord
  2
*D13
340
0
  0
BLOCK_RECORD
  5
64D
330
1
100
AcDbSymbolTableRecord
100
AcDbBlockTableRecord
  2
*D14
340
0
  0
BLOCK_RECORD
  5
663
330
1
100
AcDbSymbolTableRecord
100
AcDbBlockTableRecord
  2
*D15
340
0
  0
BLOCK_RECORD
  5
67B
330
1
100
AcDbSymbolTableRecord
100
AcDbBlockTableRecord
  2
*D16
340
0
  0
BLOCK_RECORD
  5
6EF
330
1
100
AcDbSymbolTableRecord
100
AcDbBlockTableRecord
  2
*D17
340
0
  0
BLOCK_RECORD
  5
773
330
1
100
AcDbSymbolTableRecord
100
AcDbBlockTableRecord
  2
*D18
340
0
  0
BLOCK_RECORD
  5
78B
330
1
100
AcDbSymbolTableRecord
100
AcDbBlockTableRecord
  2
*D19
340
0
  0
BLOCK_RECORD
  5
8BA
330
1
100
AcDbSymbolTableRecord
100
AcDbBlockTableRecord
  2
*D20
340
0
  0
BLOCK_RECORD
  5
8C7
330
1
100
AcDbSymbolTableRecord
100
AcDbBlockTableRecord
  2
*D21
340
0
  0
BLOCK_RECORD
  5
8D4
330
1
100
AcDbSymbolTableRecord
100
AcDbBlockTableRecord
  2
*D22
340
0
  0
BLOCK_RECORD
  5
8EC
330
1
100
AcDbSymbolTableRecord
100
AcDbBlockTableRecord
  2
*D23
340
0
  0
BLOCK_RECORD
  5
9A4
330
1
100
AcDbSymbolTableRecord
100
AcDbBlockTableRecord
  2
*D24
340
0
  0
BLOCK_RECORD
  5
9BA
330
1
100
AcDbSymbolTableRecord
100
AcDbBlockTableRecord
  2
*D25
340
0
  0
BLOCK_RECORD
  5
9D9
330
1
100
AcDbSymbolTableRecord
100
AcDbBlockTableRecord
  2
*D26
340
0
  0
BLOCK_RECORD
  5
A1D
330
1
100
AcDbSymbolTableRecord
100
AcDbBlockTableRecord
  2
*D27
340
0
  0
BLOCK_RECORD
  5
A29
330
1
100
AcDbSymbolTableRecord
100
AcDbBlockTableRecord
  2
*D28
340
0
  0
BLOCK_RECORD
  5
D05
330
1
100
AcDbSymbolTableRecord
100
AcDbBlockTableRecord
  2
*D29
340
0
  0
BLOCK_RECORD
  5
D11
330
1
100
AcDbSymbolTableRecord
100
AcDbBlockTableRecord
  2
*D30
340
0
  0
BLOCK_RECORD
  5
D1D
330
1
100
AcDbSymbolTableRecord
100
AcDbBlockTableRecord
  2
*D31
340
0
  0
BLOCK_RECORD
  5
D29
330
1
100
AcDbSymbolTableRecord
100
AcDbBlockTableRecord
  2
*D32
340
0
  0
BLOCK_RECORD
  5
DAA
330
1
100
AcDbSymbolTableRecord
100
AcDbBlockTableRecord
  2
*D33
340
0
  0
BLOCK_RECORD
  5
DC2
330
1
100
AcDbSymbolTableRecord
100
AcDbBlockTableRecord
  2
*D34
340
0
  0
BLOCK_RECORD
  5
DE3
330
1
100
AcDbSymbolTableRecord
100
AcDbBlockTableRecord
  2
*D35
340
0
  0
BLOCK_RECORD
  5
DFB
330
1
100
AcDbSymbolTableRecord
100
AcDbBlockTableRecord
  2
*D36
340
0
  0
BLOCK_RECORD
  5
E26
330
1
100
AcDbSymbolTableRecord
100
AcDbBlockTableRecord
  2
*D37
340
0
  0
BLOCK_RECORD
  5
E32
330
1
100
AcDbSymbolTableRecord
100
AcDbBlockTableRecord
  2
*D38
340
0
  0
BLOCK_RECORD
  5
E63
330
1
100
AcDbSymbolTableRecord
100
AcDbBlockTableRecord
  2
*D39
340
0
  0
BLOCK_RECORD
  5
E70
330
1
100
AcDbSymbolTableRecord
100
AcDbBlockTableRecord
  2
*D40
340
0
  0
BLOCK_RECORD
  5
E88
330
1
100
AcDbSymbolTableRecord
100
AcDbBlockTableRecord
  2
*D41
340
0
  0
BLOCK_RECORD
  5
EA0
330
1
100
AcDbSymbolTableRecord
100
AcDbBlockTableRecord
  2
*D42
340
0
  0
BLOCK_RECORD
  5
1056
330
1
100
AcDbSymbolTableRecord
100
AcDbBlockTableRecord
  2
*D43
340
0
  0
BLOCK_RECORD
  5
106E
330
1
100
AcDbSymbolTableRecord
100
AcDbBlockTableRecord
  2
*D44
340
0
  0
BLOCK_RECORD
  5
1086
330
1
100
AcDbSymbolTableRecord
100
AcDbBlockTableRecord
  2
*D45
340
0
  0
BLOCK_RECORD
  5
10F8
330
1
100
AcDbSymbolTableRecord
100
AcDbBlockTableRecord
  2
*D46
340
0
  0
BLOCK_RECORD
  5
1105
330
1
100
AcDbSymbolTableRecord
100
AcDbBlockTableRecord
  2
*D47
340
0
  0
BLOCK_RECORD
  5
11B9
330
1
100
AcDbSymbolTableRecord
100
AcDbBlockTableRecord
  2
*D48
340
0
  0
BLOCK_RECORD
  5
124E
330
1
100
AcDbSymbolTableRecord
100
AcDbBlockTableRecord
  2
*D49
340
0
  0
BLOCK_RECORD
  5
128A
330
1
100
AcDbSymbolTableRecord
100
AcDbBlockTableRecord
  2
*D50
340
0
  0
BLOCK_RECORD
  5
137B
330
1
100
AcDbSymbolTableRecord
100
AcDbBlockTableRecord
  2
*D51
340
0
  0
BLOCK_RECORD
  5
13A6
330
1
100
AcDbSymbolTableRecord
100
AcDbBlockTableRecord
  2
*D52
340
0
  0
BLOCK_RECORD
  5
13B3
330
1
100
AcDbSymbolTableRecord
100
AcDbBlockTableRecord
  2
*D53
340
0
  0
BLOCK_RECORD
  5
13DB
330
1
100
AcDbSymbolTableRecord
100
AcDbBlockTableRecord
  2
*D54
340
0
  0
BLOCK_RECORD
  5
14A4
330
1
100
AcDbSymbolTableRecord
100
AcDbBlockTableRecord
  2
*D55
340
0
  0
ENDTAB
  0
ENDSEC
  0
SECTION
  2
BLOCKS
  0
BLOCK
  5
20
330
1F
100
AcDbEntity
  8
0
100
AcDbBlockBegin
  2
*Model_Space
 70
     0
 10
0.0
 20
0.0
 30
0.0
  3
*Model_Space
  1

  0
ENDBLK
  5
21
330
1F
100
AcDbEntity
  8
0
100
AcDbBlockEnd
  0
BLOCK
  5
D4
330
D2
100
AcDbEntity
 67
     1
  8
0
100
AcDbBlockBegin
  2
*Paper_Space
 70
     0
 10
0.0
 20
0.0
 30
0.0
  3
*Paper_Space
  1

  0
ENDBLK
  5
D5
330
D2
100
AcDbEntity
 67
     1
  8
0
100
AcDbBlockEnd
  0
BLOCK
  5
D8
330
D6
100
AcDbEntity
 67
     1
  8
0
100
AcDbBlockBegin
  2
*Paper_Space0
 70
     0
 10
0.0
 20
0.0
 30
0.0
  3
*Paper_Space0
  1

  0
ENDBLK
  5
D9
330
D6
100
AcDbEntity
 67
     1
  8
0
100
AcDbBlockEnd
  0
BLOCK
  5
319
330
318
100
AcDbEntity
  8
0
100
AcDbBlockBegin
  2
*D1
 70
     1
 10
0.0
 20
0.0
 30
0.0
  3
*D1
  1

  0
LINE
  5
7DC
330
318
100
AcDbEntity
  8
0
 62
     0
370
    -2
100
AcDbLine
 10
445.0529588410171
 20
10259.63568664314
 30
0.0
 11
445.0529588410171
 21
10621.64131878325
 31
0.0
  0
LINE
  5
7DD
330
318
100
AcDbEntity
  8
0
 62
     0
370
    -2
100
AcDbLine
 10
-1554.947041158983
 20
10259.63568664314
 30
0.0
 11
-1554.947041158983
 21
10621.64131878325
 31
0.0
  0
LINE
  5
7DE
330
318
100
AcDbEntity
  8
0
 62
     0
370
    -2
100
AcDbLine
 10
520.0529588410171
 20
10546.64131878324
 30
0.0
 11
-1629.947041158982
 21
10546.64131878324
 31
0.0
  0
INSERT
  5
7DF
330
318
100
AcDbEntity
  8
0
 62
     0
370
    -2
100
AcDbBlockReference
  2
_ArchTick
 10
445.0529588410171
 20
10546.64131878324
 30
0.0
 41
100.0
 42
100.0
 43
100.0
  0
INSERT
  5
7E0
330
318
100
AcDbEntity
  8
0
 62
     0
370
    -2
100
AcDbBlockReference
  2
_ArchTick
 10
-1554.947041158983
 20
10546.64131878324
 30
0.0
 41
100.0
 42
100.0
 43
100.0
 50
180.0
  0
MTEXT
  5
7E1
330
318
100
AcDbEntity
  8
0
 62
     0
100
AcDbMText
 10
-554.9470411589826
 20
10647.69861755542
 30
0.0
 40
100.0
 41
0.0
 71
     5
 72
     1
  1
~2000
 73
     1
 44
1.0
1001
ACAD
1000
MTEXTBEGIN
1070
    73
1070
     1
1070
    44
1040
1.0
1070
    74
1070
     0
1000
MTEXTEND
  0
POINT
  5
7E2
330
318
100
AcDbEntity
  8
Defpoints
 62
     0
100
AcDbPoint
 10
445.0529588410171
 20
10134.63568664314
 30
0.0
  0
POINT
  5
7E3
330
318
100
AcDbEntity
  8
Defpoints
 62
     0
100
AcDbPoint
 10
-1554.947041158983
 20
10134.63568664314
 30
0.0
  0
POINT
  5
7E4
330
318
100
AcDbEntity
  8
Defpoints
 62
     0
100
AcDbPoint
 10
-1554.947041158983
 20
10546.64131878324
 30
0.0
  0
ENDBLK
  5
31A
330
318
100
AcDbEntity
  8
0
100
AcDbBlockEnd
  0
BLOCK
  5
33A
330
338
100
AcDbEntity
  8
0
100
AcDbBlockBegin
  2
_ArchTick
 70
     0
 10
0.0
 20
0.0
 30
0.0
  3
_ArchTick
  1

  0
LWPOLYLINE
  5
339
330
338
100
AcDbEntity
  8
0
  6
ByBlock
 62
     0
100
AcDbPolyline
 90
        2
 70
     0
 43
0.15
 10
-0.5
 20
-0.5
 10
0.5
 20
0.5
  0
ENDBLK
  5
33B
330
338
100
AcDbEntity
  8
0
100
AcDbBlockEnd
  0
BLOCK
  5
3D9
330
3D8
100
AcDbEntity
  8
0
100
AcDbBlockBegin
  2
*D3
 70
     1
 10
0.0
 20
0.0
 30
0.0
  3
*D3
  1

  0
LINE
  5
863
330
3D8
100
AcDbEntity
  8
0
 62
     0
370
    -2
100
AcDbLine
 10
-3370.445414152039
 20
8380.251637439847
 30
0.0
 11
-3605.817622496846
 21
8380.251637439847
 31
0.0
  0
LINE
  5
864
330
3D8
100
AcDbEntity
  8
0
 62
     0
370
    -2
100
AcDbLine
 10
-3370.445414152039
 20
7830.251637439848
 30
0.0
 11
-3605.817622496846
 21
7830.251637439848
 31
0.0
  0
LINE
  5
865
330
3D8
100
AcDbEntity
  8
0
 62
     0
370
    -2
100
AcDbLine
 10
-3530.817622496846
 20
8455.251637439848
 30
0.0
 11
-3530.817622496846
 21
7755.251637439847
 31
0.0
  0
INSERT
  5
866
330
3D8
100
AcDbEntity
  8
0
 62
     0
370
    -2
100
AcDbBlockReference
  2
_ArchTick
 10
-3530.817622496846
 20
8380.251637439847
 30
0.0
 41
100.0
 42
100.0
 43
100.0
 50
90.0
  0
INSERT
  5
867
330
3D8
100
AcDbEntity
  8
0
 62
     0
370
    -2
100
AcDbBlockReference
  2
_ArchTick
 10
-3530.817622496846
 20
7830.251637439848
 30
0.0
 41
100.0
 42
100.0
 43
100.0
 50
270.0
  0
MTEXT
  5
868
330
3D8
100
AcDbEntity
  8
0
 62
     0
100
AcDbMText
 10
-3631.874921269016
 20
8105.251637439847
 30
0.0
 40
100.0
 41
0.0
 71
     5
 72
     1
  1
~550
 11
0.0000000000000001
 21
1.0
 31
0.0
 73
     1
 44
1.0
1001
ACAD
1000
MTEXTBEGIN
1070
    73
1070
     1
1070
    44
1040
1.0
1070
    74
1070
     0
1000
MTEXTEND
  0
POINT
  5
869
330
3D8
100
AcDbEntity
  8
Defpoints
 62
     0
100
AcDbPoint
 10
-3245.445414152039
 20
8380.251637439847
 30
0.0
  0
POINT
  5
86A
330
3D8
100
AcDbEntity
  8
Defpoints
 62
     0
100
AcDbPoint
 10
-3245.445414152039
 20
7830.251637439848
 30
0.0
  0
POINT
  5
86B
330
3D8
100
AcDbEntity
  8
Defpoints
 62
     0
100
AcDbPoint
 10
-3530.817622496846
 20
7830.251637439848
 30
0.0
  0
ENDBLK
  5
3DA
330
3D8
100
AcDbEntity
  8
0
100
AcDbBlockEnd
  0
BLOCK
  5
3F1
330
3F0
100
AcDbEntity
  8
0
100
AcDbBlockBegin
  2
*D4
 70
     1
 10
0.0
 20
0.0
 30
0.0
  3
*D4
  1

  0
LINE
  5
851
330
3F0
100
AcDbEntity
  8
0
 62
     0
370
    -2
100
AcDbLine
 10
-3245.445414152039
 20
8505.251637439846
 30
0.0
 11
-3245.445414152039
 21
8867.257269579949
 31
0.0
  0
LINE
  5
852
330
3F0
100
AcDbEntity
  8
0
 62
     0
370
    -2
100
AcDbLine
 10
-2245.44541415204
 20
8505.251637439846
 30
0.0
 11
-2245.44541415204
 21
8867.257269579949
 31
0.0
  0
LINE
  5
853
330
3F0
100
AcDbEntity
  8
0
 62
     0
370
    -2
100
AcDbLine
 10
-3320.44541415204
 20
8792.257269579948
 30
0.0
 11
-2170.44541415204
 21
8792.257269579948
 31
0.0
  0
INSERT
  5
854
330
3F0
100
AcDbEntity
  8
0
 62
     0
370
    -2
100
AcDbBlockReference
  2
_ArchTick
 10
-3245.445414152039
 20
8792.257269579948
 30
0.0
 41
100.0
 42
100.0
 43
100.0
 50
180.0
  0
INSERT
  5
855
330
3F0
100
AcDbEntity
  8
0
 62
     0
370
    -2
100
AcDbBlockReference
  2
_ArchTick
 10
-2245.44541415204
 20
8792.257269579948
 30
0.0
 41
100.0
 42
100.0
 43
100.0
  0
MTEXT
  5
856
330
3F0
100
AcDbEntity
  8
0
 62
     0
100
AcDbMText
 10
-2745.44541415204
 20
8893.314568352115
 30
0.0
 40
100.0
 41
0.0
 71
     5
 72
     1
  1
~1000
 73
     1
 44
1.0
1001
ACAD
1000
MTEXTBEGIN
1070
    73
1070
     1
1070
    44
1040
1.0
1070
    74
1070
     0
1000
MTEXTEND
  0
POINT
  5
857
330
3F0
100
AcDbEntity
  8
Defpoints
 62
     0
100
AcDbPoint
 10
-3245.445414152039
 20
8380.251637439846
 30
0.0
  0
POINT
  5
858
330
3F0
100
AcDbEntity
  8
Defpoints
 62
     0
100
AcDbPoint
 10
-2245.44541415204
 20
8380.251637439846
 30
0.0
  0
POINT
  5
859
330
3F0
100
AcDbEntity
  8
Defpoints
 62
     0
100
AcDbPoint
 10
-2245.44541415204
 20
8792.257269579948
 30
0.0
  0
ENDBLK
  5
3F2
330
3F0
100
AcDbEntity
  8
0
100
AcDbBlockEnd
  0
BLOCK
  5
409
330
408
100
AcDbEntity
  8
0
100
AcDbBlockBegin
  2
*D5
 70
     1
 10
0.0
 20
0.0
 30
0.0
  3
*D5
  1

  0
LINE
  5
7E5
330
408
100
AcDbEntity
  8
0
 62
     0
370
    -2
100
AcDbLine
 10
-1679.947041158983
 20
9134.635686643145
 30
0.0
 11
-1915.319249503788
 21
9134.635686643145
 31
0.0
  0
LINE
  5
7E6
330
408
100
AcDbEntity
  8
0
 62
     0
370
    -2
100
AcDbLine
 10
-1679.947041158983
 20
10134.63568664314
 30
0.0
 11
-1915.319249503787
 21
10134.63568664314
 31
0.0
  0
LINE
  5
7E7
330
408
100
AcDbEntity
  8
0
 62
     0
370
    -2
100
AcDbLine
 10
-1840.319249503788
 20
9059.635686643146
 30
0.0
 11
-1840.319249503787
 21
10209.63568664314
 31
0.0
  0
INSERT
  5
7E8
330
408
100
AcDbEntity
  8
0
 62
     0
370
    -2
100
AcDbBlockReference
  2
_ArchTick
 10
-1840.319249503788
 20
9134.635686643145
 30
0.0
 41
100.0
 42
100.0
 43
100.0
 50
270.0
  0
INSERT
  5
7E9
330
408
100
AcDbEntity
  8
0
 62
     0
370
    -2
100
AcDbBlockReference
  2
_ArchTick
 10
-1840.319249503787
 20
10134.63568664314
 30
0.0
 41
100.0
 42
100.0
 43
100.0
 50
90.0
  0
MTEXT
  5
7EA
330
408
100
AcDbEntity
  8
0
 62
     0
100
AcDbMText
 10
-1941.376548275958
 20
9634.635686643145
 30
0.0
 40
100.0
 41
0.0
 71
     5
 72
     1
  1
~1000
 11
0.0000000000000001
 21
1.0
 31
0.0
 73
     1
 44
1.0
1001
ACAD
1000
MTEXTBEGIN
1070
    73
1070
     1
1070
    44
1040
1.0
1070
    74
1070
     0
1000
MTEXTEND
  0
POINT
  5
7EB
330
408
100
AcDbEntity
  8
Defpoints
 62
     0
100
AcDbPoint
 10
-1554.947041158982
 20
9134.635686643145
 30
0.0
  0
POINT
  5
7EC
330
408
100
AcDbEntity
  8
Defpoints
 62
     0
100
AcDbPoint
 10
-1554.947041158982
 20
10134.63568664314
 30
0.0
  0
POINT
  5
7ED
330
408
100
AcDbEntity
  8
Defpoints
 62
     0
100
AcDbPoint
 10
-1840.319249503787
 20
10134.63568664314
 30
0.0
  0
ENDBLK
  5
40A
330
408
100
AcDbEntity
  8
0
100
AcDbBlockEnd
  0
BLOCK
  5
488
330
487
100
AcDbEntity
  8
0
100
AcDbBlockBegin
  2
*D6
 70
     1
 10
0.0
 20
0.0
 30
0.0
  3
*D6
  1

  0
LINE
  5
86C
330
487
100
AcDbEntity
  8
0
 62
     0
370
    -2
100
AcDbLine
 10
-5922.693356915702
 20
8405.251637439844
 30
0.0
 11
-5922.693356915702
 21
8817.257269579949
 31
0.0
  0
LINE
  5
86D
330
487
100
AcDbEntity
  8
0
 62
     0
370
    -2
100
AcDbLine
 10
-5582.693356915703
 20
8405.251637439844
 30
0.0
 11
-5582.693356915703
 21
8817.257269579949
 31
0.0
  0
LINE
  5
86E
330
487
100
AcDbEntity
  8
0
 62
     0
370
    -2
100
AcDbLine
 10
-5997.693356915703
 20
8742.257269579949
 30
0.0
 11
-5507.693356915702
 21
8742.257269579949
 31
0.0
  0
INSERT
  5
86F
330
487
100
AcDbEntity
  8
0
 62
     0
370
    -2
100
AcDbBlockReference
  2
_ArchTick
 10
-5922.693356915702
 20
8742.257269579949
 30
0.0
 41
100.0
 42
100.0
 43
100.0
 50
180.0
  0
INSERT
  5
870
330
487
100
AcDbEntity
  8
0
 62
     0
370
    -2
100
AcDbBlockReference
  2
_ArchTick
 10
-5582.693356915703
 20
8742.257269579949
 30
0.0
 41
100.0
 42
100.0
 43
100.0
  0
MTEXT
  5
871
330
487
100
AcDbEntity
  8
0
 62
     0
100
AcDbMText
 10
-5790.193356915703
 20
8843.348674764122
 30
0.0
 40
100.0
 41
0.0
 71
     5
 72
     1
  1
~330
 73
     1
 44
1.0
1001
ACAD
1000
MTEXTBEGIN
1070
    73
1070
     1
1070
    44
1040
1.0
1070
    74
1070
     0
1000
MTEXTEND
  0
POINT
  5
872
330
487
100
AcDbEntity
  8
Defpoints
 62
     0
100
AcDbPoint
 10
-5922.693356915702
 20
8280.251637439844
 30
0.0
  0
POINT
  5
873
330
487
100
AcDbEntity
  8
Defpoints
 62
     0
100
AcDbPoint
 10
-5582.693356915703
 20
8280.251637439844
 30
0.0
  0
POINT
  5
874
330
487
100
AcDbEntity
  8
Defpoints
 62
     0
100
AcDbPoint
 10
-5582.693356915703
 20
8742.257269579949
 30
0.0
  0
ENDBLK
  5
489
330
487
100
AcDbEntity
  8
0
100
AcDbBlockEnd
  0
BLOCK
  5
4CA
330
4C9
100
AcDbEntity
  8
0
100
AcDbBlockBegin
  2
*D7
 70
     1
 10
0.0
 20
0.0
 30
0.0
  3
*D7
  1

  0
LINE
  5
875
330
4C9
100
AcDbEntity
  8
0
 62
     0
370
    -2
100
AcDbLine
 10
-6047.693356915702
 20
8280.251637439844
 30
0.0
 11
-6308.213082075464
 21
8280.251637439844
 31
0.0
  0
LINE
  5
876
330
4C9
100
AcDbEntity
  8
0
 62
     0
370
    -2
100
AcDbLine
 10
-6047.693356915702
 20
7830.251637439848
 30
0.0
 11
-6308.213082075464
 21
7830.251637439848
 31
0.0
  0
LINE
  5
877
330
4C9
100
AcDbEntity
  8
0
 62
     0
370
    -2
100
AcDbLine
 10
-6233.213082075465
 20
8355.251637439845
 30
0.0
 11
-6233.213082075465
 21
7755.251637439847
 31
0.0
  0
INSERT
  5
878
330
4C9
100
AcDbEntity
  8
0
 62
     0
370
    -2
100
AcDbBlockReference
  2
_ArchTick
 10
-6233.213082075465
 20
8280.251637439844
 30
0.0
 41
100.0
 42
100.0
 43
100.0
 50
90.0
  0
INSERT
  5
879
330
4C9
100
AcDbEntity
  8
0
 62
     0
370
    -2
100
AcDbBlockReference
  2
_ArchTick
 10
-6233.213082075465
 20
7830.251637439848
 30
0.0
 41
100.0
 42
100.0
 43
100.0
 50
270.0
  0
MTEXT
  5
87A
330
4C9
100
AcDbEntity
  8
0
 62
     0
100
AcDbMText
 10
-6334.270380847634
 20
8055.251637439845
 30
0.0
 40
100.0
 41
0.0
 71
     5
 72
     1
  1
~450
 11
0.0000000000000001
 21
1.0
 31
0.0
 73
     1
 44
1.0
1001
ACAD
1000
MTEXTBEGIN
1070
    73
1070
     1
1070
    44
1040
1.0
1070
    74
1070
     0
1000
MTEXTEND
  0
POINT
  5
87B
330
4C9
100
AcDbEntity
  8
Defpoints
 62
     0
100
AcDbPoint
 10
-5922.693356915702
 20
8280.251637439844
 30
0.0
  0
POINT
  5
87C
330
4C9
100
AcDbEntity
  8
Defpoints
 62
     0
100
AcDbPoint
 10
-5922.693356915702
 20
7830.251637439848
 30
0.0
  0
POINT
  5
87D
330
4C9
100
AcDbEntity
  8
Defpoints
 62
     0
100
AcDbPoint
 10
-6233.213082075465
 20
7830.251637439848
 30
0.0
  0
ENDBLK
  5
4CB
330
4C9
100
AcDbEntity
  8
0
100
AcDbBlockEnd
  0
BLOCK
  5
4ED
330
4EC
100
AcDbEntity
  8
0
100
AcDbBlockBegin
  2
*D8
 70
     1
 10
0.0
 20
0.0
 30
0.0
  3
*D8
  1

  0
LINE
  5
87E
330
4EC
100
AcDbEntity
  8
0
 62
     0
370
    -2
100
AcDbLine
 10
-5047.87092380801
 20
8130.251637439846
 30
0.0
 11
-5308.390648967771
 21
8130.251637439846
 31
0.0
  0
LINE
  5
87F
330
4EC
100
AcDbEntity
  8
0
 62
     0
370
    -2
100
AcDbLine
 10
-5047.87092380801
 20
7830.251637439848
 30
0.0
 11
-5308.390648967771
 21
7830.251637439848
 31
0.0
  0
LINE
  5
880
330
4EC
100
AcDbEntity
  8
0
 62
     0
370
    -2
100
AcDbLine
 10
-5233.390648967771
 20
8205.251637439848
 30
0.0
 11
-5233.390648967771
 21
7755.251637439847
 31
0.0
  0
INSERT
  5
881
330
4EC
100
AcDbEntity
  8
0
 62
     0
370
    -2
100
AcDbBlockReference
  2
_ArchTick
 10
-5233.390648967771
 20
8130.251637439846
 30
0.0
 41
100.0
 42
100.0
 43
100.0
 50
90.0
  0
INSERT
  5
882
330
4EC
100
AcDbEntity
  8
0
 62
     0
370
    -2
100
AcDbBlockReference
  2
_ArchTick
 10
-5233.390648967771
 20
7830.251637439848
 30
0.0
 41
100.0
 42
100.0
 43
100.0
 50
270.0
  0
MTEXT
  5
883
330
4EC
100
AcDbEntity
  8
0
 62
     0
100
AcDbMText
 10
-5334.482054151947
 20
7980.251637439845
 30
0.0
 40
100.0
 41
0.0
 71
     5
 72
     1
  1
~300
 11
0.0000000000000001
 21
1.0
 31
0.0
 73
     1
 44
1.0
1001
ACAD
1000
MTEXTBEGIN
1070
    73
1070
     1
1070
    44
1040
1.0
1070
    74
1070
     0
1000
MTEXTEND
  0
POINT
  5
884
330
4EC
100
AcDbEntity
  8
Defpoints
 62
     0
100
AcDbPoint
 10
-4922.87092380801
 20
8130.251637439846
 30
0.0
  0
POINT
  5
885
330
4EC
100
AcDbEntity
  8
Defpoints
 62
     0
100
AcDbPoint
 10
-4922.87092380801
 20
7830.251637439848
 30
0.0
  0
POINT
  5
886
330
4EC
100
AcDbEntity
  8
Defpoints
 62
     0
100
AcDbPoint
 10
-5233.390648967771
 20
7830.251637439848
 30
0.0
  0
ENDBLK
  5
4EE
330
4EC
100
AcDbEntity
  8
0
100
AcDbBlockEnd
  0
BLOCK
  5
561
330
560
100
AcDbEntity
  8
0
100
AcDbBlockBegin
  2
*D9
 70
     1
 10
0.0
 20
0.0
 30
0.0
  3
*D9
  1

  0
LINE
  5
887
330
560
100
AcDbEntity
  8
0
 62
     0
370
    -2
100
AcDbLine
 10
-4922.87092380801
 20
8405.251637439844
 30
0.0
 11
-4922.87092380801
 21
8817.257269579949
 31
0.0
  0
LINE
  5
888
330
560
100
AcDbEntity
  8
0
 62
     0
370
    -2
100
AcDbLine
 10
-4582.87092380801
 20
8405.251637439844
 30
0.0
 11
-4582.87092380801
 21
8817.257269579949
 31
0.0
  0
LINE
  5
889
330
560
100
AcDbEntity
  8
0
 62
     0
370
    -2
100
AcDbLine
 10
-4997.87092380801
 20
8742.257269579949
 30
0.0
 11
-4507.87092380801
 21
8742.257269579949
 31
0.0
  0
INSERT
  5
88A
330
560
100
AcDbEntity
  8
0
 62
     0
370
    -2
100
AcDbBlockReference
  2
_ArchTick
 10
-4922.87092380801
 20
8742.257269579949
 30
0.0
 41
100.0
 42
100.0
 43
100.0
 50
180.0
  0
INSERT
  5
88B
330
560
100
AcDbEntity
  8
0
 62
     0
370
    -2
100
AcDbBlockReference
  2
_ArchTick
 10
-4582.87092380801
 20
8742.257269579949
 30
0.0
 41
100.0
 42
100.0
 43
100.0
  0
MTEXT
  5
88C
330
560
100
AcDbEntity
  8
0
 62
     0
100
AcDbMText
 10
-4790.37092380801
 20
8843.348674764122
 30
0.0
 40
100.0
 41
0.0
 71
     5
 72
     1
  1
~330
 73
     1
 44
1.0
1001
ACAD
1000
MTEXTBEGIN
1070
    73
1070
     1
1070
    44
1040
1.0
1070
    74
1070
     0
1000
MTEXTEND
  0
POINT
  5
88D
330
560
100
AcDbEntity
  8
Defpoints
 62
     0
100
AcDbPoint
 10
-4922.87092380801
 20
8280.251637439844
 30
0.0
  0
POINT
  5
88E
330
560
100
AcDbEntity
  8
Defpoints
 62
     0
100
AcDbPoint
 10
-4582.87092380801
 20
8280.251637439844
 30
0.0
  0
POINT
  5
88F
330
560
100
AcDbEntity
  8
Defpoints
 62
     0
100
AcDbPoint
 10
-4582.87092380801
 20
8742.257269579949
 30
0.0
  0
ENDBLK
  5
562
330
560
100
AcDbEntity
  8
0
100
AcDbBlockEnd
  0
BLOCK
  5
59B
330
59A
100
AcDbEntity
  8
0
100
AcDbBlockBegin
  2
*D10
 70
     1
 10
0.0
 20
0.0
 30
0.0
  3
*D10
  1

  0
LINE
  5
812
330
59A
100
AcDbEntity
  8
0
 62
     0
370
    -2
100
AcDbLine
 10
11717.54428143672
 20
9251.977174971504
 30
0.0
 11
11717.54428143672
 21
9517.434692265487
 31
0.0
  0
LINE
  5
813
330
59A
100
AcDbEntity
  8
0
 62
     0
370
    -2
100
AcDbLine
 10
15217.54428143672
 20
9251.977174971504
 30
0.0
 11
15217.54428143672
 21
9517.434692265487
 31
0.0
  0
LINE
  5
814
330
59A
100
AcDbEntity
  8
0
 62
     0
370
    -2
100
AcDbLine
 10
11642.54428143672
 20
9442.434692265486
 30
0.0
 11
15292.54428143672
 21
9442.434692265486
 31
0.0
  0
INSERT
  5
815
330
59A
100
AcDbEntity
  8
0
 62
     0
370
    -2
100
AcDbBlockReference
  2
_ArchTick
 10
11717.54428143672
 20
9442.434692265486
 30
0.0
 41
100.0
 42
100.0
 43
100.0
 50
180.0
  0
INSERT
  5
816
330
59A
100
AcDbEntity
  8
0
 62
     0
370
    -2
100
AcDbBlockReference
  2
_ArchTick
 10
15217.54428143672
 20
9442.434692265486
 30
0.0
 41
100.0
 42
100.0
 43
100.0
  0
MTEXT
  5
817
330
59A
100
AcDbEntity
  8
0
 62
     0
100
AcDbMText
 10
13467.54428143672
 20
9543.52609744966
 30
0.0
 40
100.0
 41
0.0
 71
     5
 72
     1
  1
~3500
 73
     1
 44
1.0
1001
ACAD
1000
MTEXTBEGIN
1070
    73
1070
     1
1070
    44
1040
1.0
1070
    74
1070
     0
1000
MTEXTEND
  0
POINT
  5
818
330
59A
100
AcDbEntity
  8
Defpoints
 62
     0
100
AcDbPoint
 10
11717.54428143672
 20
9126.977174971504
 30
0.0
  0
POINT
  5
819
330
59A
100
AcDbEntity
  8
Defpoints
 62
     0
100
AcDbPoint
 10
15217.54428143672
 20
9126.977174971504
 30
0.0
  0
POINT
  5
81A
330
59A
100
AcDbEntity
  8
Defpoints
 62
     0
100
AcDbPoint
 10
15217.54428143672
 20
9442.434692265486
 30
0.0
  0
ENDBLK
  5
59C
330
59A
100
AcDbEntity
  8
0
100
AcDbBlockEnd
  0
BLOCK
  5
5B3
330
5B2
100
AcDbEntity
  8
0
100
AcDbBlockBegin
  2
*D11
 70
     1
 10
0.0
 20
0.0
 30
0.0
  3
*D11
  1

  0
LINE
  5
81B
330
5B2
100
AcDbEntity
  8
0
 62
     0
370
    -2
100
AcDbLine
 10
11592.54428143672
 20
9126.977174971504
 30
0.0
 11
11321.30566034663
 21
9126.977174971504
 31
0.0
  0
LINE
  5
81C
330
5B2
100
AcDbEntity
  8
0
 62
     0
370
    -2
100
AcDbLine
 10
11592.54428143672
 20
8396.977174971501
 30
0.0
 11
11321.30566034663
 21
8396.977174971501
 31
0.0
  0
LINE
  5
81D
330
5B2
100
AcDbEntity
  8
0
 62
     0
370
    -2
100
AcDbLine
 10
11396.30566034663
 20
9201.977174971503
 30
0.0
 11
11396.30566034663
 21
8321.977174971502
 31
0.0
  0
INSERT
  5
81E
330
5B2
100
AcDbEntity
  8
0
 62
     0
370
    -2
100
AcDbBlockReference
  2
_ArchTick
 10
11396.30566034663
 20
9126.977174971504
 30
0.0
 41
100.0
 42
100.0
 43
100.0
 50
90.0
  0
INSERT
  5
81F
330
5B2
100
AcDbEntity
  8
0
 62
     0
370
    -2
100
AcDbBlockReference
  2
_ArchTick
 10
11396.30566034663
 20
8396.977174971501
 30
0.0
 41
100.0
 42
100.0
 43
100.0
 50
270.0
  0
MTEXT
  5
820
330
5B2
100
AcDbEntity
  8
0
 62
     0
100
AcDbMText
 10
11295.24836157445
 20
8761.977174971502
 30
0.0
 40
100.0
 41
0.0
 71
     5
 72
     1
  1
~750
 11
0.0000000000000001
 21
1.0
 31
0.0
 73
     1
 44
1.0
1001
ACAD
1000
MTEXTBEGIN
1070
    73
1070
     1
1070
    44
1040
1.0
1070
    74
1070
     0
1000
MTEXTEND
  0
POINT
  5
821
330
5B2
100
AcDbEntity
  8
Defpoints
 62
     0
100
AcDbPoint
 10
11717.54428143672
 20
9126.977174971504
 30
0.0
  0
POINT
  5
822
330
5B2
100
AcDbEntity
  8
Defpoints
 62
     0
100
AcDbPoint
 10
11717.54428143672
 20
8396.977174971501
 30
0.0
  0
POINT
  5
823
330
5B2
100
AcDbEntity
  8
Defpoints
 62
     0
100
AcDbPoint
 10
11396.30566034663
 20
8396.977174971501
 30
0.0
  0
ENDBLK
  5
5B4
330
5B2
100
AcDbEntity
  8
0
100
AcDbBlockEnd
  0
BLOCK
  5
5CC
330
5CB
100
AcDbEntity
  8
0
100
AcDbBlockBegin
  2
*D12
 70
     1
 10
0.0
 20
0.0
 30
0.0
  3
*D12
  1

  0
LINE
  5
824
330
5CB
100
AcDbEntity
  8
0
 62
     0
370
    -2
100
AcDbLine
 10
10151.08990195818
 20
7563.985404009521
 30
0.0
 11
9859.8359951458
 21
7563.985404009521
 31
0.0
  0
LINE
  5
825
330
5CB
100
AcDbEntity
  8
0
 62
     0
370
    -2
100
AcDbLine
 10
10151.08990195818
 20
6763.985404009521
 30
0.0
 11
9859.8359951458
 21
6763.985404009521
 31
0.0
  0
LINE
  5
826
330
5CB
100
AcDbEntity
  8
0
 62
     0
370
    -2
100
AcDbLine
 10
9934.8359951458
 20
7638.985404009521
 30
0.0
 11
9934.8359951458
 21
6688.985404009521
 31
0.0
  0
INSERT
  5
827
330
5CB
100
AcDbEntity
  8
0
 62
     0
370
    -2
100
AcDbBlockReference
  2
_ArchTick
 10
9934.8359951458
 20
7563.985404009521
 30
0.0
 41
100.0
 42
100.0
 43
100.0
 50
90.0
  0
INSERT
  5
828
330
5CB
100
AcDbEntity
  8
0
 62
     0
370
    -2
100
AcDbBlockReference
  2
_ArchTick
 10
9934.8359951458
 20
6763.985404009521
 30
0.0
 41
100.0
 42
100.0
 43
100.0
 50
270.0
  0
MTEXT
  5
829
330
5CB
100
AcDbEntity
  8
0
 62
     0
100
AcDbMText
 10
9833.778696373627
 20
7163.985404009522
 30
0.0
 40
100.0
 41
0.0
 71
     5
 72
     1
  1
~800
 11
0.0000000000000001
 21
1.0
 31
0.0
 73
     1
 44
1.0
1001
ACAD
1000
MTEXTBEGIN
1070
    73
1070
     1
1070
    44
1040
1.0
1070
    74
1070
     0
1000
MTEXTEND
  0
POINT
  5
82A
330
5CB
100
AcDbEntity
  8
Defpoints
 62
     0
100
AcDbPoint
 10
10276.08990195818
 20
7563.98540400952
 30
0.0
  0
POINT
  5
82B
330
5CB
100
AcDbEntity
  8
Defpoints
 62
     0
100
AcDbPoint
 10
10276.08990195818
 20
6763.98540400952
 30
0.0
  0
POINT
  5
82C
330
5CB
100
AcDbEntity
  8
Defpoints
 62
     0
100
AcDbPoint
 10
9934.8359951458
 20
6763.985404009521
 30
0.0
  0
ENDBLK
  5
5CD
330
5CB
100
AcDbEntity
  8
0
100
AcDbBlockEnd
  0
BLOCK
  5
636
330
635
100
AcDbEntity
  8
0
100
AcDbBlockBegin
  2
*D13
 70
     1
 10
0.0
 20
0.0
 30
0.0
  3
*D13
  1

  0
LINE
  5
721
330
635
100
AcDbEntity
  8
0
 62
     0
370
    -2
100
AcDbLine
 10
6334.168828431005
 20
2223.351926525506
 30
0.0
 11
6334.168828431005
 21
2466.32351072668
 31
0.0
  0
LINE
  5
722
330
635
100
AcDbEntity
  8
0
 62
     0
370
    -2
100
AcDbLine
 10
8334.168828431003
 20
2223.351926525506
 30
0.0
 11
8334.168828431003
 21
2466.32351072668
 31
0.0
  0
LINE
  5
723
330
635
100
AcDbEntity
  8
0
 62
     0
370
    -2
100
AcDbLine
 10
6259.168828431005
 20
2391.323510726679
 30
0.0
 11
8409.168828431004
 21
2391.323510726679
 31
0.0
  0
INSERT
  5
724
330
635
100
AcDbEntity
  8
0
 62
     0
370
    -2
100
AcDbBlockReference
  2
_ArchTick
 10
6334.168828431005
 20
2391.323510726679
 30
0.0
 41
100.0
 42
100.0
 43
100.0
 50
180.0
  0
INSERT
  5
725
330
635
100
AcDbEntity
  8
0
 62
     0
370
    -2
100
AcDbBlockReference
  2
_ArchTick
 10
8334.168828431003
 20
2391.323510726679
 30
0.0
 41
100.0
 42
100.0
 43
100.0
  0
MTEXT
  5
726
330
635
100
AcDbEntity
  8
0
 62
     0
100
AcDbMText
 10
7334.168828431003
 20
2492.380809498849
 30
0.0
 40
100.0
 41
0.0
 71
     5
 72
     1
  1
~2000
 73
     1
 44
1.0
1001
ACAD
1000
MTEXTBEGIN
1070
    73
1070
     1
1070
    44
1040
1.0
1070
    74
1070
     0
1000
MTEXTEND
  0
POINT
  5
727
330
635
100
AcDbEntity
  8
Defpoints
 62
     0
100
AcDbPoint
 10
6334.168828431005
 20
2098.351926525506
 30
0.0
  0
POINT
  5
728
330
635
100
AcDbEntity
  8
Defpoints
 62
     0
100
AcDbPoint
 10
8334.168828431003
 20
2098.351926525506
 30
0.0
  0
POINT
  5
729
330
635
100
AcDbEntity
  8
Defpoints
 62
     0
100
AcDbPoint
 10
8334.168828431003
 20
2391.323510726679
 30
0.0
  0
ENDBLK
  5
637
330
635
100
AcDbEntity
  8
0
100
AcDbBlockEnd
  0
BLOCK
  5
64E
330
64D
100
AcDbEntity
  8
0
100
AcDbBlockBegin
  2
*D14
 70
     1
 10
0.0
 20
0.0
 30
0.0
  3
*D14
  1

  0
LINE
  5
72A
330
64D
100
AcDbEntity
  8
0
 62
     0
370
    -2
100
AcDbLine
 10
6209.168828431005
 20
1298.351926525505
 30
0.0
 11
5939.948036554829
 21
1298.351926525505
 31
0.0
  0
LINE
  5
72B
330
64D
100
AcDbEntity
  8
0
 62
     0
370
    -2
100
AcDbLine
 10
6209.168828431005
 20
2098.351926525506
 30
0.0
 11
5939.948036554829
 21
2098.351926525506
 31
0.0
  0
LINE
  5
72C
330
64D
100
AcDbEntity
  8
0
 62
     0
370
    -2
100
AcDbLine
 10
6014.948036554829
 20
1223.351926525505
 30
0.0
 11
6014.948036554829
 21
2173.351926525505
 31
0.0
  0
INSERT
  5
72D
330
64D
100
AcDbEntity
  8
0
 62
     0
370
    -2
100
AcDbBlockReference
  2
_ArchTick
 10
6014.948036554829
 20
1298.351926525505
 30
0.0
 41
100.0
 42
100.0
 43
100.0
 50
270.0
  0
INSERT
  5
72E
330
64D
100
AcDbEntity
  8
0
 62
     0
370
    -2
100
AcDbBlockReference
  2
_ArchTick
 10
6014.948036554829
 20
2098.351926525506
 30
0.0
 41
100.0
 42
100.0
 43
100.0
 50
90.0
  0
MTEXT
  5
72F
330
64D
100
AcDbEntity
  8
0
 62
     0
100
AcDbMText
 10
5913.89073778266
 20
1698.351926525506
 30
0.0
 40
100.0
 41
0.0
 71
     5
 72
     1
  1
~800
 11
0.0000000000000001
 21
1.0
 31
0.0
 73
     1
 44
1.0
1001
ACAD
1000
MTEXTBEGIN
1070
    73
1070
     1
1070
    44
1040
1.0
1070
    74
1070
     0
1000
MTEXTEND
  0
POINT
  5
730
330
64D
100
AcDbEntity
  8
Defpoints
 62
     0
100
AcDbPoint
 10
6334.168828431005
 20
1298.351926525505
 30
0.0
  0
POINT
  5
731
330
64D
100
AcDbEntity
  8
Defpoints
 62
     0
100
AcDbPoint
 10
6334.168828431005
 20
2098.351926525506
 30
0.0
  0
POINT
  5
732
330
64D
100
AcDbEntity
  8
Defpoints
 62
     0
100
AcDbPoint
 10
6014.948036554829
 20
2098.351926525506
 30
0.0
  0
ENDBLK
  5
64F
330
64D
100
AcDbEntity
  8
0
100
AcDbBlockEnd
  0
BLOCK
  5
664
330
663
100
AcDbEntity
  8
0
100
AcDbBlockBegin
  2
*D15
 70
     1
 10
0.0
 20
0.0
 30
0.0
  3
*D15
  1

  0
LINE
  5
1443
330
663
100
AcDbEntity
  8
0
 62
     0
370
    -2
100
AcDbLine
 10
3383.109868546952
 20
10955.25163743984
 30
0.0
 11
3383.109868546952
 21
11555.82006942284
 31
0.0
  0
LINE
  5
1444
330
663
100
AcDbEntity
  8
0
 62
     0
370
    -2
100
AcDbLine
 10
7383.109868546951
 20
10955.25163743984
 30
0.0
 11
7383.109868546951
 21
11555.82006942284
 31
0.0
  0
LINE
  5
1445
330
663
100
AcDbEntity
  8
0
 62
     0
370
    -2
100
AcDbLine
 10
3308.109868546952
 20
11480.82006942284
 30
0.0
 11
7458.109868546952
 21
11480.82006942284
 31
0.0
  0
INSERT
  5
1446
330
663
100
AcDbEntity
  8
0
 62
     0
370
    -2
100
AcDbBlockReference
  2
_ArchTick
 10
3383.109868546952
 20
11480.82006942284
 30
0.0
 41
100.0
 42
100.0
 43
100.0
 50
180.0
  0
INSERT
  5
1447
330
663
100
AcDbEntity
  8
0
 62
     0
370
    -2
100
AcDbBlockReference
  2
_ArchTick
 10
7383.109868546951
 20
11480.82006942284
 30
0.0
 41
100.0
 42
100.0
 43
100.0
  0
MTEXT
  5
1448
330
663
100
AcDbEntity
  8
0
 62
     0
100
AcDbMText
 10
5383.109868546951
 20
11581.87736819501
 30
0.0
 40
100.0
 41
0.0
 71
     5
 72
     1
  1
~4000
 73
     1
 44
1.0
1001
ACAD
1000
MTEXTBEGIN
1070
    73
1070
     1
1070
    44
1040
1.0
1070
    74
1070
     0
1000
MTEXTEND
  0
POINT
  5
1449
330
663
100
AcDbEntity
  8
Defpoints
 62
     0
100
AcDbPoint
 10
3383.109868546952
 20
10830.25163743984
 30
0.0
  0
POINT
  5
144A
330
663
100
AcDbEntity
  8
Defpoints
 62
     0
100
AcDbPoint
 10
7383.109868546951
 20
10830.25163743984
 30
0.0
  0
POINT
  5
144B
330
663
100
AcDbEntity
  8
Defpoints
 62
     0
100
AcDbPoint
 10
7383.109868546951
 20
11480.82006942284
 30
0.0
  0
ENDBLK
  5
665
330
663
100
AcDbEntity
  8
0
100
AcDbBlockEnd
  0
BLOCK
  5
67C
330
67B
100
AcDbEntity
  8
0
100
AcDbBlockBegin
  2
*D16
 70
     1
 10
0.0
 20
0.0
 30
0.0
  3
*D16
  1

  0
LINE
  5
809
330
67B
100
AcDbEntity
  8
0
 62
     0
370
    -2
100
AcDbLine
 10
3258.109868546952
 20
10830.25163743984
 30
0.0
 11
2697.190808436489
 21
10830.25163743984
 31
0.0
  0
LINE
  5
80A
330
67B
100
AcDbEntity
  8
0
 62
     0
370
    -2
100
AcDbLine
 10
3258.109868546951
 20
7830.251637439845
 30
0.0
 11
2697.190808436489
 21
7830.251637439845
 31
0.0
  0
LINE
  5
80B
330
67B
100
AcDbEntity
  8
0
 62
     0
370
    -2
100
AcDbLine
 10
2772.190808436489
 20
10905.25163743984
 30
0.0
 11
2772.190808436489
 21
7755.251637439845
 31
0.0
  0
INSERT
  5
80C
330
67B
100
AcDbEntity
  8
0
 62
     0
370
    -2
100
AcDbBlockReference
  2
_ArchTick
 10
2772.190808436489
 20
10830.25163743984
 30
0.0
 41
100.0
 42
100.0
 43
100.0
 50
90.0
  0
INSERT
  5
80D
330
67B
100
AcDbEntity
  8
0
 62
     0
370
    -2
100
AcDbBlockReference
  2
_ArchTick
 10
2772.190808436489
 20
7830.251637439845
 30
0.0
 41
100.0
 42
100.0
 43
100.0
 50
270.0
  0
MTEXT
  5
80E
330
67B
100
AcDbEntity
  8
0
 62
     0
100
AcDbMText
 10
2671.099403252313
 20
9330.251637439843
 30
0.0
 40
100.0
 41
0.0
 71
     5
 72
     1
  1
~3000
 11
0.0000000000000001
 21
1.0
 31
0.0
 73
     1
 44
1.0
1001
ACAD
1000
MTEXTBEGIN
1070
    73
1070
     1
1070
    44
1040
1.0
1070
    74
1070
     0
1000
MTEXTEND
  0
POINT
  5
80F
330
67B
100
AcDbEntity
  8
Defpoints
 62
     0
100
AcDbPoint
 10
3383.109868546952
 20
10830.25163743984
 30
0.0
  0
POINT
  5
810
330
67B
100
AcDbEntity
  8
Defpoints
 62
     0
100
AcDbPoint
 10
3383.109868546951
 20
7830.251637439845
 30
0.0
  0
POINT
  5
811
330
67B
100
AcDbEntity
  8
Defpoints
 62
     0
100
AcDbPoint
 10
2772.190808436489
 20
7830.251637439845
 30
0.0
  0
ENDBLK
  5
67D
330
67B
100
AcDbEntity
  8
0
100
AcDbBlockEnd
  0
BLOCK
  5
6F0
330
6EF
100
AcDbEntity
  8
0
100
AcDbBlockBegin
  2
*D17
 70
     1
 10
0.0
 20
0.0
 30
0.0
  3
*D17
  1

  0
LINE
  5
769
330
6EF
100
AcDbEntity
  8
0
 62
     0
370
    -2
100
AcDbLine
 10
5140.959559217288
 20
0.0000000000000931
 30
0.0
 11
4871.738767341113
 21
0.0000000000001693
 31
0.0
  0
LINE
  5
76A
330
6EF
100
AcDbEntity
  8
0
 62
     0
370
    -2
100
AcDbLine
 10
5140.959559217288
 20
550.0
 30
0.0
 11
4871.738767341113
 21
550.0
 31
0.0
  0
LINE
  5
76B
330
6EF
100
AcDbEntity
  8
0
 62
     0
370
    -2
100
AcDbLine
 10
4946.738767341113
 20
-74.99999999999984
 30
0.0
 11
4946.738767341113
 21
625.0
 31
0.0
  0
INSERT
  5
76C
330
6EF
100
AcDbEntity
  8
0
 62
     0
370
    -2
100
AcDbBlockReference
  2
_ArchTick
 10
4946.738767341113
 20
0.0000000000001481
 30
0.0
 41
100.0
 42
100.0
 43
100.0
 50
270.0
  0
INSERT
  5
76D
330
6EF
100
AcDbEntity
  8
0
 62
     0
370
    -2
100
AcDbBlockReference
  2
_ArchTick
 10
4946.738767341113
 20
550.0
 30
0.0
 41
100.0
 42
100.0
 43
100.0
 50
90.0
  0
MTEXT
  5
76E
330
6EF
100
AcDbEntity
  8
0
 62
     0
100
AcDbMText
 10
4845.681468568944
 20
275.0000000000009
 30
0.0
 40
100.0
 41
0.0
 71
     5
 72
     1
  1
~550
 11
0.0000000000000001
 21
1.0
 31
0.0
 73
     1
 44
1.0
1001
ACAD
1000
MTEXTBEGIN
1070
    73
1070
     1
1070
    44
1040
1.0
1070
    74
1070
     0
1000
MTEXTEND
  0
POINT
  5
76F
330
6EF
100
AcDbEntity
  8
Defpoints
 62
     0
100
AcDbPoint
 10
5265.959559217288
 20
0.0000000000000577
 30
0.0
  0
POINT
  5
770
330
6EF
100
AcDbEntity
  8
Defpoints
 62
     0
100
AcDbPoint
 10
5265.959559217288
 20
550.0
 30
0.0
  0
POINT
  5
771
330
6EF
100
AcDbEntity
  8
Defpoints
 62
     0
100
AcDbPoint
 10
4946.738767341113
 20
550.0
 30
0.0
  0
ENDBLK
  5
6F1
330
6EF
100
AcDbEntity
  8
0
100
AcDbBlockEnd
  0
BLOCK
  5
774
330
773
100
AcDbEntity
  8
0
100
AcDbBlockBegin
  2
*D18
 70
     1
 10
0.0
 20
0.0
 30
0.0
  3
*D18
  1

  0
LINE
  5
12F8
330
773
100
AcDbEntity
  8
0
 62
     0
370
    -2
100
AcDbLine
 10
10960.26811686644
 20
3823.351926525505
 30
0.0
 11
10960.26811686644
 21
4456.588666311765
 31
0.0
  0
LINE
  5
12F9
330
773
100
AcDbEntity
  8
0
 62
     0
370
    -2
100
AcDbLine
 10
15960.26811686644
 20
3823.351926525505
 30
0.0
 11
15960.26811686644
 21
4456.588666311765
 31
0.0
  0
LINE
  5
12FA
330
773
100
AcDbEntity
  8
0
 62
     0
370
    -2
100
AcDbLine
 10
10885.26811686644
 20
4381.588666311765
 30
0.0
 11
16035.26811686644
 21
4381.588666311765
 31
0.0
  0
INSERT
  5
12FB
330
773
100
AcDbEntity
  8
0
 62
     0
370
    -2
100
AcDbBlockReference
  2
_ArchTick
 10
10960.26811686644
 20
4381.588666311765
 30
0.0
 41
100.0
 42
100.0
 43
100.0
 50
180.0
  0
INSERT
  5
12FC
330
773
100
AcDbEntity
  8
0
 62
     0
370
    -2
100
AcDbBlockReference
  2
_ArchTick
 10
15960.26811686644
 20
4381.588666311765
 30
0.0
 41
100.0
 42
100.0
 43
100.0
  0
MTEXT
  5
12FD
330
773
100
AcDbEntity
  8
0
 62
     0
100
AcDbMText
 10
13460.26811686644
 20
4482.645965083935
 30
0.0
 40
100.0
 41
0.0
 71
     5
 72
     1
  1
~5000
 73
     1
 44
1.0
1001
ACAD
1000
MTEXTBEGIN
1070
    73
1070
     1
1070
    44
1040
1.0
1070
    74
1070
     0
1000
MTEXTEND
  0
POINT
  5
12FE
330
773
100
AcDbEntity
  8
Defpoints
 62
     0
100
AcDbPoint
 10
10960.26811686644
 20
3698.351926525505
 30
0.0
  0
POINT
  5
12FF
330
773
100
AcDbEntity
  8
Defpoints
 62
     0
100
AcDbPoint
 10
15960.26811686644
 20
3698.351926525505
 30
0.0
  0
POINT
  5
1300
330
773
100
AcDbEntity
  8
Defpoints
 62
     0
100
AcDbPoint
 10
15960.26811686644
 20
4381.588666311765
 30
0.0
  0
ENDBLK
  5
775
330
773
100
AcDbEntity
  8
0
100
AcDbBlockEnd
  0
BLOCK
  5
78C
330
78B
100
AcDbEntity
  8
0
100
AcDbBlockBegin
  2
*D19
 70
     1
 10
0.0
 20
0.0
 30
0.0
  3
*D19
  1

  0
LINE
  5
1301
330
78B
100
AcDbEntity
  8
0
 62
     0
370
    -2
100
AcDbLine
 10
10835.26811686644
 20
3698.351926525505
 30
0.0
 11
10264.57505113351
 21
3698.351926525505
 31
0.0
  0
LINE
  5
1302
330
78B
100
AcDbEntity
  8
0
 62
     0
370
    -2
100
AcDbLine
 10
10835.26811686644
 20
-301.648073474495
 30
0.0
 11
10264.57505113351
 21
-301.6480734744948
 31
0.0
  0
LINE
  5
1303
330
78B
100
AcDbEntity
  8
0
 62
     0
370
    -2
100
AcDbLine
 10
10339.57505113352
 20
3773.351926525505
 30
0.0
 11
10339.57505113352
 21
-376.6480734744948
 31
0.0
  0
INSERT
  5
1304
330
78B
100
AcDbEntity
  8
0
 62
     0
370
    -2
100
AcDbBlockReference
  2
_ArchTick
 10
10339.57505113352
 20
3698.351926525505
 30
0.0
 41
100.0
 42
100.0
 43
100.0
 50
90.0
  0
INSERT
  5
1305
330
78B
100
AcDbEntity
  8
0
 62
     0
370
    -2
100
AcDbBlockReference
  2
_ArchTick
 10
10339.57505113352
 20
-301.6480734744948
 30
0.0
 41
100.0
 42
100.0
 43
100.0
 50
270.0
  0
MTEXT
  5
1306
330
78B
100
AcDbEntity
  8
0
 62
     0
100
AcDbMText
 10
10238.51775236134
 20
1698.351926525506
 30
0.0
 40
100.0
 41
0.0
 71
     5
 72
     1
  1
~4000
 11
0.0000000000000001
 21
1.0
 31
0.0
 73
     1
 44
1.0
1001
ACAD
1000
MTEXTBEGIN
1070
    73
1070
     1
1070
    44
1040
1.0
1070
    74
1070
     0
1000
MTEXTEND
  0
POINT
  5
1307
330
78B
100
AcDbEntity
  8
Defpoints
 62
     0
100
AcDbPoint
 10
10960.26811686644
 20
3698.351926525505
 30
0.0
  0
POINT
  5
1308
330
78B
100
AcDbEntity
  8
Defpoints
 62
     0
100
AcDbPoint
 10
10960.26811686644
 20
-301.6480734744951
 30
0.0
  0
POINT
  5
1309
330
78B
100
AcDbEntity
  8
Defpoints
 62
     0
100
AcDbPoint
 10
10339.57505113352
 20
-301.6480734744948
 30
0.0
  0
ENDBLK
  5
78D
330
78B
100
AcDbEntity
  8
0
100
AcDbBlockEnd
  0
BLOCK
  5
8BB
330
8BA
100
AcDbEntity
  8
0
100
AcDbBlockBegin
  2
*D20
 70
     1
 10
0.0
 20
0.0
 30
0.0
  3
*D20
  1

  0
LINE
  5
97D
330
8BA
100
AcDbEntity
  8
0
 62
     0
370
    -2
100
AcDbLine
 10
-139.5987877901575
 20
17835.63705289064
 30
0.0
 11
-139.5987877901575
 21
18105.44711299433
 31
0.0
  0
LINE
  5
97E
330
8BA
100
AcDbEntity
  8
0
 62
     0
370
    -2
100
AcDbLine
 10
760.4012122098428
 20
17835.63705289063
 30
0.0
 11
760.4012122098428
 21
18105.44711299433
 31
0.0
  0
LINE
  5
97F
330
8BA
100
AcDbEntity
  8
0
 62
     0
370
    -2
100
AcDbLine
 10
-214.5987877901575
 20
18030.44711299433
 30
0.0
 11
835.401212209843
 21
18030.44711299433
 31
0.0
  0
INSERT
  5
980
330
8BA
100
AcDbEntity
  8
0
 62
     0
370
    -2
100
AcDbBlockReference
  2
_ArchTick
 10
-139.5987877901575
 20
18030.44711299433
 30
0.0
 41
100.0
 42
100.0
 43
100.0
 50
180.0
  0
INSERT
  5
981
330
8BA
100
AcDbEntity
  8
0
 62
     0
370
    -2
100
AcDbBlockReference
  2
_ArchTick
 10
760.4012122098428
 20
18030.44711299433
 30
0.0
 41
100.0
 42
100.0
 43
100.0
  0
MTEXT
  5
982
330
8BA
100
AcDbEntity
  8
0
 62
     0
100
AcDbMText
 10
310.4012122098427
 20
18131.5044117665
 30
0.0
 40
100.0
 41
0.0
 71
     5
 72
     1
  1
~900
 73
     1
 44
1.0
1001
ACAD
1000
MTEXTBEGIN
1070
    73
1070
     1
1070
    44
1040
1.0
1070
    74
1070
     0
1000
MTEXTEND
  0
POINT
  5
983
330
8BA
100
AcDbEntity
  8
Defpoints
 62
     0
100
AcDbPoint
 10
-139.5987877901575
 20
17710.63705289064
 30
0.0
  0
POINT
  5
984
330
8BA
100
AcDbEntity
  8
Defpoints
 62
     0
100
AcDbPoint
 10
760.4012122098428
 20
17710.63705289063
 30
0.0
  0
POINT
  5
985
330
8BA
100
AcDbEntity
  8
Defpoints
 62
     0
100
AcDbPoint
 10
760.4012122098428
 20
18030.44711299433
 30
0.0
  0
ENDBLK
  5
8BC
330
8BA
100
AcDbEntity
  8
0
100
AcDbBlockEnd
  0
BLOCK
  5
8C8
330
8C7
100
AcDbEntity
  8
0
100
AcDbBlockBegin
  2
*D21
 70
     1
 10
0.0
 20
0.0
 30
0.0
  3
*D21
  1

  0
LINE
  5
986
330
8C7
100
AcDbEntity
  8
0
 62
     0
370
    -2
100
AcDbLine
 10
-264.5987877901575
 20
17710.63705289063
 30
0.0
 11
-556.3646747348391
 21
17710.63705289063
 31
0.0
  0
LINE
  5
987
330
8C7
100
AcDbEntity
  8
0
 62
     0
370
    -2
100
AcDbLine
 10
-264.5987877901571
 20
16810.63705289063
 30
0.0
 11
-556.3646747348393
 21
16810.63705289063
 31
0.0
  0
LINE
  5
988
330
8C7
100
AcDbEntity
  8
0
 62
     0
370
    -2
100
AcDbLine
 10
-481.3646747348392
 20
17785.63705289063
 30
0.0
 11
-481.3646747348394
 21
16735.63705289063
 31
0.0
  0
INSERT
  5
989
330
8C7
100
AcDbEntity
  8
0
 62
     0
370
    -2
100
AcDbBlockReference
  2
_ArchTick
 10
-481.3646747348392
 20
17710.63705289063
 30
0.0
 41
100.0
 42
100.0
 43
100.0
 50
90.0
  0
INSERT
  5
98A
330
8C7
100
AcDbEntity
  8
0
 62
     0
370
    -2
100
AcDbBlockReference
  2
_ArchTick
 10
-481.3646747348393
 20
16810.63705289063
 30
0.0
 41
100.0
 42
100.0
 43
100.0
 50
270.0
  0
MTEXT
  5
98B
330
8C7
100
AcDbEntity
  8
0
 62
     0
100
AcDbMText
 10
-582.4219735070112
 20
17260.63705289063
 30
0.0
 40
100.0
 41
0.0
 71
     5
 72
     1
  1
~900
 11
0.0000000000000001
 21
1.0
 31
0.0
 73
     1
 44
1.0
1001
ACAD
1000
MTEXTBEGIN
1070
    73
1070
     1
1070
    44
1040
1.0
1070
    74
1070
     0
1000
MTEXTEND
  0
POINT
  5
98C
330
8C7
100
AcDbEntity
  8
Defpoints
 62
     0
100
AcDbPoint
 10
-139.5987877901575
 20
17710.63705289063
 30
0.0
  0
POINT
  5
98D
330
8C7
100
AcDbEntity
  8
Defpoints
 62
     0
100
AcDbPoint
 10
-139.5987877901571
 20
16810.63705289063
 30
0.0
  0
POINT
  5
98E
330
8C7
100
AcDbEntity
  8
Defpoints
 62
     0
100
AcDbPoint
 10
-481.3646747348393
 20
16810.63705289063
 30
0.0
  0
ENDBLK
  5
8C9
330
8C7
100
AcDbEntity
  8
0
100
AcDbBlockEnd
  0
BLOCK
  5
8D5
330
8D4
100
AcDbEntity
  8
0
100
AcDbBlockBegin
  2
*D22
 70
     1
 10
0.0
 20
0.0
 30
0.0
  3
*D22
  1

  0
LINE
  5
A09
330
8D4
100
AcDbEntity
  8
0
 62
     0
370
    -2
100
AcDbLine
 10
-264.5987877901575
 20
16275.31551691307
 30
0.0
 11
-555.9480080681732
 21
16275.31551691307
 31
0.0
  0
LINE
  5
A0A
330
8D4
100
AcDbEntity
  8
0
 62
     0
370
    -2
100
AcDbLine
 10
-264.5987877901575
 20
15675.31551691307
 30
0.0
 11
-555.9480080681732
 21
15675.31551691307
 31
0.0
  0
LINE
  5
A0B
330
8D4
100
AcDbEntity
  8
0
 62
     0
370
    -2
100
AcDbLine
 10
-480.9480080681731
 20
16350.31551691307
 30
0.0
 11
-480.9480080681733
 21
15600.31551691307
 31
0.0
  0
INSERT
  5
A0C
330
8D4
100
AcDbEntity
  8
0
 62
     0
370
    -2
100
AcDbBlockReference
  2
_ArchTick
 10
-480.9480080681731
 20
16275.31551691307
 30
0.0
 41
100.0
 42
100.0
 43
100.0
 50
90.0
  0
INSERT
  5
A0D
330
8D4
100
AcDbEntity
  8
0
 62
     0
370
    -2
100
AcDbBlockReference
  2
_ArchTick
 10
-480.9480080681733
 20
15675.31551691307
 30
0.0
 41
100.0
 42
100.0
 43
100.0
 50
270.0
  0
MTEXT
  5
A0E
330
8D4
100
AcDbEntity
  8
0
 62
     0
100
AcDbMText
 10
-582.0053068403447
 20
15975.31551691307
 30
0.0
 40
100.0
 41
0.0
 71
     5
 72
     1
  1
~600
 11
0.0000000000000001
 21
1.0
 31
0.0
 73
     1
 44
1.0
1001
ACAD
1000
MTEXTBEGIN
1070
    73
1070
     1
1070
    44
1040
1.0
1070
    74
1070
     0
1000
MTEXTEND
  0
POINT
  5
A0F
330
8D4
100
AcDbEntity
  8
Defpoints
 62
     0
100
AcDbPoint
 10
-139.5987877901575
 20
16275.31551691307
 30
0.0
  0
POINT
  5
A10
330
8D4
100
AcDbEntity
  8
Defpoints
 62
     0
100
AcDbPoint
 10
-139.5987877901575
 20
15675.31551691307
 30
0.0
  0
POINT
  5
A11
330
8D4
100
AcDbEntity
  8
Defpoints
 62
     0
100
AcDbPoint
 10
-480.9480080681733
 20
15675.31551691307
 30
0.0
  0
ENDBLK
  5
8D6
330
8D4
100
AcDbEntity
  8
0
100
AcDbBlockEnd
  0
BLOCK
  5
8ED
330
8EC
100
AcDbEntity
  8
0
100
AcDbBlockBegin
  2
*D23
 70
     1
 10
0.0
 20
0.0
 30
0.0
  3
*D23
  1

  0
LINE
  5
A59
330
8EC
100
AcDbEntity
  8
0
 62
     0
370
    -2
100
AcDbLine
 10
7487.685482524779
 20
17835.63705289064
 30
0.0
 11
7487.685482524779
 21
18105.44711299433
 31
0.0
  0
LINE
  5
A5A
330
8EC
100
AcDbEntity
  8
0
 62
     0
370
    -2
100
AcDbLine
 10
8387.685482524778
 20
17835.63705289063
 30
0.0
 11
8387.685482524778
 21
18105.44711299433
 31
0.0
  0
LINE
  5
A5B
330
8EC
100
AcDbEntity
  8
0
 62
     0
370
    -2
100
AcDbLine
 10
7412.685482524778
 20
18030.44711299433
 30
0.0
 11
8462.685482524779
 21
18030.44711299433
 31
0.0
  0
INSERT
  5
A5C
330
8EC
100
AcDbEntity
  8
0
 62
     0
370
    -2
100
AcDbBlockReference
  2
_ArchTick
 10
7487.685482524779
 20
18030.44711299433
 30
0.0
 41
100.0
 42
100.0
 43
100.0
 50
180.0
  0
INSERT
  5
A5D
330
8EC
100
AcDbEntity
  8
0
 62
     0
370
    -2
100
AcDbBlockReference
  2
_ArchTick
 10
8387.685482524778
 20
18030.44711299433
 30
0.0
 41
100.0
 42
100.0
 43
100.0
  0
MTEXT
  5
A5E
330
8EC
100
AcDbEntity
  8
0
 62
     0
100
AcDbMText
 10
7937.685482524779
 20
18131.5044117665
 30
0.0
 40
100.0
 41
0.0
 71
     5
 72
     1
  1
~900
 73
     1
 44
1.0
1001
ACAD
1000
MTEXTBEGIN
1070
    73
1070
     1
1070
    44
1040
1.0
1070
    74
1070
     0
1000
MTEXTEND
  0
POINT
  5
A5F
330
8EC
100
AcDbEntity
  8
Defpoints
 62
     0
100
AcDbPoint
 10
7487.685482524779
 20
17710.63705289064
 30
0.0
  0
POINT
  5
A60
330
8EC
100
AcDbEntity
  8
Defpoints
 62
     0
100
AcDbPoint
 10
8387.685482524778
 20
17710.63705289063
 30
0.0
  0
POINT
  5
A61
330
8EC
100
AcDbEntity
  8
Defpoints
 62
     0
100
AcDbPoint
 10
8387.685482524778
 20
18030.44711299433
 30
0.0
  0
ENDBLK
  5
8EE
330
8EC
100
AcDbEntity
  8
0
100
AcDbBlockEnd
  0
BLOCK
  5
9A5
330
9A4
100
AcDbEntity
  8
0
100
AcDbBlockBegin
  2
*D24
 70
     1
 10
0.0
 20
0.0
 30
0.0
  3
*D24
  1

  0
LINE
  5
A62
330
9A4
100
AcDbEntity
  8
0
 62
     0
370
    -2
100
AcDbLine
 10
7362.685482524779
 20
16275.31551691307
 30
0.0
 11
7071.336262246763
 21
16275.31551691307
 31
0.0
  0
LINE
  5
A63
330
9A4
100
AcDbEntity
  8
0
 62
     0
370
    -2
100
AcDbLine
 10
7362.685482524779
 20
15675.31551691307
 30
0.0
 11
7071.336262246763
 21
15675.31551691307
 31
0.0
  0
LINE
  5
A64
330
9A4
100
AcDbEntity
  8
0
 62
     0
370
    -2
100
AcDbLine
 10
7146.336262246761
 20
16350.31551691307
 30
0.0
 11
7146.336262246761
 21
15600.31551691307
 31
0.0
  0
INSERT
  5
A65
330
9A4
100
AcDbEntity
  8
0
 62
     0
370
    -2
100
AcDbBlockReference
  2
_ArchTick
 10
7146.336262246761
 20
16275.31551691307
 30
0.0
 41
100.0
 42
100.0
 43
100.0
 50
90.0
  0
INSERT
  5
A66
330
9A4
100
AcDbEntity
  8
0
 62
     0
370
    -2
100
AcDbBlockReference
  2
_ArchTick
 10
7146.336262246761
 20
15675.31551691307
 30
0.0
 41
100.0
 42
100.0
 43
100.0
 50
270.0
  0
MTEXT
  5
A67
330
9A4
100
AcDbEntity
  8
0
 62
     0
100
AcDbMText
 10
7045.278963474591
 20
15975.31551691307
 30
0.0
 40
100.0
 41
0.0
 71
     5
 72
     1
  1
~600
 11
0.0000000000000001
 21
1.0
 31
0.0
 73
     1
 44
1.0
1001
ACAD
1000
MTEXTBEGIN
1070
    73
1070
     1
1070
    44
1040
1.0
1070
    74
1070
     0
1000
MTEXTEND
  0
POINT
  5
A68
330
9A4
100
AcDbEntity
  8
Defpoints
 62
     0
100
AcDbPoint
 10
7487.685482524779
 20
16275.31551691307
 30
0.0
  0
POINT
  5
A69
330
9A4
100
AcDbEntity
  8
Defpoints
 62
     0
100
AcDbPoint
 10
7487.685482524779
 20
15675.31551691307
 30
0.0
  0
POINT
  5
A6A
330
9A4
100
AcDbEntity
  8
Defpoints
 62
     0
100
AcDbPoint
 10
7146.336262246761
 20
15675.31551691307
 30
0.0
  0
ENDBLK
  5
9A6
330
9A4
100
AcDbEntity
  8
0
100
AcDbBlockEnd
  0
BLOCK
  5
9BB
330
9BA
100
AcDbEntity
  8
0
100
AcDbBlockBegin
  2
*D25
 70
     1
 10
0.0
 20
0.0
 30
0.0
  3
*D25
  1

  0
LINE
  5
A6B
330
9BA
100
AcDbEntity
  8
0
 62
     0
370
    -2
100
AcDbLine
 10
2362.628504714179
 20
18885.63705289063
 30
0.0
 11
2362.628504714179
 21
19155.44711299433
 31
0.0
  0
LINE
  5
A6C
330
9BA
100
AcDbEntity
  8
0
 62
     0
370
    -2
100
AcDbLine
 10
5362.628504714179
 20
18885.63705289063
 30
0.0
 11
5362.628504714179
 21
19155.44711299433
 31
0.0
  0
LINE
  5
A6D
330
9BA
100
AcDbEntity
  8
0
 62
     0
370
    -2
100
AcDbLine
 10
2287.628504714179
 20
19080.44711299433
 30
0.0
 11
5437.628504714179
 21
19080.44711299433
 31
0.0
  0
INSERT
  5
A6E
330
9BA
100
AcDbEntity
  8
0
 62
     0
370
    -2
100
AcDbBlockReference
  2
_ArchTick
 10
2362.628504714179
 20
19080.44711299433
 30
0.0
 41
100.0
 42
100.0
 43
100.0
 50
180.0
  0
INSERT
  5
A6F
330
9BA
100
AcDbEntity
  8
0
 62
     0
370
    -2
100
AcDbBlockReference
  2
_ArchTick
 10
5362.628504714179
 20
19080.44711299433
 30
0.0
 41
100.0
 42
100.0
 43
100.0
  0
MTEXT
  5
A70
330
9BA
100
AcDbEntity
  8
0
 62
     0
100
AcDbMText
 10
3862.628504714179
 20
19181.5385181785
 30
0.0
 40
100.0
 41
0.0
 71
     5
 72
     1
  1
~3000
 73
     1
 44
1.0
1001
ACAD
1000
MTEXTBEGIN
1070
    73
1070
     1
1070
    44
1040
1.0
1070
    74
1070
     0
1000
MTEXTEND
  0
POINT
  5
A71
330
9BA
100
AcDbEntity
  8
Defpoints
 62
     0
100
AcDbPoint
 10
2362.628504714179
 20
18760.63705289063
 30
0.0
  0
POINT
  5
A72
330
9BA
100
AcDbEntity
  8
Defpoints
 62
     0
100
AcDbPoint
 10
5362.628504714179
 20
18760.63705289063
 30
0.0
  0
POINT
  5
A73
330
9BA
100
AcDbEntity
  8
Defpoints
 62
     0
100
AcDbPoint
 10
5362.628504714179
 20
19080.44711299433
 30
0.0
  0
ENDBLK
  5
9BC
330
9BA
100
AcDbEntity
  8
0
100
AcDbBlockEnd
  0
BLOCK
  5
9DA
330
9D9
100
AcDbEntity
  8
0
100
AcDbBlockBegin
  2
*D26
 70
     1
 10
0.0
 20
0.0
 30
0.0
  3
*D26
  1

  0
LINE
  5
A74
330
9D9
100
AcDbEntity
  8
0
 62
     0
370
    -2
100
AcDbLine
 10
2237.628504714179
 20
18760.63705289063
 30
0.0
 11
1946.279284436164
 21
18760.63705289063
 31
0.0
  0
LINE
  5
A75
330
9D9
100
AcDbEntity
  8
0
 62
     0
370
    -2
100
AcDbLine
 10
2237.628504714179
 20
15760.63705289063
 30
0.0
 11
1946.279284436163
 21
15760.63705289063
 31
0.0
  0
LINE
  5
A76
330
9D9
100
AcDbEntity
  8
0
 62
     0
370
    -2
100
AcDbLine
 10
2021.279284436164
 20
18835.63705289063
 30
0.0
 11
2021.279284436163
 21
15685.63705289063
 31
0.0
  0
INSERT
  5
A77
330
9D9
100
AcDbEntity
  8
0
 62
     0
370
    -2
100
AcDbBlockReference
  2
_ArchTick
 10
2021.279284436164
 20
18760.63705289063
 30
0.0
 41
100.0
 42
100.0
 43
100.0
 50
90.0
  0
INSERT
  5
A78
330
9D9
100
AcDbEntity
  8
0
 62
     0
370
    -2
100
AcDbBlockReference
  2
_ArchTick
 10
2021.279284436163
 20
15760.63705289063
 30
0.0
 41
100.0
 42
100.0
 43
100.0
 50
270.0
  0
MTEXT
  5
A79
330
9D9
100
AcDbEntity
  8
0
 62
     0
100
AcDbMText
 10
1920.187879251986
 20
17260.63705289063
 30
0.0
 40
100.0
 41
0.0
 71
     5
 72
     1
  1
~3000
 11
0.0000000000000001
 21
1.0
 31
0.0
 73
     1
 44
1.0
1001
ACAD
1000
MTEXTBEGIN
1070
    73
1070
     1
1070
    44
1040
1.0
1070
    74
1070
     0
1000
MTEXTEND
  0
POINT
  5
A7A
330
9D9
100
AcDbEntity
  8
Defpoints
 62
     0
100
AcDbPoint
 10
2362.628504714179
 20
18760.63705289063
 30
0.0
  0
POINT
  5
A7B
330
9D9
100
AcDbEntity
  8
Defpoints
 62
     0
100
AcDbPoint
 10
2362.628504714179
 20
15760.63705289063
 30
0.0
  0
POINT
  5
A7C
330
9D9
100
AcDbEntity
  8
Defpoints
 62
     0
100
AcDbPoint
 10
2021.279284436163
 20
15760.63705289063
 30
0.0
  0
ENDBLK
  5
9DB
330
9D9
100
AcDbEntity
  8
0
100
AcDbBlockEnd
  0
BLOCK
  5
A1E
330
A1D
100
AcDbEntity
  8
0
100
AcDbBlockBegin
  2
*D27
 70
     1
 10
0.0
 20
0.0
 30
0.0
  3
*D27
  1

  0
LINE
  5
A35
330
A1D
100
AcDbEntity
  8
0
 62
     0
370
    -2
100
AcDbLine
 10
10183.86355840696
 20
18885.63705289063
 30
0.0
 11
10183.86355840696
 21
19155.44711299433
 31
0.0
  0
LINE
  5
A36
330
A1D
100
AcDbEntity
  8
0
 62
     0
370
    -2
100
AcDbLine
 10
13183.86355840696
 20
18885.63705289063
 30
0.0
 11
13183.86355840696
 21
19155.44711299433
 31
0.0
  0
LINE
  5
A37
330
A1D
100
AcDbEntity
  8
0
 62
     0
370
    -2
100
AcDbLine
 10
10108.86355840696
 20
19080.44711299433
 30
0.0
 11
13258.86355840696
 21
19080.44711299433
 31
0.0
  0
INSERT
  5
A38
330
A1D
100
AcDbEntity
  8
0
 62
     0
370
    -2
100
AcDbBlockReference
  2
_ArchTick
 10
10183.86355840696
 20
19080.44711299433
 30
0.0
 41
100.0
 42
100.0
 43
100.0
 50
180.0
  0
INSERT
  5
A39
330
A1D
100
AcDbEntity
  8
0
 62
     0
370
    -2
100
AcDbBlockReference
  2
_ArchTick
 10
13183.86355840696
 20
19080.44711299433
 30
0.0
 41
100.0
 42
100.0
 43
100.0
  0
MTEXT
  5
A3A
330
A1D
100
AcDbEntity
  8
0
 62
     0
100
AcDbMText
 10
11683.86355840696
 20
19181.5385181785
 30
0.0
 40
100.0
 41
0.0
 71
     5
 72
     1
  1
~3000
 73
     1
 44
1.0
1001
ACAD
1000
MTEXTBEGIN
1070
    73
1070
     1
1070
    44
1040
1.0
1070
    74
1070
     0
1000
MTEXTEND
  0
POINT
  5
A3B
330
A1D
100
AcDbEntity
  8
Defpoints
 62
     0
100
AcDbPoint
 10
10183.86355840696
 20
18760.63705289063
 30
0.0
  0
POINT
  5
A3C
330
A1D
100
AcDbEntity
  8
Defpoints
 62
     0
100
AcDbPoint
 10
13183.86355840696
 20
18760.63705289063
 30
0.0
  0
POINT
  5
A3D
330
A1D
100
AcDbEntity
  8
Defpoints
 62
     0
100
AcDbPoint
 10
13183.86355840696
 20
19080.44711299433
 30
0.0
  0
ENDBLK
  5
A1F
330
A1D
100
AcDbEntity
  8
0
100
AcDbBlockEnd
  0
BLOCK
  5
A2A
330
A29
100
AcDbEntity
  8
0
100
AcDbBlockBegin
  2
*D28
 70
     1
 10
0.0
 20
0.0
 30
0.0
  3
*D28
  1

  0
LINE
  5
A3E
330
A29
100
AcDbEntity
  8
0
 62
     0
370
    -2
100
AcDbLine
 10
10058.86355840696
 20
18760.63705289063
 30
0.0
 11
9767.514338128947
 21
18760.63705289063
 31
0.0
  0
LINE
  5
A3F
330
A29
100
AcDbEntity
  8
0
 62
     0
370
    -2
100
AcDbLine
 10
10058.86355840696
 20
15760.63705289063
 30
0.0
 11
9767.514338128947
 21
15760.63705289063
 31
0.0
  0
LINE
  5
A40
330
A29
100
AcDbEntity
  8
0
 62
     0
370
    -2
100
AcDbLine
 10
9842.514338128948
 20
18835.63705289063
 30
0.0
 11
9842.514338128948
 21
15685.63705289063
 31
0.0
  0
INSERT
  5
A41
330
A29
100
AcDbEntity
  8
0
 62
     0
370
    -2
100
AcDbBlockReference
  2
_ArchTick
 10
9842.514338128948
 20
18760.63705289063
 30
0.0
 41
100.0
 42
100.0
 43
100.0
 50
90.0
  0
INSERT
  5
A42
330
A29
100
AcDbEntity
  8
0
 62
     0
370
    -2
100
AcDbBlockReference
  2
_ArchTick
 10
9842.514338128948
 20
15760.63705289063
 30
0.0
 41
100.0
 42
100.0
 43
100.0
 50
270.0
  0
MTEXT
  5
A43
330
A29
100
AcDbEntity
  8
0
 62
     0
100
AcDbMText
 10
9741.422932944772
 20
17260.63705289063
 30
0.0
 40
100.0
 41
0.0
 71
     5
 72
     1
  1
~3000
 11
0.0000000000000001
 21
1.0
 31
0.0
 73
     1
 44
1.0
1001
ACAD
1000
MTEXTBEGIN
1070
    73
1070
     1
1070
    44
1040
1.0
1070
    74
1070
     0
1000
MTEXTEND
  0
POINT
  5
A44
330
A29
100
AcDbEntity
  8
Defpoints
 62
     0
100
AcDbPoint
 10
10183.86355840696
 20
18760.63705289063
 30
0.0
  0
POINT
  5
A45
330
A29
100
AcDbEntity
  8
Defpoints
 62
     0
100
AcDbPoint
 10
10183.86355840696
 20
15760.63705289063
 30
0.0
  0
POINT
  5
A46
330
A29
100
AcDbEntity
  8
Defpoints
 62
     0
100
AcDbPoint
 10
9842.514338128948
 20
15760.63705289063
 30
0.0
  0
ENDBLK
  5
A2B
330
A29
100
AcDbEntity
  8
0
100
AcDbBlockEnd
  0
BLOCK
  5
D06
330
D05
100
AcDbEntity
  8
0
100
AcDbBlockBegin
  2
*D29
 70
     1
 10
0.0
 20
0.0
 30
0.0
  3
*D29
  1

  0
LINE
  5
1464
330
D05
100
AcDbEntity
  8
0
 62
     0
370
    -2
100
AcDbLine
 10
2384.882069213116
 20
2434.691438161924
 30
0.0
 11
2764.850171720525
 21
2434.691438161924
 31
0.0
  0
LINE
  5
1465
330
D05
100
AcDbEntity
  8
0
 62
     0
370
    -2
100
AcDbLine
 10
2384.882069213116
 20
1434.691438161922
 30
0.0
 11
2764.850171720525
 21
1434.691438161922
 31
0.0
  0
LINE
  5
1466
330
D05
100
AcDbEntity
  8
0
 62
     0
370
    -2
100
AcDbLine
 10
2689.850171720526
 20
2509.691438161923
 30
0.0
 11
2689.850171720526
 21
1359.691438161922
 31
0.0
  0
INSERT
  5
1467
330
D05
100
AcDbEntity
  8
0
 62
     0
370
    -2
100
AcDbBlockReference
  2
_ArchTick
 10
2689.850171720526
 20
2434.691438161924
 30
0.0
 41
100.0
 42
100.0
 43
100.0
 50
90.0
  0
INSERT
  5
1468
330
D05
100
AcDbEntity
  8
0
 62
     0
370
    -2
100
AcDbBlockReference
  2
_ArchTick
 10
2689.850171720526
 20
1434.691438161922
 30
0.0
 41
100.0
 42
100.0
 43
100.0
 50
270.0
  0
MTEXT
  5
1469
330
D05
100
AcDbEntity
  8
0
 62
     0
100
AcDbMText
 10
2588.792872948356
 20
1934.691438161923
 30
0.0
 40
100.0
 41
0.0
 71
     5
 72
     1
  1
1000
 11
0.0000000000000001
 21
1.0
 31
0.0
 73
     1
 44
1.0
1001
ACAD
1000
MTEXTBEGIN
1070
    73
1070
     1
1070
    44
1040
1.0
1070
    74
1070
     0
1000
MTEXTEND
  0
POINT
  5
146A
330
D05
100
AcDbEntity
  8
Defpoints
 62
     0
100
AcDbPoint
 10
2259.882069213116
 20
2434.691438161924
 30
0.0
  0
POINT
  5
146B
330
D05
100
AcDbEntity
  8
Defpoints
 62
     0
100
AcDbPoint
 10
2259.882069213116
 20
1434.691438161922
 30
0.0
  0
POINT
  5
146C
330
D05
100
AcDbEntity
  8
Defpoints
 62
     0
100
AcDbPoint
 10
2689.850171720526
 20
1434.691438161922
 30
0.0
  0
ENDBLK
  5
D07
330
D05
100
AcDbEntity
  8
0
100
AcDbBlockEnd
  0
BLOCK
  5
D12
330
D11
100
AcDbEntity
  8
0
100
AcDbBlockBegin
  2
*D30
 70
     1
 10
0.0
 20
0.0
 30
0.0
  3
*D30
  1

  0
LINE
  5
146D
330
D11
100
AcDbEntity
  8
0
 62
     0
370
    -2
100
AcDbLine
 10
-107.2774387306745
 20
955.1253228601707
 30
0.0
 11
-107.2774387306745
 21
931.187511760101
 31
0.0
  0
LINE
  5
146E
330
D11
100
AcDbEntity
  8
0
 62
     0
370
    -2
100
AcDbLine
 10
1892.722561269325
 20
955.1253228601707
 30
0.0
 11
1892.722561269325
 21
931.187511760101
 31
0.0
  0
LINE
  5
146F
330
D11
100
AcDbEntity
  8
0
 62
     0
370
    -2
100
AcDbLine
 10
-182.2774387306744
 20
1006.187511760101
 30
0.0
 11
1967.722561269325
 21
1006.187511760101
 31
0.0
  0
INSERT
  5
1470
330
D11
100
AcDbEntity
  8
0
 62
     0
370
    -2
100
AcDbBlockReference
  2
_ArchTick
 10
-107.2774387306745
 20
1006.187511760101
 30
0.0
 41
100.0
 42
100.0
 43
100.0
 50
180.0
  0
INSERT
  5
1471
330
D11
100
AcDbEntity
  8
0
 62
     0
370
    -2
100
AcDbBlockReference
  2
_ArchTick
 10
1892.722561269325
 20
1006.187511760101
 30
0.0
 41
100.0
 42
100.0
 43
100.0
  0
MTEXT
  5
1472
330
D11
100
AcDbEntity
  8
0
 62
     0
100
AcDbMText
 10
892.7225612693256
 20
1107.24481053227
 30
0.0
 40
100.0
 41
0.0
 71
     5
 72
     1
  1
ca:2000
 73
     1
 44
1.0
1001
ACAD
1000
MTEXTBEGIN
1070
    73
1070
     1
1070
    44
1040
1.0
1070
    74
1070
     0
1000
MTEXTEND
  0
POINT
  5
1473
330
D11
100
AcDbEntity
  8
Defpoints
 62
     0
100
AcDbPoint
 10
-107.2774387306745
 20
1080.125322860171
 30
0.0
  0
POINT
  5
1474
330
D11
100
AcDbEntity
  8
Defpoints
 62
     0
100
AcDbPoint
 10
1892.722561269325
 20
1080.125322860171
 30
0.0
  0
POINT
  5
1475
330
D11
100
AcDbEntity
  8
Defpoints
 62
     0
100
AcDbPoint
 10
1892.722561269325
 20
1006.187511760101
 30
0.0
  0
ENDBLK
  5
D13
330
D11
100
AcDbEntity
  8
0
100
AcDbBlockEnd
  0
BLOCK
  5
D1E
330
D1D
100
AcDbEntity
  8
0
100
AcDbBlockBegin
  2
*D31
 70
     1
 10
0.0
 20
0.0
 30
0.0
  3
*D31
  1

  0
LINE
  5
1476
330
D1D
100
AcDbEntity
  8
0
 62
     0
370
    -2
100
AcDbLine
 10
-1321.802174176813
 20
8432.711452988584
 30
0.0
 11
-1321.802174176813
 21
9303.509136941517
 31
0.0
  0
LINE
  5
1477
330
D1D
100
AcDbEntity
  8
0
 62
     0
370
    -2
100
AcDbLine
 10
2678.197825823187
 20
8432.711452988584
 30
0.0
 11
2678.197825823187
 21
9303.509136941517
 31
0.0
  0
LINE
  5
1478
330
D1D
100
AcDbEntity
  8
0
 62
     0
370
    -2
100
AcDbLine
 10
-1396.802174176813
 20
9228.509136941516
 30
0.0
 11
2753.197825823187
 21
9228.509136941516
 31
0.0
  0
INSERT
  5
1479
330
D1D
100
AcDbEntity
  8
0
 62
     0
370
    -2
100
AcDbBlockReference
  2
_ArchTick
 10
-1321.802174176813
 20
9228.509136941516
 30
0.0
 41
100.0
 42
100.0
 43
100.0
 50
180.0
  0
INSERT
  5
147A
330
D1D
100
AcDbEntity
  8
0
 62
     0
370
    -2
100
AcDbBlockReference
  2
_ArchTick
 10
2678.197825823187
 20
9228.509136941516
 30
0.0
 41
100.0
 42
100.0
 43
100.0
  0
MTEXT
  5
147B
330
D1D
100
AcDbEntity
  8
0
 62
     0
100
AcDbMText
 10
678.1978258231864
 20
9329.566435713688
 30
0.0
 40
100.0
 41
0.0
 71
     5
 72
     1
  1
4000
 73
     1
 44
1.0
1001
ACAD
1000
MTEXTBEGIN
1070
    73
1070
     1
1070
    44
1040
1.0
1070
    74
1070
     0
1000
MTEXTEND
  0
POINT
  5
147C
330
D1D
100
AcDbEntity
  8
Defpoints
 62
     0
100
AcDbPoint
 10
-1321.802174176813
 20
8307.711452988584
 30
0.0
  0
POINT
  5
147D
330
D1D
100
AcDbEntity
  8
Defpoints
 62
     0
100
AcDbPoint
 10
2678.197825823187
 20
8307.711452988584
 30
0.0
  0
POINT
  5
147E
330
D1D
100
AcDbEntity
  8
Defpoints
 62
     0
100
AcDbPoint
 10
2678.197825823187
 20
9228.509136941516
 30
0.0
  0
ENDBLK
  5
D1F
330
D1D
100
AcDbEntity
  8
0
100
AcDbBlockEnd
  0
BLOCK
  5
D2A
330
D29
100
AcDbEntity
  8
0
100
AcDbBlockBegin
  2
*D32
 70
     1
 10
0.0
 20
0.0
 30
0.0
  3
*D32
  1

  0
LINE
  5
147F
330
D29
100
AcDbEntity
  8
0
 62
     0
370
    -2
100
AcDbLine
 10
2803.197825823187
 20
8307.711452988584
 30
0.0
 11
3919.237498354084
 21
8307.711452988584
 31
0.0
  0
LINE
  5
1480
330
D29
100
AcDbEntity
  8
0
 62
     0
370
    -2
100
AcDbLine
 10
2803.197825823187
 20
3307.711452988582
 30
0.0
 11
3919.237498354083
 21
3307.711452988582
 31
0.0
  0
LINE
  5
1481
330
D29
100
AcDbEntity
  8
0
 62
     0
370
    -2
100
AcDbLine
 10
3844.237498354084
 20
8382.711452988585
 30
0.0
 11
3844.237498354083
 21
3232.711452988582
 31
0.0
  0
INSERT
  5
1482
330
D29
100
AcDbEntity
  8
0
 62
     0
370
    -2
100
AcDbBlockReference
  2
_ArchTick
 10
3844.237498354084
 20
8307.711452988584
 30
0.0
 41
100.0
 42
100.0
 43
100.0
 50
90.0
  0
INSERT
  5
1483
330
D29
100
AcDbEntity
  8
0
 62
     0
370
    -2
100
AcDbBlockReference
  2
_ArchTick
 10
3844.237498354083
 20
3307.711452988582
 30
0.0
 41
100.0
 42
100.0
 43
100.0
 50
270.0
  0
MTEXT
  5
1484
330
D29
100
AcDbEntity
  8
0
 62
     0
100
AcDbMText
 10
3743.180199581914
 20
5807.711452988583
 30
0.0
 40
100.0
 41
0.0
 71
     5
 72
     1
  1
5000
 11
0.0000000000000001
 21
1.0
 31
0.0
 73
     1
 44
1.0
1001
ACAD
1000
MTEXTBEGIN
1070
    73
1070
     1
1070
    44
1040
1.0
1070
    74
1070
     0
1000
MTEXTEND
  0
POINT
  5
1485
330
D29
100
AcDbEntity
  8
Defpoints
 62
     0
100
AcDbPoint
 10
2678.197825823187
 20
8307.711452988584
 30
0.0
  0
POINT
  5
1486
330
D29
100
AcDbEntity
  8
Defpoints
 62
     0
100
AcDbPoint
 10
2678.197825823187
 20
3307.711452988582
 30
0.0
  0
POINT
  5
1487
330
D29
100
AcDbEntity
  8
Defpoints
 62
     0
100
AcDbPoint
 10
3844.237498354083
 20
3307.711452988582
 30
0.0
  0
ENDBLK
  5
D2B
330
D29
100
AcDbEntity
  8
0
100
AcDbBlockEnd
  0
BLOCK
  5
DAB
330
DAA
100
AcDbEntity
  8
0
100
AcDbBlockBegin
  2
*D33
 70
     1
 10
0.0
 20
0.0
 30
0.0
  3
*D33
  1

  0
LINE
  5
130B
330
DAA
100
AcDbEntity
  8
0
 62
     0
370
    -2
100
AcDbLine
 10
18500.18086458112
 20
19040.47396376223
 30
0.0
 11
18500.18086458112
 21
19500.6528827279
 31
0.0
  0
LINE
  5
130C
330
DAA
100
AcDbEntity
  8
0
 62
     0
370
    -2
100
AcDbLine
 10
21000.18086458113
 20
19040.47396376223
 30
0.0
 11
21000.18086458113
 21
19500.6528827279
 31
0.0
  0
LINE
  5
130D
330
DAA
100
AcDbEntity
  8
0
 62
     0
370
    -2
100
AcDbLine
 10
18425.18086458112
 20
19425.65288272789
 30
0.0
 11
21075.18086458112
 21
19425.65288272789
 31
0.0
  0
INSERT
  5
130E
330
DAA
100
AcDbEntity
  8
0
 62
     0
370
    -2
100
AcDbBlockReference
  2
_ArchTick
 10
18500.18086458112
 20
19425.65288272789
 30
0.0
 41
100.0
 42
100.0
 43
100.0
 50
180.0
  0
INSERT
  5
130F
330
DAA
100
AcDbEntity
  8
0
 62
     0
370
    -2
100
AcDbBlockReference
  2
_ArchTick
 10
21000.18086458113
 20
19425.65288272789
 30
0.0
 41
100.0
 42
100.0
 43
100.0
  0
MTEXT
  5
1310
330
DAA
100
AcDbEntity
  8
0
 62
     0
100
AcDbMText
 10
19750.18086458112
 20
19526.71018150006
 30
0.0
 40
100.0
 41
0.0
 71
     5
 72
     1
  1
2500
 73
     1
 44
1.0
1001
ACAD
1000
MTEXTBEGIN
1070
    73
1070
     1
1070
    44
1040
1.0
1070
    74
1070
     0
1000
MTEXTEND
  0
POINT
  5
1311
330
DAA
100
AcDbEntity
  8
Defpoints
 62
     0
100
AcDbPoint
 10
18500.18086458112
 20
18915.47396376223
 30
0.0
  0
POINT
  5
1312
330
DAA
100
AcDbEntity
  8
Defpoints
 62
     0
100
AcDbPoint
 10
21000.18086458113
 20
18915.47396376223
 30
0.0
  0
POINT
  5
1313
330
DAA
100
AcDbEntity
  8
Defpoints
 62
     0
100
AcDbPoint
 10
21000.18086458113
 20
19425.65288272789
 30
0.0
  0
ENDBLK
  5
DAC
330
DAA
100
AcDbEntity
  8
0
100
AcDbBlockEnd
  0
BLOCK
  5
DC3
330
DC2
100
AcDbEntity
  8
0
100
AcDbBlockBegin
  2
*D34
 70
     1
 10
0.0
 20
0.0
 30
0.0
  3
*D34
  1

  0
LINE
  5
1314
330
DC2
100
AcDbEntity
  8
0
 62
     0
370
    -2
100
AcDbLine
 10
18375.18086458112
 20
18915.47396376223
 30
0.0
 11
17920.29556578726
 21
18915.47396376223
 31
0.0
  0
LINE
  5
1315
330
DC2
100
AcDbEntity
  8
0
 62
     0
370
    -2
100
AcDbLine
 10
18375.18086458112
 20
16415.47396376223
 30
0.0
 11
17920.29556578726
 21
16415.47396376223
 31
0.0
  0
LINE
  5
1316
330
DC2
100
AcDbEntity
  8
0
 62
     0
370
    -2
100
AcDbLine
 10
17995.29556578726
 20
18990.47396376223
 30
0.0
 11
17995.29556578726
 21
16340.47396376223
 31
0.0
  0
INSERT
  5
1317
330
DC2
100
AcDbEntity
  8
0
 62
     0
370
    -2
100
AcDbBlockReference
  2
_ArchTick
 10
17995.29556578726
 20
18915.47396376223
 30
0.0
 41
100.0
 42
100.0
 43
100.0
 50
90.0
  0
INSERT
  5
1318
330
DC2
100
AcDbEntity
  8
0
 62
     0
370
    -2
100
AcDbBlockReference
  2
_ArchTick
 10
17995.29556578726
 20
16415.47396376223
 30
0.0
 41
100.0
 42
100.0
 43
100.0
 50
270.0
  0
MTEXT
  5
1319
330
DC2
100
AcDbEntity
  8
0
 62
     0
100
AcDbMText
 10
17894.23826701509
 20
17665.47396376223
 30
0.0
 40
100.0
 41
0.0
 71
     5
 72
     1
  1
2500
 11
0.0000000000000001
 21
1.0
 31
0.0
 73
     1
 44
1.0
1001
ACAD
1000
MTEXTBEGIN
1070
    73
1070
     1
1070
    44
1040
1.0
1070
    74
1070
     0
1000
MTEXTEND
  0
POINT
  5
131A
330
DC2
100
AcDbEntity
  8
Defpoints
 62
     0
100
AcDbPoint
 10
18500.18086458112
 20
18915.47396376223
 30
0.0
  0
POINT
  5
131B
330
DC2
100
AcDbEntity
  8
Defpoints
 62
     0
100
AcDbPoint
 10
18500.18086458112
 20
16415.47396376223
 30
0.0
  0
POINT
  5
131C
330
DC2
100
AcDbEntity
  8
Defpoints
 62
     0
100
AcDbPoint
 10
17995.29556578726
 20
16415.47396376223
 30
0.0
  0
ENDBLK
  5
DC4
330
DC2
100
AcDbEntity
  8
0
100
AcDbBlockEnd
  0
BLOCK
  5
DE4
330
DE3
100
AcDbEntity
  8
0
100
AcDbBlockBegin
  2
*D35
 70
     1
 10
0.0
 20
0.0
 30
0.0
  3
*D35
  1

  0
LINE
  5
F1E
330
DE3
100
AcDbEntity
  8
0
 62
     0
370
    -2
100
AcDbLine
 10
18627.82345942226
 20
15168.74872352314
 30
0.0
 11
18559.8202218253
 21
15168.74872352314
 31
0.0
  0
LINE
  5
F1F
330
DE3
100
AcDbEntity
  8
0
 62
     0
370
    -2
100
AcDbLine
 10
18627.82345942226
 20
14868.74872352314
 30
0.0
 11
18559.8202218253
 21
14868.74872352314
 31
0.0
  0
LINE
  5
F20
330
DE3
100
AcDbEntity
  8
0
 62
     0
370
    -2
100
AcDbLine
 10
18634.8202218253
 20
15243.74872352314
 30
0.0
 11
18634.8202218253
 21
14868.74872352314
 31
0.0
  0
LINE
  5
F21
330
DE3
100
AcDbEntity
  8
0
 62
     0
370
    -2
100
AcDbLine
 10
18634.8202218253
 20
14868.74872352314
 30
0.0
 11
18634.8202218253
 21
14366.70233880281
 31
0.0
  0
INSERT
  5
F22
330
DE3
100
AcDbEntity
  8
0
 62
     0
370
    -2
100
AcDbBlockReference
  2
_ArchTick
 10
18634.8202218253
 20
15168.74872352314
 30
0.0
 41
100.0
 42
100.0
 43
100.0
 50
90.0
  0
INSERT
  5
F23
330
DE3
100
AcDbEntity
  8
0
 62
     0
370
    -2
100
AcDbBlockReference
  2
_ArchTick
 10
18634.8202218253
 20
14868.74872352314
 30
0.0
 41
100.0
 42
100.0
 43
100.0
 50
270.0
  0
MTEXT
  5
F24
330
DE3
100
AcDbEntity
  8
0
 62
     0
100
AcDbMText
 10
18533.72881664112
 20
14567.72553116297
 30
0.0
 40
100.0
 41
0.0
 71
     5
 72
     1
  1
~300
 11
0.0000000000000001
 21
1.0
 31
0.0
 73
     1
 44
1.0
1001
ACAD
1000
MTEXTBEGIN
1070
    73
1070
     1
1070
    44
1040
1.0
1070
    74
1070
     0
1000
MTEXTEND
  0
POINT
  5
F25
330
DE3
100
AcDbEntity
  8
Defpoints
 62
     0
100
AcDbPoint
 10
18752.82345942226
 20
15168.74872352314
 30
0.0
  0
POINT
  5
F26
330
DE3
100
AcDbEntity
  8
Defpoints
 62
     0
100
AcDbPoint
 10
18752.82345942226
 20
14868.74872352314
 30
0.0
  0
POINT
  5
F27
330
DE3
100
AcDbEntity
  8
Defpoints
 62
     0
100
AcDbPoint
 10
18634.8202218253
 20
14868.74872352314
 30
0.0
  0
ENDBLK
  5
DE5
330
DE3
100
AcDbEntity
  8
0
100
AcDbBlockEnd
  0
BLOCK
  5
DFC
330
DFB
100
AcDbEntity
  8
0
100
AcDbBlockBegin
  2
*D36
 70
     1
 10
0.0
 20
0.0
 30
0.0
  3
*D36
  1

  0
LINE
  5
F15
330
DFB
100
AcDbEntity
  8
0
 62
     0
370
    -2
100
AcDbLine
 10
18752.82345942226
 20
15293.74872352314
 30
0.0
 11
18752.82345942226
 21
15396.61047840264
 31
0.0
  0
LINE
  5
F16
330
DFB
100
AcDbEntity
  8
0
 62
     0
370
    -2
100
AcDbLine
 10
19252.82345942226
 20
15293.74872352314
 30
0.0
 11
19252.82345942226
 21
15396.61047840264
 31
0.0
  0
LINE
  5
F17
330
DFB
100
AcDbEntity
  8
0
 62
     0
370
    -2
100
AcDbLine
 10
18677.82345942226
 20
15321.61047840265
 30
0.0
 11
19327.82345942226
 21
15321.61047840265
 31
0.0
  0
INSERT
  5
F18
330
DFB
100
AcDbEntity
  8
0
 62
     0
370
    -2
100
AcDbBlockReference
  2
_ArchTick
 10
18752.82345942226
 20
15321.61047840265
 30
0.0
 41
100.0
 42
100.0
 43
100.0
 50
180.0
  0
INSERT
  5
F19
330
DFB
100
AcDbEntity
  8
0
 62
     0
370
    -2
100
AcDbBlockReference
  2
_ArchTick
 10
19252.82345942226
 20
15321.61047840265
 30
0.0
 41
100.0
 42
100.0
 43
100.0
  0
MTEXT
  5
F1A
330
DFB
100
AcDbEntity
  8
0
 62
     0
100
AcDbMText
 10
19002.82345942226
 20
15422.66777717482
 30
0.0
 40
100.0
 41
0.0
 71
     5
 72
     1
  1
~500
 73
     1
 44
1.0
1001
ACAD
1000
MTEXTBEGIN
1070
    73
1070
     1
1070
    44
1040
1.0
1070
    74
1070
     0
1000
MTEXTEND
  0
POINT
  5
F1B
330
DFB
100
AcDbEntity
  8
Defpoints
 62
     0
100
AcDbPoint
 10
18752.82345942226
 20
15168.74872352314
 30
0.0
  0
POINT
  5
F1C
330
DFB
100
AcDbEntity
  8
Defpoints
 62
     0
100
AcDbPoint
 10
19252.82345942226
 20
15168.74872352314
 30
0.0
  0
POINT
  5
F1D
330
DFB
100
AcDbEntity
  8
Defpoints
 62
     0
100
AcDbPoint
 10
19252.82345942226
 20
15321.61047840265
 30
0.0
  0
ENDBLK
  5
DFD
330
DFB
100
AcDbEntity
  8
0
100
AcDbBlockEnd
  0
BLOCK
  5
E27
330
E26
100
AcDbEntity
  8
0
100
AcDbBlockBegin
  2
*D37
 70
     1
 10
0.0
 20
0.0
 30
0.0
  3
*D37
  1

  0
LINE
  5
F86
330
E26
100
AcDbEntity
  8
0
 62
     0
370
    -2
100
AcDbLine
 10
20229.2823445722
 20
15168.74872352313
 30
0.0
 11
20161.27910697523
 21
15168.74872352313
 31
0.0
  0
LINE
  5
F87
330
E26
100
AcDbEntity
  8
0
 62
     0
370
    -2
100
AcDbLine
 10
20229.2823445722
 20
14868.74872352314
 30
0.0
 11
20161.27910697523
 21
14868.74872352314
 31
0.0
  0
LINE
  5
F88
330
E26
100
AcDbEntity
  8
0
 62
     0
370
    -2
100
AcDbLine
 10
20236.27910697523
 20
15243.74872352313
 30
0.0
 11
20236.27910697523
 21
14868.74872352314
 31
0.0
  0
LINE
  5
F89
330
E26
100
AcDbEntity
  8
0
 62
     0
370
    -2
100
AcDbLine
 10
20236.27910697523
 20
14868.74872352314
 30
0.0
 11
20236.27910697523
 21
14366.7023388028
 31
0.0
  0
INSERT
  5
F8A
330
E26
100
AcDbEntity
  8
0
 62
     0
370
    -2
100
AcDbBlockReference
  2
_ArchTick
 10
20236.27910697523
 20
15168.74872352313
 30
0.0
 41
100.0
 42
100.0
 43
100.0
 50
90.0
  0
INSERT
  5
F8B
330
E26
100
AcDbEntity
  8
0
 62
     0
370
    -2
100
AcDbBlockReference
  2
_ArchTick
 10
20236.27910697523
 20
14868.74872352314
 30
0.0
 41
100.0
 42
100.0
 43
100.0
 50
270.0
  0
MTEXT
  5
F8C
330
E26
100
AcDbEntity
  8
0
 62
     0
100
AcDbMText
 10
20135.18770179105
 20
14567.72553116297
 30
0.0
 40
100.0
 41
0.0
 71
     5
 72
     1
  1
~300
 11
0.0000000000000001
 21
1.0
 31
0.0
 73
     1
 44
1.0
1001
ACAD
1000
MTEXTBEGIN
1070
    73
1070
     1
1070
    44
1040
1.0
1070
    74
1070
     0
1000
MTEXTEND
  0
POINT
  5
F8D
330
E26
100
AcDbEntity
  8
Defpoints
 62
     0
100
AcDbPoint
 10
20354.28234457219
 20
15168.74872352313
 30
0.0
  0
POINT
  5
F8E
330
E26
100
AcDbEntity
  8
Defpoints
 62
     0
100
AcDbPoint
 10
20354.28234457219
 20
14868.74872352314
 30
0.0
  0
POINT
  5
F8F
330
E26
100
AcDbEntity
  8
Defpoints
 62
     0
100
AcDbPoint
 10
20236.27910697523
 20
14868.74872352314
 30
0.0
  0
ENDBLK
  5
E28
330
E26
100
AcDbEntity
  8
0
100
AcDbBlockEnd
  0
BLOCK
  5
E33
330
E32
100
AcDbEntity
  8
0
100
AcDbBlockBegin
  2
*D38
 70
     1
 10
0.0
 20
0.0
 30
0.0
  3
*D38
  1

  0
LINE
  5
F90
330
E32
100
AcDbEntity
  8
0
 62
     0
370
    -2
100
AcDbLine
 10
20354.28234457219
 20
15293.74872352313
 30
0.0
 11
20354.28234457219
 21
15396.61047840264
 31
0.0
  0
LINE
  5
F91
330
E32
100
AcDbEntity
  8
0
 62
     0
370
    -2
100
AcDbLine
 10
20854.2823445722
 20
15293.74872352314
 30
0.0
 11
20854.2823445722
 21
15396.61047840264
 31
0.0
  0
LINE
  5
F92
330
E32
100
AcDbEntity
  8
0
 62
     0
370
    -2
100
AcDbLine
 10
20279.2823445722
 20
15321.61047840265
 30
0.0
 11
20929.28234457219
 21
15321.61047840265
 31
0.0
  0
INSERT
  5
F93
330
E32
100
AcDbEntity
  8
0
 62
     0
370
    -2
100
AcDbBlockReference
  2
_ArchTick
 10
20354.28234457219
 20
15321.61047840265
 30
0.0
 41
100.0
 42
100.0
 43
100.0
 50
180.0
  0
INSERT
  5
F94
330
E32
100
AcDbEntity
  8
0
 62
     0
370
    -2
100
AcDbBlockReference
  2
_ArchTick
 10
20854.2823445722
 20
15321.61047840265
 30
0.0
 41
100.0
 42
100.0
 43
100.0
  0
MTEXT
  5
F95
330
E32
100
AcDbEntity
  8
0
 62
     0
100
AcDbMText
 10
20604.2823445722
 20
15422.66777717482
 30
0.0
 40
100.0
 41
0.0
 71
     5
 72
     1
  1
~500
 73
     1
 44
1.0
1001
ACAD
1000
MTEXTBEGIN
1070
    73
1070
     1
1070
    44
1040
1.0
1070
    74
1070
     0
1000
MTEXTEND
  0
POINT
  5
F96
330
E32
100
AcDbEntity
  8
Defpoints
 62
     0
100
AcDbPoint
 10
20354.28234457219
 20
15168.74872352313
 30
0.0
  0
POINT
  5
F97
330
E32
100
AcDbEntity
  8
Defpoints
 62
     0
100
AcDbPoint
 10
20854.2823445722
 20
15168.74872352314
 30
0.0
  0
POINT
  5
F98
330
E32
100
AcDbEntity
  8
Defpoints
 62
     0
100
AcDbPoint
 10
20854.2823445722
 20
15321.61047840265
 30
0.0
  0
ENDBLK
  5
E34
330
E32
100
AcDbEntity
  8
0
100
AcDbBlockEnd
  0
BLOCK
  5
E64
330
E63
100
AcDbEntity
  8
0
100
AcDbBlockBegin
  2
*D39
 70
     1
 10
0.0
 20
0.0
 30
0.0
  3
*D39
  1

  0
LINE
  5
FC8
330
E63
100
AcDbEntity
  8
0
 62
     0
370
    -2
100
AcDbLine
 10
22064.97386711057
 20
15294.37372352314
 30
0.0
 11
22064.97386711057
 21
15396.19381173598
 31
0.0
  0
LINE
  5
FC9
330
E63
100
AcDbEntity
  8
0
 62
     0
370
    -2
100
AcDbLine
 10
22267.50582742639
 20
15294.37372352314
 30
0.0
 11
22267.50582742639
 21
15396.19381173598
 31
0.0
  0
LINE
  5
FCA
330
E63
100
AcDbEntity
  8
0
 62
     0
370
    -2
100
AcDbLine
 10
21989.97386711057
 20
15321.19381173598
 30
0.0
 11
22267.50582742639
 21
15321.19381173598
 31
0.0
  0
LINE
  5
FCB
330
E63
100
AcDbEntity
  8
0
 62
     0
370
    -2
100
AcDbLine
 10
22267.50582742639
 20
15321.19381173598
 30
0.0
 11
22767.84689154643
 21
15321.19381173598
 31
0.0
  0
INSERT
  5
FCC
330
E63
100
AcDbEntity
  8
0
 62
     0
370
    -2
100
AcDbBlockReference
  2
_ArchTick
 10
22064.97386711057
 20
15321.19381173598
 30
0.0
 41
100.0
 42
100.0
 43
100.0
 50
180.0
  0
INSERT
  5
FCD
330
E63
100
AcDbEntity
  8
0
 62
     0
370
    -2
100
AcDbBlockReference
  2
_ArchTick
 10
22267.50582742639
 20
15321.19381173598
 30
0.0
 41
100.0
 42
100.0
 43
100.0
  0
MTEXT
  5
FCE
330
E63
100
AcDbEntity
  8
0
 62
     0
100
AcDbMText
 10
22567.67635948641
 20
15422.28521692016
 30
0.0
 40
100.0
 41
0.0
 71
     5
 72
     1
  1
<300
 73
     1
 44
1.0
1001
ACAD
1000
MTEXTBEGIN
1070
    73
1070
     1
1070
    44
1040
1.0
1070
    74
1070
     0
1000
MTEXTEND
  0
POINT
  5
FCF
330
E63
100
AcDbEntity
  8
Defpoints
 62
     0
100
AcDbPoint
 10
22064.97386711057
 20
15169.37372352314
 30
0.0
  0
POINT
  5
FD0
330
E63
100
AcDbEntity
  8
Defpoints
 62
     0
100
AcDbPoint
 10
22267.50582742639
 20
15169.37372352314
 30
0.0
  0
POINT
  5
FD1
330
E63
100
AcDbEntity
  8
Defpoints
 62
     0
100
AcDbPoint
 10
22267.50582742639
 20
15321.19381173598
 30
0.0
  0
ENDBLK
  5
E65
330
E63
100
AcDbEntity
  8
0
100
AcDbBlockEnd
  0
BLOCK
  5
E71
330
E70
100
AcDbEntity
  8
0
100
AcDbBlockBegin
  2
*D40
 70
     1
 10
0.0
 20
0.0
 30
0.0
  3
*D40
  1

  0
LINE
  5
F28
330
E70
100
AcDbEntity
  8
0
 62
     0
370
    -2
100
AcDbLine
 10
19815.27513530699
 20
14543.77939505373
 30
0.0
 11
19943.82094007762
 21
14543.77939505373
 31
0.0
  0
LINE
  5
F29
330
E70
100
AcDbEntity
  8
0
 62
     0
370
    -2
100
AcDbLine
 10
19815.27513530699
 20
14034.18406682594
 30
0.0
 11
19943.82094007762
 21
14034.18406682594
 31
0.0
  0
LINE
  5
F2A
330
E70
100
AcDbEntity
  8
0
 62
     0
370
    -2
100
AcDbLine
 10
19868.82094007762
 20
14618.77939505373
 30
0.0
 11
19868.82094007762
 21
13959.18406682594
 31
0.0
  0
INSERT
  5
F2B
330
E70
100
AcDbEntity
  8
0
 62
     0
370
    -2
100
AcDbBlockReference
  2
_ArchTick
 10
19868.82094007762
 20
14543.77939505373
 30
0.0
 41
100.0
 42
100.0
 43
100.0
 50
90.0
  0
INSERT
  5
F2C
330
E70
100
AcDbEntity
  8
0
 62
     0
370
    -2
100
AcDbBlockReference
  2
_ArchTick
 10
19868.82094007762
 20
14034.18406682594
 30
0.0
 41
100.0
 42
100.0
 43
100.0
 50
270.0
  0
MTEXT
  5
F2D
330
E70
100
AcDbEntity
  8
0
 62
     0
100
AcDbMText
 10
19767.76364130545
 20
14288.98173093983
 30
0.0
 40
100.0
 41
0.0
 71
     5
 72
     1
  1
<500
 11
0.0000000000000001
 21
1.0
 31
0.0
 73
     1
 44
1.0
1001
ACAD
1000
MTEXTBEGIN
1070
    73
1070
     1
1070
    44
1040
1.0
1070
    74
1070
     0
1000
MTEXTEND
  0
POINT
  5
F2E
330
E70
100
AcDbEntity
  8
Defpoints
 62
     0
100
AcDbPoint
 10
19690.27513530699
 20
14543.77939505373
 30
0.0
  0
POINT
  5
F2F
330
E70
100
AcDbEntity
  8
Defpoints
 62
     0
100
AcDbPoint
 10
19690.27513530699
 20
14034.18406682594
 30
0.0
  0
POINT
  5
F30
330
E70
100
AcDbEntity
  8
Defpoints
 62
     0
100
AcDbPoint
 10
19868.82094007762
 20
14034.18406682594
 30
0.0
  0
ENDBLK
  5
E72
330
E70
100
AcDbEntity
  8
0
100
AcDbBlockEnd
  0
BLOCK
  5
E89
330
E88
100
AcDbEntity
  8
0
100
AcDbBlockBegin
  2
*D41
 70
     1
 10
0.0
 20
0.0
 30
0.0
  3
*D41
  1

  0
LINE
  5
FA3
330
E88
100
AcDbEntity
  8
0
 62
     0
370
    -2
100
AcDbLine
 10
21425.63106639773
 20
14543.77939505373
 30
0.0
 11
21644.78087135157
 21
14543.77939505373
 31
0.0
  0
LINE
  5
FA4
330
E88
100
AcDbEntity
  8
0
 62
     0
370
    -2
100
AcDbLine
 10
21425.63106639773
 20
14043.77939505373
 30
0.0
 11
21644.78087135157
 21
14043.77939505373
 31
0.0
  0
LINE
  5
FA5
330
E88
100
AcDbEntity
  8
0
 62
     0
370
    -2
100
AcDbLine
 10
21569.78087135157
 20
14618.77939505373
 30
0.0
 11
21569.78087135157
 21
13968.77939505373
 31
0.0
  0
INSERT
  5
FA6
330
E88
100
AcDbEntity
  8
0
 62
     0
370
    -2
100
AcDbBlockReference
  2
_ArchTick
 10
21569.78087135157
 20
14543.77939505373
 30
0.0
 41
100.0
 42
100.0
 43
100.0
 50
90.0
  0
INSERT
  5
FA7
330
E88
100
AcDbEntity
  8
0
 62
     0
370
    -2
100
AcDbBlockReference
  2
_ArchTick
 10
21569.78087135157
 20
14043.77939505373
 30
0.0
 41
100.0
 42
100.0
 43
100.0
 50
270.0
  0
MTEXT
  5
FA8
330
E88
100
AcDbEntity
  8
0
 62
     0
100
AcDbMText
 10
21468.7235725794
 20
14293.77939505373
 30
0.0
 40
100.0
 41
0.0
 71
     5
 72
     1
  1
<500
 11
0.0000000000000001
 21
1.0
 31
0.0
 73
     1
 44
1.0
1001
ACAD
1000
MTEXTBEGIN
1070
    73
1070
     1
1070
    44
1040
1.0
1070
    74
1070
     0
1000
MTEXTEND
  0
POINT
  5
FA9
330
E88
100
AcDbEntity
  8
Defpoints
 62
     0
100
AcDbPoint
 10
21300.63106639772
 20
14543.77939505373
 30
0.0
  0
POINT
  5
FAA
330
E88
100
AcDbEntity
  8
Defpoints
 62
     0
100
AcDbPoint
 10
21300.63106639772
 20
14043.77939505373
 30
0.0
  0
POINT
  5
FAB
330
E88
100
AcDbEntity
  8
Defpoints
 62
     0
100
AcDbPoint
 10
21569.78087135157
 20
14043.77939505373
 30
0.0
  0
ENDBLK
  5
E8A
330
E88
100
AcDbEntity
  8
0
100
AcDbBlockEnd
  0
BLOCK
  5
EA1
330
EA0
100
AcDbEntity
  8
0
100
AcDbBlockBegin
  2
*D42
 70
     1
 10
0.0
 20
0.0
 30
0.0
  3
*D42
  1

  0
LINE
  5
FBF
330
EA0
100
AcDbEntity
  8
0
 62
     0
370
    -2
100
AcDbLine
 10
22724.68422514892
 20
14446.23366304302
 30
0.0
 11
23038.40787603246
 21
14446.23366304302
 31
0.0
  0
LINE
  5
FC0
330
EA0
100
AcDbEntity
  8
0
 62
     0
370
    -2
100
AcDbLine
 10
22724.68422514892
 20
14043.77939505373
 30
0.0
 11
23038.40787603246
 21
14043.77939505373
 31
0.0
  0
LINE
  5
FC1
330
EA0
100
AcDbEntity
  8
0
 62
     0
370
    -2
100
AcDbLine
 10
22963.40787603246
 20
14521.23366304302
 30
0.0
 11
22963.40787603246
 21
13968.77939505373
 31
0.0
  0
INSERT
  5
FC2
330
EA0
100
AcDbEntity
  8
0
 62
     0
370
    -2
100
AcDbBlockReference
  2
_ArchTick
 10
22963.40787603246
 20
14446.23366304302
 30
0.0
 41
100.0
 42
100.0
 43
100.0
 50
90.0
  0
INSERT
  5
FC3
330
EA0
100
AcDbEntity
  8
0
 62
     0
370
    -2
100
AcDbBlockReference
  2
_ArchTick
 10
22963.40787603246
 20
14043.77939505373
 30
0.0
 41
100.0
 42
100.0
 43
100.0
 50
270.0
  0
MTEXT
  5
FC4
330
EA0
100
AcDbEntity
  8
0
 62
     0
100
AcDbMText
 10
22862.35057726029
 20
14245.00652904838
 30
0.0
 40
100.0
 41
0.0
 71
     5
 72
     1
  1
<500
 11
0.0000000000000001
 21
1.0
 31
0.0
 73
     1
 44
1.0
1001
ACAD
1000
MTEXTBEGIN
1070
    73
1070
     1
1070
    44
1040
1.0
1070
    74
1070
     0
1000
MTEXTEND
  0
POINT
  5
FC5
330
EA0
100
AcDbEntity
  8
Defpoints
 62
     0
100
AcDbPoint
 10
22599.68422514892
 20
14446.23366304302
 30
0.0
  0
POINT
  5
FC6
330
EA0
100
AcDbEntity
  8
Defpoints
 62
     0
100
AcDbPoint
 10
22599.68422514892
 20
14043.77939505373
 30
0.0
  0
POINT
  5
FC7
330
EA0
100
AcDbEntity
  8
Defpoints
 62
     0
100
AcDbPoint
 10
22963.40787603246
 20
14043.77939505373
 30
0.0
  0
ENDBLK
  5
EA2
330
EA0
100
AcDbEntity
  8
0
100
AcDbBlockEnd
  0
BLOCK
  5
1057
330
1056
100
AcDbEntity
  8
0
100
AcDbBlockBegin
  2
*D43
 70
     1
 10
0.0
 20
0.0
 30
0.0
  3
*D43
  1

  0
LINE
  5
1454
330
1056
100
AcDbEntity
  8
0
 62
     0
370
    -2
100
AcDbLine
 10
26764.73039200492
 20
13193.5500004576
 30
0.0
 11
26454.90971736345
 21
13193.5500004576
 31
0.0
  0
LINE
  5
1455
330
1056
100
AcDbEntity
  8
0
 62
     0
370
    -2
100
AcDbLine
 10
26764.73039200492
 20
14143.5500004576
 30
0.0
 11
26454.90971736345
 21
14143.5500004576
 31
0.0
  0
LINE
  5
1456
330
1056
100
AcDbEntity
  8
0
 62
     0
370
    -2
100
AcDbLine
 10
26529.90971736345
 20
13118.5500004576
 30
0.0
 11
26529.90971736345
 21
14218.5500004576
 31
0.0
  0
INSERT
  5
1457
330
1056
100
AcDbEntity
  8
0
 62
     0
370
    -2
100
AcDbBlockReference
  2
_ArchTick
 10
26529.90971736345
 20
13193.5500004576
 30
0.0
 41
100.0
 42
100.0
 43
100.0
 50
270.0
  0
INSERT
  5
1458
330
1056
100
AcDbEntity
  8
0
 62
     0
370
    -2
100
AcDbBlockReference
  2
_ArchTick
 10
26529.90971736345
 20
14143.5500004576
 30
0.0
 41
100.0
 42
100.0
 43
100.0
 50
90.0
  0
MTEXT
  5
1459
330
1056
100
AcDbEntity
  8
0
 62
     0
100
AcDbMText
 10
26428.85241859128
 20
13668.55000045761
 30
0.0
 40
100.0
 41
0.0
 71
     5
 72
     1
  1
<950
 11
0.0000000000000001
 21
1.0
 31
0.0
 73
     1
 44
1.0
1001
ACAD
1000
MTEXTBEGIN
1070
    73
1070
     1
1070
    44
1040
1.0
1070
    74
1070
     0
1000
MTEXTEND
  0
POINT
  5
145A
330
1056
100
AcDbEntity
  8
Defpoints
 62
     0
100
AcDbPoint
 10
26889.73039200492
 20
13193.5500004576
 30
0.0
  0
POINT
  5
145B
330
1056
100
AcDbEntity
  8
Defpoints
 62
     0
100
AcDbPoint
 10
26889.73039200492
 20
14143.5500004576
 30
0.0
  0
POINT
  5
145C
330
1056
100
AcDbEntity
  8
Defpoints
 62
     0
100
AcDbPoint
 10
26529.90971736345
 20
14143.5500004576
 30
0.0
  0
ENDBLK
  5
1058
330
1056
100
AcDbEntity
  8
0
100
AcDbBlockEnd
  0
BLOCK
  5
106F
330
106E
100
AcDbEntity
  8
0
100
AcDbBlockBegin
  2
*D44
 70
     1
 10
0.0
 20
0.0
 30
0.0
  3
*D44
  1

  0
LINE
  5
12CD
330
106E
100
AcDbEntity
  8
0
 62
     0
370
    -2
100
AcDbLine
 10
26764.73039200492
 20
15123.81155896555
 30
0.0
 11
26454.90971736345
 21
15123.81155896555
 31
0.0
  0
LINE
  5
12CE
330
106E
100
AcDbEntity
  8
0
 62
     0
370
    -2
100
AcDbLine
 10
26764.73039200492
 20
20123.81155896555
 30
0.0
 11
26454.90971736345
 21
20123.81155896555
 31
0.0
  0
LINE
  5
12CF
330
106E
100
AcDbEntity
  8
0
 62
     0
370
    -2
100
AcDbLine
 10
26529.90971736345
 20
15048.81155896555
 30
0.0
 11
26529.90971736345
 21
20198.81155896555
 31
0.0
  0
INSERT
  5
12D0
330
106E
100
AcDbEntity
  8
0
 62
     0
370
    -2
100
AcDbBlockReference
  2
_ArchTick
 10
26529.90971736345
 20
15123.81155896555
 30
0.0
 41
100.0
 42
100.0
 43
100.0
 50
270.0
  0
INSERT
  5
12D1
330
106E
100
AcDbEntity
  8
0
 62
     0
370
    -2
100
AcDbBlockReference
  2
_ArchTick
 10
26529.90971736345
 20
20123.81155896555
 30
0.0
 41
100.0
 42
100.0
 43
100.0
 50
90.0
  0
MTEXT
  5
12D2
330
106E
100
AcDbEntity
  8
0
 62
     0
100
AcDbMText
 10
26428.85241859128
 20
17623.81155896556
 30
0.0
 40
100.0
 41
0.0
 71
     5
 72
     1
  1
~5000
 11
0.0000000000000001
 21
1.0
 31
0.0
 73
     1
 44
1.0
1001
ACAD
1000
MTEXTBEGIN
1070
    73
1070
     1
1070
    44
1040
1.0
1070
    74
1070
     0
1000
MTEXTEND
  0
POINT
  5
12D3
330
106E
100
AcDbEntity
  8
Defpoints
 62
     0
100
AcDbPoint
 10
26889.73039200492
 20
15123.81155896555
 30
0.0
  0
POINT
  5
12D4
330
106E
100
AcDbEntity
  8
Defpoints
 62
     0
100
AcDbPoint
 10
26889.73039200492
 20
20123.81155896555
 30
0.0
  0
POINT
  5
12D5
330
106E
100
AcDbEntity
  8
Defpoints
 62
     0
100
AcDbPoint
 10
26529.90971736345
 20
20123.81155896555
 30
0.0
  0
ENDBLK
  5
1070
330
106E
100
AcDbEntity
  8
0
100
AcDbBlockEnd
  0
BLOCK
  5
1087
330
1086
100
AcDbEntity
  8
0
100
AcDbBlockBegin
  2
*D45
 70
     1
 10
0.0
 20
0.0
 30
0.0
  3
*D45
  1

  0
LINE
  5
12C4
330
1086
100
AcDbEntity
  8
0
 62
     0
370
    -2
100
AcDbLine
 10
31889.73039200492
 20
20245.99084643368
 30
0.0
 11
31889.73039200492
 21
20590.71133158199
 31
0.0
  0
LINE
  5
12C5
330
1086
100
AcDbEntity
  8
0
 62
     0
370
    -2
100
AcDbLine
 10
26889.73039200492
 20
20245.99084643368
 30
0.0
 11
26889.73039200492
 21
20590.71133158199
 31
0.0
  0
LINE
  5
12C6
330
1086
100
AcDbEntity
  8
0
 62
     0
370
    -2
100
AcDbLine
 10
31964.73039200492
 20
20515.71133158199
 30
0.0
 11
26814.73039200492
 21
20515.71133158199
 31
0.0
  0
INSERT
  5
12C7
330
1086
100
AcDbEntity
  8
0
 62
     0
370
    -2
100
AcDbBlockReference
  2
_ArchTick
 10
31889.73039200492
 20
20515.71133158199
 30
0.0
 41
100.0
 42
100.0
 43
100.0
  0
INSERT
  5
12C8
330
1086
100
AcDbEntity
  8
0
 62
     0
370
    -2
100
AcDbBlockReference
  2
_ArchTick
 10
26889.73039200492
 20
20515.71133158199
 30
0.0
 41
100.0
 42
100.0
 43
100.0
 50
180.0
  0
MTEXT
  5
12C9
330
1086
100
AcDbEntity
  8
0
 62
     0
100
AcDbMText
 10
29389.73039200492
 20
20616.76863035416
 30
0.0
 40
100.0
 41
0.0
 71
     5
 72
     1
  1
~5000
 73
     1
 44
1.0
1001
ACAD
1000
MTEXTBEGIN
1070
    73
1070
     1
1070
    44
1040
1.0
1070
    74
1070
     0
1000
MTEXTEND
  0
POINT
  5
12CA
330
1086
100
AcDbEntity
  8
Defpoints
 62
     0
100
AcDbPoint
 10
31889.73039200492
 20
20120.99084643368
 30
0.0
  0
POINT
  5
12CB
330
1086
100
AcDbEntity
  8
Defpoints
 62
     0
100
AcDbPoint
 10
26889.73039200492
 20
20120.99084643368
 30
0.0
  0
POINT
  5
12CC
330
1086
100
AcDbEntity
  8
Defpoints
 62
     0
100
AcDbPoint
 10
26889.73039200492
 20
20515.71133158199
 30
0.0
  0
ENDBLK
  5
1088
330
1086
100
AcDbEntity
  8
0
100
AcDbBlockEnd
  0
BLOCK
  5
10F9
330
10F8
100
AcDbEntity
  8
0
100
AcDbBlockBegin
  2
*D46
 70
     1
 10
0.0
 20
0.0
 30
0.0
  3
*D46
  1

  0
LINE
  5
1165
330
10F8
100
AcDbEntity
  8
0
 62
     0
370
    -2
100
AcDbLine
 10
32011.07293041089
 20
15441.60201534248
 30
0.0
 11
32391.42911074392
 21
15441.60201534248
 31
0.0
  0
LINE
  5
1166
330
10F8
100
AcDbEntity
  8
0
 62
     0
370
    -2
100
AcDbLine
 10
32011.07293041089
 20
16941.60201534247
 30
0.0
 11
32391.42911074392
 21
16941.60201534247
 31
0.0
  0
LINE
  5
1167
330
10F8
100
AcDbEntity
  8
0
 62
     0
370
    -2
100
AcDbLine
 10
32316.42911074392
 20
15366.60201534248
 30
0.0
 11
32316.42911074392
 21
17016.60201534247
 31
0.0
  0
INSERT
  5
1168
330
10F8
100
AcDbEntity
  8
0
 62
     0
370
    -2
100
AcDbBlockReference
  2
_ArchTick
 10
32316.42911074392
 20
15441.60201534248
 30
0.0
 41
100.0
 42
100.0
 43
100.0
 50
270.0
  0
INSERT
  5
1169
330
10F8
100
AcDbEntity
  8
0
 62
     0
370
    -2
100
AcDbBlockReference
  2
_ArchTick
 10
32316.42911074392
 20
16941.60201534247
 30
0.0
 41
100.0
 42
100.0
 43
100.0
 50
90.0
  0
MTEXT
  5
116A
330
10F8
100
AcDbEntity
  8
0
 62
     0
100
AcDbMText
 10
32215.37181197175
 20
16191.60201534248
 30
0.0
 40
100.0
 41
0.0
 71
     5
 72
     1
  1
1500
 11
0.0000000000000001
 21
1.0
 31
0.0
 73
     1
 44
1.0
1001
ACAD
1000
MTEXTBEGIN
1070
    73
1070
     1
1070
    44
1040
1.0
1070
    74
1070
     0
1000
MTEXTEND
  0
POINT
  5
116B
330
10F8
100
AcDbEntity
  8
Defpoints
 62
     0
100
AcDbPoint
 10
31886.07293041089
 20
15441.60201534248
 30
0.0
  0
POINT
  5
116C
330
10F8
100
AcDbEntity
  8
Defpoints
 62
     0
100
AcDbPoint
 10
31886.07293041089
 20
16941.60201534247
 30
0.0
  0
POINT
  5
116D
330
10F8
100
AcDbEntity
  8
Defpoints
 62
     0
100
AcDbPoint
 10
32316.42911074392
 20
16941.60201534247
 30
0.0
  0
ENDBLK
  5
10FA
330
10F8
100
AcDbEntity
  8
0
100
AcDbBlockEnd
  0
BLOCK
  5
1106
330
1105
100
AcDbEntity
  8
0
100
AcDbBlockBegin
  2
*D47
 70
     1
 10
0.0
 20
0.0
 30
0.0
  3
*D47
  1

  0
LINE
  5
116E
330
1105
100
AcDbEntity
  8
0
 62
     0
370
    -2
100
AcDbLine
 10
31889.73039200492
 20
15016.60201534248
 30
0.0
 11
31889.73039200492
 21
14690.97502724841
 31
0.0
  0
LINE
  5
116F
330
1105
100
AcDbEntity
  8
0
 62
     0
370
    -2
100
AcDbLine
 10
30889.73039200492
 20
15016.60201534248
 30
0.0
 11
30889.73039200492
 21
14690.97502724841
 31
0.0
  0
LINE
  5
1170
330
1105
100
AcDbEntity
  8
0
 62
     0
370
    -2
100
AcDbLine
 10
31964.73039200492
 20
14765.97502724841
 30
0.0
 11
30814.73039200492
 21
14765.97502724841
 31
0.0
  0
INSERT
  5
1171
330
1105
100
AcDbEntity
  8
0
 62
     0
370
    -2
100
AcDbBlockReference
  2
_ArchTick
 10
31889.73039200492
 20
14765.97502724841
 30
0.0
 41
100.0
 42
100.0
 43
100.0
  0
INSERT
  5
1172
330
1105
100
AcDbEntity
  8
0
 62
     0
370
    -2
100
AcDbBlockReference
  2
_ArchTick
 10
30889.73039200492
 20
14765.97502724841
 30
0.0
 41
100.0
 42
100.0
 43
100.0
 50
180.0
  0
MTEXT
  5
1173
330
1105
100
AcDbEntity
  8
0
 62
     0
100
AcDbMText
 10
31389.73039200492
 20
14867.03232602058
 30
0.0
 40
100.0
 41
0.0
 71
     5
 72
     1
  1
1000
 73
     1
 44
1.0
1001
ACAD
1000
MTEXTBEGIN
1070
    73
1070
     1
1070
    44
1040
1.0
1070
    74
1070
     0
1000
MTEXTEND
  0
POINT
  5
1174
330
1105
100
AcDbEntity
  8
Defpoints
 62
     0
100
AcDbPoint
 10
31889.73039200492
 20
15141.60201534248
 30
0.0
  0
POINT
  5
1175
330
1105
100
AcDbEntity
  8
Defpoints
 62
     0
100
AcDbPoint
 10
30889.73039200492
 20
15141.60201534248
 30
0.0
  0
POINT
  5
1176
330
1105
100
AcDbEntity
  8
Defpoints
 62
     0
100
AcDbPoint
 10
30889.73039200492
 20
14765.97502724841
 30
0.0
  0
ENDBLK
  5
1107
330
1105
100
AcDbEntity
  8
0
100
AcDbBlockEnd
  0
BLOCK
  5
11BA
330
11B9
100
AcDbEntity
  8
0
100
AcDbBlockBegin
  2
*D48
 70
     1
 10
0.0
 20
0.0
 30
0.0
  3
*D48
  1

  0
LINE
  5
12A9
330
11B9
100
AcDbEntity
  8
0
 62
     0
370
    -2
100
AcDbLine
 10
38444.64751932081
 20
7082.842979976104
 30
0.0
 11
38444.64751932081
 21
6490.573762677946
 31
0.0
  0
LINE
  5
12AA
330
11B9
100
AcDbEntity
  8
0
 62
     0
370
    -2
100
AcDbLine
 10
34944.64751932082
 20
7082.842979976106
 30
0.0
 11
34944.64751932082
 21
6490.573762677946
 31
0.0
  0
LINE
  5
12AB
330
11B9
100
AcDbEntity
  8
0
 62
     0
370
    -2
100
AcDbLine
 10
38519.64751932081
 20
6565.573762677946
 30
0.0
 11
34869.64751932082
 21
6565.573762677946
 31
0.0
  0
INSERT
  5
12AC
330
11B9
100
AcDbEntity
  8
0
 62
     0
370
    -2
100
AcDbBlockReference
  2
_ArchTick
 10
38444.64751932081
 20
6565.573762677946
 30
0.0
 41
100.0
 42
100.0
 43
100.0
  0
INSERT
  5
12AD
330
11B9
100
AcDbEntity
  8
0
 62
     0
370
    -2
100
AcDbBlockReference
  2
_ArchTick
 10
34944.64751932082
 20
6565.573762677946
 30
0.0
 41
100.0
 42
100.0
 43
100.0
 50
180.0
  0
MTEXT
  5
12AE
330
11B9
100
AcDbEntity
  8
0
 62
     0
100
AcDbMText
 10
36694.64751932082
 20
6666.66516786212
 30
0.0
 40
100.0
 41
0.0
 71
     5
 72
     1
  1
3500
 73
     1
 44
1.0
1001
ACAD
1000
MTEXTBEGIN
1070
    73
1070
     1
1070
    44
1040
1.0
1070
    74
1070
     0
1000
MTEXTEND
  0
POINT
  5
12AF
330
11B9
100
AcDbEntity
  8
Defpoints
 62
     0
100
AcDbPoint
 10
38444.64751932081
 20
7207.842979976104
 30
0.0
  0
POINT
  5
12B0
330
11B9
100
AcDbEntity
  8
Defpoints
 62
     0
100
AcDbPoint
 10
34944.64751932082
 20
7207.842979976106
 30
0.0
  0
POINT
  5
12B1
330
11B9
100
AcDbEntity
  8
Defpoints
 62
     0
100
AcDbPoint
 10
34944.64751932082
 20
6565.573762677946
 30
0.0
  0
ENDBLK
  5
11BB
330
11B9
100
AcDbEntity
  8
0
100
AcDbBlockEnd
  0
BLOCK
  5
124F
330
124E
100
AcDbEntity
  8
0
100
AcDbBlockBegin
  2
*D49
 70
     1
 10
0.0
 20
0.0
 30
0.0
  3
*D49
  1

  0
LINE
  5
12B2
330
124E
100
AcDbEntity
  8
0
 62
     0
370
    -2
100
AcDbLine
 10
34819.64751932082
 20
11022.10170675188
 30
0.0
 11
34081.19872461153
 21
11022.10170675188
 31
0.0
  0
LINE
  5
12B3
330
124E
100
AcDbEntity
  8
0
 62
     0
370
    -2
100
AcDbLine
 10
34819.64751932082
 20
7693.403899718858
 30
0.0
 11
34081.19872461153
 21
7693.403899718859
 31
0.0
  0
LINE
  5
12B4
330
124E
100
AcDbEntity
  8
0
 62
     0
370
    -2
100
AcDbLine
 10
34156.19872461153
 20
11097.10170675188
 30
0.0
 11
34156.19872461153
 21
7618.403899718861
 31
0.0
  0
INSERT
  5
12B5
330
124E
100
AcDbEntity
  8
0
 62
     0
370
    -2
100
AcDbBlockReference
  2
_ArchTick
 10
34156.19872461153
 20
11022.10170675188
 30
0.0
 41
100.0
 42
100.0
 43
100.0
 50
90.0
  0
INSERT
  5
12B6
330
124E
100
AcDbEntity
  8
0
 62
     0
370
    -2
100
AcDbBlockReference
  2
_ArchTick
 10
34156.19872461153
 20
7693.403899718859
 30
0.0
 41
100.0
 42
100.0
 43
100.0
 50
270.0
  0
MTEXT
  5
12B7
330
124E
100
AcDbEntity
  8
0
 62
     0
100
AcDbMText
 10
34046.10322665791
 20
9357.752803235376
 30
0.0
 40
100.0
 41
0.0
 71
     5
 72
     1
  1
3328,7
 11
0.0000000000000001
 21
1.0
 31
0.0
 73
     1
 44
1.0
1001
ACAD
1000
MTEXTBEGIN
1070
    73
1070
     1
1070
    44
1040
1.0
1070
    74
1070
     0
1000
MTEXTEND
  0
POINT
  5
12B8
330
124E
100
AcDbEntity
  8
Defpoints
 62
     0
100
AcDbPoint
 10
34944.64751932082
 20
11022.10170675188
 30
0.0
  0
POINT
  5
12B9
330
124E
100
AcDbEntity
  8
Defpoints
 62
     0
100
AcDbPoint
 10
34944.64751932082
 20
7693.403899718858
 30
0.0
  0
POINT
  5
12BA
330
124E
100
AcDbEntity
  8
Defpoints
 62
     0
100
AcDbPoint
 10
34156.19872461153
 20
7693.403899718859
 30
0.0
  0
ENDBLK
  5
1250
330
124E
100
AcDbEntity
  8
0
100
AcDbBlockEnd
  0
BLOCK
  5
128B
330
128A
100
AcDbEntity
  8
0
100
AcDbBlockBegin
  2
*D50
 70
     1
 10
0.0
 20
0.0
 30
0.0
  3
*D50
  1

  0
LINE
  5
12BB
330
128A
100
AcDbEntity
  8
0
 62
     0
370
    -2
100
AcDbLine
 10
34819.6475193197
 20
2825.385120608567
 30
0.0
 11
33903.40724729384
 21
2825.385120608567
 31
0.0
  0
LINE
  5
12BC
330
128A
100
AcDbEntity
  8
0
 62
     0
370
    -2
100
AcDbLine
 10
34819.6475193197
 20
5825.385120608569
 30
0.0
 11
33903.40724729384
 21
5825.385120608569
 31
0.0
  0
LINE
  5
12BD
330
128A
100
AcDbEntity
  8
0
 62
     0
370
    -2
100
AcDbLine
 10
33978.40724729384
 20
2750.385120608568
 30
0.0
 11
33978.40724729384
 21
5900.385120608568
 31
0.0
  0
INSERT
  5
12BE
330
128A
100
AcDbEntity
  8
0
 62
     0
370
    -2
100
AcDbBlockReference
  2
_ArchTick
 10
33978.40724729384
 20
2825.385120608567
 30
0.0
 41
100.0
 42
100.0
 43
100.0
 50
270.0
  0
INSERT
  5
12BF
330
128A
100
AcDbEntity
  8
0
 62
     0
370
    -2
100
AcDbBlockReference
  2
_ArchTick
 10
33978.40724729384
 20
5825.385120608569
 30
0.0
 41
100.0
 42
100.0
 43
100.0
 50
90.0
  0
MTEXT
  5
12C0
330
128A
100
AcDbEntity
  8
0
 62
     0
100
AcDbMText
 10
33877.31584210964
 20
4325.385120608575
 30
0.0
 40
100.0
 41
0.0
 71
     5
 72
     1
  1
3000
 11
0.0000000000000001
 21
1.0
 31
0.0
 73
     1
 44
1.0
1001
ACAD
1000
MTEXTBEGIN
1070
    73
1070
     1
1070
    44
1040
1.0
1070
    74
1070
     0
1000
MTEXTEND
  0
POINT
  5
12C1
330
128A
100
AcDbEntity
  8
Defpoints
 62
     0
100
AcDbPoint
 10
34944.64751931971
 20
2825.385120608567
 30
0.0
  0
POINT
  5
12C2
330
128A
100
AcDbEntity
  8
Defpoints
 62
     0
100
AcDbPoint
 10
34944.64751931971
 20
5825.385120608569
 30
0.0
  0
POINT
  5
12C3
330
128A
100
AcDbEntity
  8
Defpoints
 62
     0
100
AcDbPoint
 10
33978.40724729384
 20
5825.385120608569
 30
0.0
  0
ENDBLK
  5
128C
330
128A
100
AcDbEntity
  8
0
100
AcDbBlockEnd
  0
BLOCK
  5
137C
330
137B
100
AcDbEntity
  8
0
100
AcDbBlockBegin
  2
*D51
 70
     1
 10
0.0
 20
0.0
 30
0.0
  3
*D51
  1

  0
LINE
  5
13FC
330
137B
100
AcDbEntity
  8
0
 62
     0
370
    -2
100
AcDbLine
 10
35193.57479376794
 20
17280.1015727099
 30
0.0
 11
35047.44933835187
 21
17280.1015727099
 31
0.0
  0
LINE
  5
13FD
330
137B
100
AcDbEntity
  8
0
 62
     0
370
    -2
100
AcDbLine
 10
35193.57479376794
 20
16780.1015727099
 30
0.0
 11
35047.44933835187
 21
16780.1015727099
 31
0.0
  0
LINE
  5
13FE
330
137B
100
AcDbEntity
  8
0
 62
     0
370
    -2
100
AcDbLine
 10
35122.44933835187
 20
17355.1015727099
 30
0.0
 11
35122.44933835187
 21
16705.1015727099
 31
0.0
  0
INSERT
  5
13FF
330
137B
100
AcDbEntity
  8
0
 62
     0
370
    -2
100
AcDbBlockReference
  2
_ArchTick
 10
35122.44933835187
 20
17280.1015727099
 30
0.0
 41
100.0
 42
100.0
 43
100.0
 50
90.0
  0
INSERT
  5
1400
330
137B
100
AcDbEntity
  8
0
 62
     0
370
    -2
100
AcDbBlockReference
  2
_ArchTick
 10
35122.44933835187
 20
16780.1015727099
 30
0.0
 41
100.0
 42
100.0
 43
100.0
 50
270.0
  0
MTEXT
  5
1401
330
137B
100
AcDbEntity
  8
0
 62
     0
100
AcDbMText
 10
35021.39203957971
 20
17030.1015727099
 30
0.0
 40
100.0
 41
0.0
 71
     5
 72
     1
  1
500
 11
0.0000000000000001
 21
1.0
 31
0.0
 73
     1
 44
1.0
1001
ACAD
1000
MTEXTBEGIN
1070
    73
1070
     1
1070
    44
1040
1.0
1070
    74
1070
     0
1000
MTEXTEND
  0
POINT
  5
1402
330
137B
100
AcDbEntity
  8
Defpoints
 62
     0
100
AcDbPoint
 10
35318.57479376794
 20
17280.1015727099
 30
0.0
  0
POINT
  5
1403
330
137B
100
AcDbEntity
  8
Defpoints
 62
     0
100
AcDbPoint
 10
35318.57479376794
 20
16780.1015727099
 30
0.0
  0
POINT
  5
1404
330
137B
100
AcDbEntity
  8
Defpoints
 62
     0
100
AcDbPoint
 10
35122.44933835187
 20
16780.1015727099
 30
0.0
  0
ENDBLK
  5
137D
330
137B
100
AcDbEntity
  8
0
100
AcDbBlockEnd
  0
BLOCK
  5
13A7
330
13A6
100
AcDbEntity
  8
0
100
AcDbBlockBegin
  2
*D52
 70
     1
 10
0.0
 20
0.0
 30
0.0
  3
*D52
  1

  0
LINE
  5
1420
330
13A6
100
AcDbEntity
  8
0
 62
     0
370
    -2
100
AcDbLine
 10
39318.57479376794
 20
18376.71981823828
 30
0.0
 11
39318.57479376794
 21
18029.15805073536
 31
0.0
  0
LINE
  5
1421
330
13A6
100
AcDbEntity
  8
0
 62
     0
370
    -2
100
AcDbLine
 10
35318.57479376794
 20
18376.71981823828
 30
0.0
 11
35318.57479376794
 21
18029.15805073536
 31
0.0
  0
LINE
  5
1422
330
13A6
100
AcDbEntity
  8
0
 62
     0
370
    -2
100
AcDbLine
 10
39393.57479376795
 20
18104.15805073535
 30
0.0
 11
35243.57479376794
 21
18104.15805073535
 31
0.0
  0
INSERT
  5
1423
330
13A6
100
AcDbEntity
  8
0
 62
     0
370
    -2
100
AcDbBlockReference
  2
_ArchTick
 10
39318.57479376794
 20
18104.15805073535
 30
0.0
 41
100.0
 42
100.0
 43
100.0
  0
INSERT
  5
1424
330
13A6
100
AcDbEntity
  8
0
 62
     0
370
    -2
100
AcDbBlockReference
  2
_ArchTick
 10
35318.57479376794
 20
18104.15805073535
 30
0.0
 41
100.0
 42
100.0
 43
100.0
 50
180.0
  0
MTEXT
  5
1425
330
13A6
100
AcDbEntity
  8
0
 62
     0
100
AcDbMText
 10
37318.57479376794
 20
18205.21534950753
 30
0.0
 40
100.0
 41
0.0
 71
     5
 72
     1
  1
4000
 73
     1
 44
1.0
1001
ACAD
1000
MTEXTBEGIN
1070
    73
1070
     1
1070
    44
1040
1.0
1070
    74
1070
     0
1000
MTEXTEND
  0
POINT
  5
1426
330
13A6
100
AcDbEntity
  8
Defpoints
 62
     0
100
AcDbPoint
 10
39318.57479376794
 20
18501.71981823828
 30
0.0
  0
POINT
  5
1427
330
13A6
100
AcDbEntity
  8
Defpoints
 62
     0
100
AcDbPoint
 10
35318.57479376794
 20
18501.71981823828
 30
0.0
  0
POINT
  5
1428
330
13A6
100
AcDbEntity
  8
Defpoints
 62
     0
100
AcDbPoint
 10
35318.57479376794
 20
18104.15805073535
 30
0.0
  0
ENDBLK
  5
13A8
330
13A6
100
AcDbEntity
  8
0
100
AcDbBlockEnd
  0
BLOCK
  5
13B4
330
13B3
100
AcDbEntity
  8
0
100
AcDbBlockBegin
  2
*D53
 70
     1
 10
0.0
 20
0.0
 30
0.0
  3
*D53
  1

  0
LINE
  5
1429
330
13B3
100
AcDbEntity
  8
0
 62
     0
370
    -2
100
AcDbLine
 10
34936.09563380395
 20
19231.87456576014
 30
0.0
 11
34789.97017838789
 21
19231.87456576014
 31
0.0
  0
LINE
  5
142A
330
13B3
100
AcDbEntity
  8
0
 62
     0
370
    -2
100
AcDbLine
 10
34936.09563380395
 20
18731.87456576014
 30
0.0
 11
34789.97017838789
 21
18731.87456576014
 31
0.0
  0
LINE
  5
142B
330
13B3
100
AcDbEntity
  8
0
 62
     0
370
    -2
100
AcDbLine
 10
34864.97017838789
 20
19306.87456576014
 30
0.0
 11
34864.97017838789
 21
18656.87456576014
 31
0.0
  0
INSERT
  5
142C
330
13B3
100
AcDbEntity
  8
0
 62
     0
370
    -2
100
AcDbBlockReference
  2
_ArchTick
 10
34864.97017838789
 20
19231.87456576014
 30
0.0
 41
100.0
 42
100.0
 43
100.0
 50
90.0
  0
INSERT
  5
142D
330
13B3
100
AcDbEntity
  8
0
 62
     0
370
    -2
100
AcDbBlockReference
  2
_ArchTick
 10
34864.97017838789
 20
18731.87456576014
 30
0.0
 41
100.0
 42
100.0
 43
100.0
 50
270.0
  0
MTEXT
  5
142E
330
13B3
100
AcDbEntity
  8
0
 62
     0
100
AcDbMText
 10
34763.91287961572
 20
18981.87456576014
 30
0.0
 40
100.0
 41
0.0
 71
     5
 72
     1
  1
500
 11
0.0000000000000001
 21
1.0
 31
0.0
 73
     1
 44
1.0
1001
ACAD
1000
MTEXTBEGIN
1070
    73
1070
     1
1070
    44
1040
1.0
1070
    74
1070
     0
1000
MTEXTEND
  0
POINT
  5
142F
330
13B3
100
AcDbEntity
  8
Defpoints
 62
     0
100
AcDbPoint
 10
35061.09563380396
 20
19231.87456576014
 30
0.0
  0
POINT
  5
1430
330
13B3
100
AcDbEntity
  8
Defpoints
 62
     0
100
AcDbPoint
 10
35061.09563380396
 20
18731.87456576014
 30
0.0
  0
POINT
  5
1431
330
13B3
100
AcDbEntity
  8
Defpoints
 62
     0
100
AcDbPoint
 10
34864.97017838789
 20
18731.87456576014
 30
0.0
  0
ENDBLK
  5
13B5
330
13B3
100
AcDbEntity
  8
0
100
AcDbBlockEnd
  0
BLOCK
  5
13DC
330
13DB
100
AcDbEntity
  8
0
100
AcDbBlockBegin
  2
*D54
 70
     1
 10
0.0
 20
0.0
 30
0.0
  3
*D54
  1

  0
LINE
  5
1432
330
13DB
100
AcDbEntity
  8
0
 62
     0
370
    -2
100
AcDbLine
 10
40413.59240887448
 20
18376.09481823828
 30
0.0
 11
40413.59240887448
 21
18029.15805073536
 31
0.0
  0
LINE
  5
1433
330
13DB
100
AcDbEntity
  8
0
 62
     0
370
    -2
100
AcDbLine
 10
40955.39343974148
 20
18376.09481823828
 30
0.0
 11
40955.39343974148
 21
18029.15805073536
 31
0.0
  0
LINE
  5
1434
330
13DB
100
AcDbEntity
  8
0
 62
     0
370
    -2
100
AcDbLine
 10
40338.59240887448
 20
18104.15805073535
 30
0.0
 11
41030.39343974146
 21
18104.15805073535
 31
0.0
  0
INSERT
  5
1435
330
13DB
100
AcDbEntity
  8
0
 62
     0
370
    -2
100
AcDbBlockReference
  2
_ArchTick
 10
40413.59240887448
 20
18104.15805073535
 30
0.0
 41
100.0
 42
100.0
 43
100.0
 50
180.0
  0
INSERT
  5
1436
330
13DB
100
AcDbEntity
  8
0
 62
     0
370
    -2
100
AcDbBlockReference
  2
_ArchTick
 10
40955.39343974148
 20
18104.15805073535
 30
0.0
 41
100.0
 42
100.0
 43
100.0
  0
MTEXT
  5
1437
330
13DB
100
AcDbEntity
  8
0
 62
     0
100
AcDbMText
 10
40684.49292430798
 20
18214.25354868898
 30
0.0
 40
100.0
 41
0.0
 71
     5
 72
     1
  1
541,8
 73
     1
 44
1.0
1001
ACAD
1000
MTEXTBEGIN
1070
    73
1070
     1
1070
    44
1040
1.0
1070
    74
1070
     0
1000
MTEXTEND
  0
POINT
  5
1438
330
13DB
100
AcDbEntity
  8
Defpoints
 62
     0
100
AcDbPoint
 10
40413.59240887448
 20
18501.09481823828
 30
0.0
  0
POINT
  5
1439
330
13DB
100
AcDbEntity
  8
Defpoints
 62
     0
100
AcDbPoint
 10
40955.39343974148
 20
18501.09481823828
 30
0.0
  0
POINT
  5
143A
330
13DB
100
AcDbEntity
  8
Defpoints
 62
     0
100
AcDbPoint
 10
40955.39343974148
 20
18104.15805073535
 30
0.0
  0
ENDBLK
  5
13DD
330
13DB
100
AcDbEntity
  8
0
100
AcDbBlockEnd
  0
BLOCK
  5
14A5
330
14A4
100
AcDbEntity
  8
0
100
AcDbBlockBegin
  2
*D55
 70
     1
 10
0.0
 20
0.0
 30
0.0
  3
*D55
  1

  0
LINE
  5
14B0
330
14A4
100
AcDbEntity
  8
0
 62
     0
370
    -2
100
AcDbLine
 10
3636.716277963166
 20
2559.691438161923
 30
0.0
 11
3636.716277963166
 21
2700.907038190635
 31
0.0
  0
LINE
  5
14B1
330
14A4
100
AcDbEntity
  8
0
 62
     0
370
    -2
100
AcDbLine
 10
4236.716277963165
 20
2559.691438161923
 30
0.0
 11
4236.716277963165
 21
2700.907038190635
 31
0.0
  0
LINE
  5
14B2
330
14A4
100
AcDbEntity
  8
0
 62
     0
370
    -2
100
AcDbLine
 10
3561.716277963166
 20
2625.907038190635
 30
0.0
 11
4311.716277963165
 21
2625.907038190635
 31
0.0
  0
INSERT
  5
14B3
330
14A4
100
AcDbEntity
  8
0
 62
     0
370
    -2
100
AcDbBlockReference
  2
_ArchTick
 10
3636.716277963166
 20
2625.907038190635
 30
0.0
 41
100.0
 42
100.0
 43
100.0
 50
180.0
  0
INSERT
  5
14B4
330
14A4
100
AcDbEntity
  8
0
 62
     0
370
    -2
100
AcDbBlockReference
  2
_ArchTick
 10
4236.716277963165
 20
2625.907038190635
 30
0.0
 41
100.0
 42
100.0
 43
100.0
  0
MTEXT
  5
14B5
330
14A4
100
AcDbEntity
  8
0
 62
     0
100
AcDbMText
 10
3936.716277963166
 20
2726.964336962804
 30
0.0
 40
100.0
 41
0.0
 71
     5
 72
     1
  1
600
 73
     1
 44
1.0
1001
ACAD
1000
MTEXTBEGIN
1070
    73
1070
     1
1070
    44
1040
1.0
1070
    74
1070
     0
1000
MTEXTEND
  0
POINT
  5
14B6
330
14A4
100
AcDbEntity
  8
Defpoints
 62
     0
100
AcDbPoint
 10
3636.716277963166
 20
2434.691438161923
 30
0.0
  0
POINT
  5
14B7
330
14A4
100
AcDbEntity
  8
Defpoints
 62
     0
100
AcDbPoint
 10
4236.716277963165
 20
2434.691438161923
 30
0.0
  0
POINT
  5
14B8
330
14A4
100
AcDbEntity
  8
Defpoints
 62
     0
100
AcDbPoint
 10
4236.716277963165
 20
2625.907038190635
 30
0.0
  0
ENDBLK
  5
14A6
330
14A4
100
AcDbEntity
  8
0
100
AcDbBlockEnd
  0
ENDSEC
  0
SECTION
  2
ENTITIES
  0
LINE
  5
C49
102
{ACAD_REACTORS
330
148B
102
}
330
1F
100
AcDbEntity
  8
0
100
AcDbLine
 10
1649.896199503892
 20
1974.557857413776
 30
0.0
 11
1649.896199503895
 21
1643.807857413776
 31
0.0
  0
LINE
  5
C4A
102
{ACAD_REACTORS
330
1488
102
}
330
1F
100
AcDbEntity
  8
0
100
AcDbLine
 10
3656.218132165992
 20
1434.691438161922
 30
0.0
 11
4217.214423760339
 21
1434.691438161922
 31
0.0
  0
LINE
  5
C4B
102
{ACAD_REACTORS
330
148B
102
}
330
1F
100
AcDbEntity
  8
0
100
AcDbLine
 10
842.205383545188
 20
1974.557857413776
 30
0.0
 11
842.205383545188
 21
1643.807857413776
 31
0.0
  0
LINE
  5
C51
102
{ACAD_REACTORS
330
148B
102
}
330
1F
100
AcDbEntity
  8
0
100
AcDbLine
 10
966.0448518263583
 20
1643.807857413776
 30
0.0
 11
928.1824190590739
 21
1434.691438161922
 31
0.0
  0
LINE
  5
C52
102
{ACAD_REACTORS
330
148B
102
}
330
1F
100
AcDbEntity
  8
0
100
AcDbLine
 10
1038.872514044622
 20
1643.807857413776
 30
0.0
 11
1001.010081277338
 21
1434.691438161922
 31
0.0
  0
LINE
  5
C53
102
{ACAD_REACTORS
330
148B
102
}
330
1F
100
AcDbEntity
  8
0
100
AcDbLine
 10
1453.229069004457
 20
1643.807857413776
 30
0.0
 11
1491.091501771741
 21
1434.691438161922
 31
0.0
  0
LINE
  5
C54
102
{ACAD_REACTORS
330
148B
102
}
330
1F
100
AcDbEntity
  8
0
100
AcDbLine
 10
1526.056731222721
 20
1643.807857413776
 30
0.0
 11
1563.919163990005
 21
1434.691438161922
 31
0.0
  0
LINE
  5
C55
102
{ACAD_REACTORS
330
148B
102
}
330
1F
100
AcDbEntity
  8
0
100
AcDbLine
 10
842.205383545188
 20
1974.557857413776
 30
0.0
 11
1649.896199503892
 21
1974.557857413776
 31
0.0
  0
LINE
  5
C56
330
1F
100
AcDbEntity
  8
0
100
AcDbLine
 10
2309.882069213117
 20
2434.691438161924
 30
0.0
 11
3587.372661776481
 21
2434.691438161924
 31
0.0
  0
LINE
  5
C57
330
1F
100
AcDbEntity
  8
0
100
AcDbLine
 10
842.2053835451842
 20
134.6250000000002
 30
0.0
 11
1649.896199503892
 21
134.6250000000002
 31
0.0
  0
LINE
  5
C58
330
1F
100
AcDbEntity
  8
0
100
AcDbLine
 10
1892.722561269325
 20
1434.691438161922
 30
0.0
 11
1892.722561269325
 21
811.7213237905524
 31
0.0
  0
LINE
  5
C59
330
1F
100
AcDbEntity
  8
0
100
AcDbLine
 10
-107.2774387306745
 20
1434.691438161922
 30
0.0
 11
-107.2774387306745
 21
811.7213237905524
 31
0.0
  0
LINE
  5
C5A
102
{ACAD_REACTORS
330
148B
102
}
330
1F
100
AcDbEntity
  8
0
100
AcDbLine
 10
1739.164695173236
 20
1434.691438161922
 30
0.0
 11
-107.2774387306745
 21
1434.691438161922
 31
0.0
  0
ARC
  5
C5B
102
{ACAD_REACTORS
330
148B
102
}
330
1F
100
AcDbEntity
  8
0
100
AcDbCircle
 10
267.9675464117172
 20
1508.11907564015
 30
0.0
 40
165.375
100
AcDbArc
 50
333.6401833885862
 51
206.3598166114139
  0
LINE
  5
C5C
102
{ACAD_REACTORS
330
148B
102
}
330
1F
100
AcDbEntity
  8
0
100
AcDbLine
 10
51.64813626851901
 20
1656.923314833796
 30
0.0
 11
1456.862394548145
 21
1767.874862072592
 31
0.0
  0
LINE
  5
C5D
102
{ACAD_REACTORS
330
148B
102
}
330
1F
100
AcDbEntity
  8
0
100
AcDbLine
 10
46.89803741790092
 20
1706.31516829272
 30
0.0
 11
1452.957292501218
 21
1817.333433971234
 31
0.0
  0
LINE
  5
C5E
102
{ACAD_REACTORS
330
148B
102
}
330
1F
100
AcDbEntity
  8
0
100
AcDbLine
 10
1452.957292501222
 20
1817.333433971234
 30
0.0
 11
1456.862394548145
 21
1767.874862072591
 31
0.0
  0
LINE
  5
C5F
102
{ACAD_REACTORS
330
148B
102
}
330
1F
100
AcDbEntity
  8
0
100
AcDbLine
 10
0.0
 20
2137.778422747942
 30
0.0
 11
101.3650126647808
 21
1660.84881183722
 31
0.0
  0
LINE
  5
C60
102
{ACAD_REACTORS
330
148B
102
}
330
1F
100
AcDbEntity
  8
0
100
AcDbLine
 10
30.19553882054243
 20
2144.196080836145
 30
0.0
 11
69.15989149891174
 21
1960.866023711419
 31
0.0
  0
LINE
  5
C61
102
{ACAD_REACTORS
330
148B
102
}
330
1F
100
AcDbEntity
  8
0
100
AcDbLine
 10
80.2943576236321
 20
1759.987745935149
 30
0.0
 11
110.4898964441745
 21
1766.405404023351
 31
0.0
  0
LINE
  5
C62
102
{ACAD_REACTORS
330
148B
102
}
330
1F
100
AcDbEntity
  8
0
100
AcDbLine
 10
-38.35827835236705
 20
2079.612501972554
 30
0.0
 11
51.7882048797619
 21
1655.46687181266
 31
0.0
  0
LINE
  5
C63
102
{ACAD_REACTORS
330
148B
102
}
330
1F
100
AcDbEntity
  8
0
100
AcDbLine
 10
46.89803741790092
 20
1706.31516829272
 30
0.0
 11
51.7882048797619
 21
1655.466871812658
 31
0.0
  0
LINE
  5
C64
102
{ACAD_REACTORS
330
148B
102
}
330
1F
100
AcDbEntity
  8
0
100
AcDbLine
 10
38.96435267836933
 20
1954.448365623217
 30
0.0
 11
69.15989149891174
 21
1960.866023711419
 31
0.0
  0
LINE
  5
C65
102
{ACAD_REACTORS
330
148B
102
}
330
1F
100
AcDbEntity
  8
0
100
AcDbLine
 10
117.7888993916676
 20
1714.806371814627
 30
0.0
 11
425.3329124658558
 21
1739.089134314053
 31
0.0
  0
LINE
  5
C66
102
{ACAD_REACTORS
330
148B
102
}
330
1F
100
AcDbEntity
  8
0
100
AcDbLine
 10
425.3329124658558
 20
1739.089134314052
 30
0.0
 11
422.8586671918201
 21
1770.425738661499
 31
0.0
  0
LINE
  5
C67
102
{ACAD_REACTORS
330
148B
102
}
330
1F
100
AcDbEntity
  8
0
100
AcDbLine
 10
422.8586671918201
 20
1770.425738661499
 30
0.0
 11
115.314654117632
 21
1746.142976162075
 31
0.0
  0
LINE
  5
C68
102
{ACAD_REACTORS
330
148B
102
}
330
1F
100
AcDbEntity
  8
0
100
AcDbLine
 10
115.314654117632
 20
1746.142976162075
 30
0.0
 11
117.7888993916676
 21
1714.806371814627
 31
0.0
  0
LINE
  5
C69
102
{ACAD_REACTORS
330
148B
102
}
330
1F
100
AcDbEntity
  8
0
100
AcDbLine
 10
41.33000494526277
 20
1943.317803059876
 30
0.0
 11
71.52554376580518
 21
1949.735461148078
 31
0.0
  0
LINE
  5
C6A
102
{ACAD_REACTORS
330
148B
102
}
330
1F
100
AcDbEntity
  8
0
100
AcDbLine
 10
0.0
 20
2137.778422747942
 30
0.0
 11
30.19553882054243
 21
2144.196080836145
 31
0.0
  0
LINE
  5
C6B
102
{ACAD_REACTORS
330
148B
102
}
330
1F
100
AcDbEntity
  8
0
100
AcDbLine
 10
-38.35827835236705
 20
2079.612501972554
 30
0.0
 11
10.17026618064847
 21
2089.926595328593
 31
0.0
  0
LINE
  5
C6C
102
{ACAD_REACTORS
330
148B
102
}
330
1F
100
AcDbEntity
  8
0
100
AcDbLine
 10
71.52554376580518
 20
1949.735461148078
 30
0.0
 11
110.4898964441745
 21
1766.405404023351
 31
0.0
  0
DIMENSION
  5
C6D
330
1F
100
AcDbEntity
  8
0
100
AcDbDimension
  2
*D29
 10
2689.850171720526
 20
1434.691438161922
 30
0.0
 11
2588.792872948356
 21
1934.691438161923
 31
0.0
 70
    32
 71
     5
 42
1000.0
  3
ISO-25
100
AcDbAlignedDimension
 13
2259.882069213116
 23
2434.691438161924
 33
0.0
 14
2259.882069213116
 24
1434.691438161922
 34
0.0
 50
90.0
100
AcDbRotatedDimension
1001
ACAD
1000
DSTYLE
1002
{
1070
    41
1040
100.0
1070
    42
1040
125.0
1070
    44
1040
75.0
1070
    46
1040
75.0
1070
   140
1040
100.0
1070
   147
1040
50.0
1070
   173
1070
     1
1070
   343
1005
338
1070
   344
1005
338
1002
}
  0
DIMENSION
  5
C6E
330
1F
100
AcDbEntity
  8
0
100
AcDbDimension
  2
*D30
 10
1892.722561269325
 20
1006.187511760101
 30
0.0
 11
892.7225612693256
 21
1107.24481053227
 31
0.0
 70
    32
  1
ca:2000
 71
     5
 42
2000.0
  3
ISO-25
100
AcDbAlignedDimension
 13
-107.2774387306745
 23
1080.125322860171
 33
0.0
 14
1892.722561269325
 24
1080.125322860171
 34
0.0
100
AcDbRotatedDimension
1001
ACAD
1000
DSTYLE
1002
{
1070
    41
1040
100.0
1070
    42
1040
125.0
1070
    44
1040
75.0
1070
    46
1040
75.0
1070
   140
1040
100.0
1070
   147
1040
50.0
1070
   173
1070
     1
1070
   343
1005
338
1070
   344
1005
338
1002
}
  0
LINE
  5
C6F
330
1F
100
AcDbEntity
  8
0
100
AcDbLine
 10
842.2053835451842
 20
465.3749999999996
 30
0.0
 11
842.2053835451842
 21
134.6250000000002
 31
0.0
  0
LINE
  5
C70
330
1F
100
AcDbEntity
  8
0
100
AcDbLine
 10
1649.896199503895
 20
465.3749999999996
 30
0.0
 11
1649.896199503895
 21
318.0000000000002
 31
0.0
  0
LINE
  5
C71
330
1F
100
AcDbEntity
  8
0
100
AcDbLine
 10
1866.24336230283
 20
318.0
 30
0.0
 11
1866.24336230283
 21
281.9999999999998
 31
0.0
  0
LINE
  5
C72
330
1F
100
AcDbEntity
  8
0
100
AcDbLine
 10
842.2053835451842
 20
465.3749999999996
 30
0.0
 11
1649.896199503895
 21
465.3749999999996
 31
0.0
  0
LINE
  5
C73
330
1F
100
AcDbEntity
  8
0
100
AcDbLine
 10
1430.16567312361
 20
318.0000000000002
 30
0.0
 11
1430.165673123607
 21
282.0
 31
0.0
  0
LINE
  5
C74
330
1F
100
AcDbEntity
  8
0
100
AcDbLine
 10
1430.165673123607
 20
318.0
 30
0.0
 11
1866.24336230283
 21
318.0
 31
0.0
  0
LINE
  5
C75
330
1F
100
AcDbEntity
  8
0
100
AcDbLine
 10
1430.165673123607
 20
282.0
 30
0.0
 11
1866.24336230283
 21
282.0
 31
0.0
  0
LINE
  5
C76
330
1F
100
AcDbEntity
  8
0
100
AcDbLine
 10
1734.799581350518
 20
318.0
 30
0.0
 11
1734.799581350518
 21
282.0
 31
0.0
  0
LINE
  5
C77
330
1F
100
AcDbEntity
  8
0
100
AcDbLine
 10
1649.896199503895
 20
282.0
 30
0.0
 11
1649.896199503895
 21
134.6250000000002
 31
0.0
  0
LINE
  5
C78
330
1F
100
AcDbEntity
  8
0
100
AcDbLine
 10
1670.338523956081
 20
318.0
 30
0.0
 11
1670.338523956081
 21
281.9999999999998
 31
0.0
  0
LINE
  5
C79
102
{ACAD_REACTORS
330
148B
102
}
330
1F
100
AcDbEntity
  8
0
100
AcDbLine
 10
842.205383545188
 20
1643.807857413776
 30
0.0
 11
1649.896199503895
 21
1643.807857413776
 31
0.0
  0
LINE
  5
C7A
330
1F
100
AcDbEntity
  8
0
100
AcDbLine
 10
1456.862394548145
 20
465.3749999999996
 30
0.0
 11
425.3329124658558
 21
465.3749999999996
 31
0.0
  0
LINE
  5
C7B
330
1F
100
AcDbEntity
  8
0
100
AcDbLine
 10
1456.862394548145
 20
134.6250000000002
 30
0.0
 11
425.3329124658558
 21
134.6250000000002
 31
0.0
  0
LINE
  5
C7C
330
1F
100
AcDbEntity
  8
0
100
AcDbLine
 10
1456.862394548145
 20
510.3749999999998
 30
0.0
 11
425.3329124658558
 21
510.3749999999998
 31
0.0
  0
LINE
  5
C7D
330
1F
100
AcDbEntity
  8
0
100
AcDbLine
 10
1456.862394548145
 20
89.62500000000023
 30
0.0
 11
425.3329124658558
 21
89.62500000000023
 31
0.0
  0
LINE
  5
C7E
330
1F
100
AcDbEntity
  8
0
100
AcDbLine
 10
425.3329124658558
 20
599.9999999999998
 30
0.0
 11
425.3329124658558
 21
0.0
 31
0.0
  0
LINE
  5
C7F
330
1F
100
AcDbEntity
  8
0
100
AcDbLine
 10
115.314654117632
 20
600.0000000000002
 30
0.0
 11
115.3146541176284
 21
0.0
 31
0.0
  0
LINE
  5
C80
330
1F
100
AcDbEntity
  8
0
100
AcDbLine
 10
110.4898964441745
 20
600.0000000000002
 30
0.0
 11
110.4898964441745
 21
0.0
 31
0.0
  0
LINE
  5
C81
330
1F
100
AcDbEntity
  8
0
100
AcDbLine
 10
71.52554376580518
 20
600.0000000000002
 30
0.0
 11
71.52554376580518
 21
0.0
 31
0.0
  0
LINE
  5
C82
330
1F
100
AcDbEntity
  8
0
100
AcDbLine
 10
30.19553882054243
 20
600.0000000000002
 30
0.0
 11
30.19553882054243
 21
0.0000000000002274
 31
0.0
  0
LINE
  5
C83
330
1F
100
AcDbEntity
  8
0
100
AcDbLine
 10
425.3329124658558
 20
599.9999999999998
 30
0.0
 11
115.314654117632
 21
599.9999999999998
 31
0.0
  0
LINE
  5
C84
330
1F
100
AcDbEntity
  8
0
100
AcDbLine
 10
425.3329124658558
 20
0.0
 30
0.0
 11
115.3146541176284
 21
0.0
 31
0.0
  0
LINE
  5
C85
330
1F
100
AcDbEntity
  8
0
100
AcDbLine
 10
0.0
 20
510.3749999999998
 30
0.0
 11
-38.35827835236705
 21
510.3749999999998
 31
0.0
  0
LINE
  5
C86
330
1F
100
AcDbEntity
  8
0
100
AcDbLine
 10
0.0
 20
465.3749999999996
 30
0.0
 11
-38.35827835236705
 21
465.3749999999996
 31
0.0
  0
LINE
  5
C87
330
1F
100
AcDbEntity
  8
0
100
AcDbLine
 10
115.314654117632
 20
510.3749999999998
 30
0.0
 11
110.4898964441745
 21
510.3749999999998
 31
0.0
  0
LINE
  5
C88
330
1F
100
AcDbEntity
  8
0
100
AcDbLine
 10
115.314654117632
 20
465.3749999999996
 30
0.0
 11
110.4898964441745
 21
465.3749999999993
 31
0.0
  0
LINE
  5
C89
330
1F
100
AcDbEntity
  8
0
100
AcDbLine
 10
115.3146541176284
 20
134.6250000000002
 30
0.0
 11
110.4898964441745
 21
134.6250000000002
 31
0.0
  0
LINE
  5
C8A
330
1F
100
AcDbEntity
  8
0
100
AcDbLine
 10
115.3146541176284
 20
89.62500000000023
 30
0.0
 11
110.4898964441745
 21
89.62500000000023
 31
0.0
  0
LINE
  5
C8B
330
1F
100
AcDbEntity
  8
0
100
AcDbLine
 10
1456.862394548145
 20
510.3749999999998
 30
0.0
 11
1456.862394548145
 21
465.3749999999996
 31
0.0
  0
LINE
  5
C8C
330
1F
100
AcDbEntity
  8
0
100
AcDbLine
 10
1456.862394548145
 20
89.62500000000023
 30
0.0
 11
1456.862394548145
 21
134.6250000000002
 31
0.0
  0
LINE
  5
C8D
330
1F
100
AcDbEntity
  8
0
100
AcDbLine
 10
0.0
 20
600.0000000000002
 30
0.0
 11
0.0
 21
0.0000000000002274
 31
0.0
  0
LINE
  5
C8E
330
1F
100
AcDbEntity
  8
0
100
AcDbLine
 10
69.15989149891174
 20
600.0000000000002
 30
0.0
 11
69.15989149891174
 21
0.0000000000002274
 31
0.0
  0
LINE
  5
C8F
330
1F
100
AcDbEntity
  8
0
100
AcDbLine
 10
71.52554376580518
 20
510.3749999999998
 30
0.0
 11
69.15989149891174
 21
510.3749999999998
 31
0.0
  0
LINE
  5
C90
330
1F
100
AcDbEntity
  8
0
100
AcDbLine
 10
71.52554376580518
 20
465.3749999999996
 30
0.0
 11
69.15989149891174
 21
465.3749999999996
 31
0.0
  0
LINE
  5
C91
330
1F
100
AcDbEntity
  8
0
100
AcDbLine
 10
-38.35827835236705
 20
510.3749999999998
 30
0.0
 11
-38.35827835236705
 21
465.3749999999996
 31
0.0
  0
LINE
  5
C92
330
1F
100
AcDbEntity
  8
0
100
AcDbLine
 10
69.15989149891174
 20
600.0000000000002
 30
0.0
 11
0.0
 21
600.0000000000002
 31
0.0
  0
LINE
  5
C93
330
1F
100
AcDbEntity
  8
0
100
AcDbLine
 10
110.4898964441745
 20
599.9999999999998
 30
0.0
 11
71.52554376580518
 21
599.9999999999998
 31
0.0
  0
LINE
  5
C94
330
1F
100
AcDbEntity
  8
0
100
AcDbLine
 10
-38.35827835236705
 20
134.6250000000002
 30
0.0
 11
-38.35827835236705
 21
89.62500000000023
 31
0.0
  0
LINE
  5
C95
330
1F
100
AcDbEntity
  8
0
100
AcDbLine
 10
0.0
 20
134.6250000000002
 30
0.0
 11
-38.35827835236705
 21
134.6250000000002
 31
0.0
  0
LINE
  5
C96
330
1F
100
AcDbEntity
  8
0
100
AcDbLine
 10
0.0
 20
89.62500000000023
 30
0.0
 11
-38.35827835236705
 21
89.62500000000023
 31
0.0
  0
LINE
  5
C97
330
1F
100
AcDbEntity
  8
0
100
AcDbLine
 10
71.52554376580518
 20
89.62500000000023
 30
0.0
 11
69.15989149891174
 21
89.62500000000023
 31
0.0
  0
LINE
  5
C98
330
1F
100
AcDbEntity
  8
0
100
AcDbLine
 10
71.52554376580518
 20
134.6250000000002
 30
0.0
 11
69.15989149891174
 21
134.6250000000002
 31
0.0
  0
LINE
  5
C99
330
1F
100
AcDbEntity
  8
0
100
AcDbLine
 10
69.15989149891174
 20
0.0
 30
0.0
 11
0.0
 21
0.0
 31
0.0
  0
LINE
  5
C9A
330
1F
100
AcDbEntity
  8
0
100
AcDbLine
 10
110.4898964441745
 20
0.0
 30
0.0
 11
71.52554376580518
 21
0.0
 31
0.0
  0
LINE
  5
C9B
102
{ACAD_REACTORS
330
1488
102
}
330
1F
100
AcDbEntity
  8
0
100
AcDbLine
 10
3918.716277963166
 20
2434.691438161924
 30
0.0
 11
3954.716277963166
 21
2434.691438161924
 31
0.0
  0
LINE
  5
C9C
102
{ACAD_REACTORS
330
1488
102
}
330
1F
100
AcDbEntity
  8
0
100
AcDbLine
 10
3954.716277963166
 20
1800.063009491762
 30
0.0
 11
3954.716277963166
 21
2434.691438161924
 31
0.0
  0
LINE
  5
C9D
102
{ACAD_REACTORS
330
1488
102
}
330
1F
100
AcDbEntity
  8
0
100
AcDbLine
 10
3918.716277963166
 20
1800.063009491762
 30
0.0
 11
3918.716277963166
 21
2434.691438161924
 31
0.0
  0
LINE
  5
C9E
102
{ACAD_REACTORS
330
1488
102
}
330
1F
100
AcDbEntity
  8
0
100
AcDbLine
 10
4057.054649441157
 20
1643.807857413776
 30
0.0
 11
4094.917082208438
 21
1434.691438161922
 31
0.0
  0
LINE
  5
C9F
102
{ACAD_REACTORS
330
1488
102
}
330
1F
100
AcDbEntity
  8
0
100
AcDbLine
 10
3984.226987222893
 20
1643.807857413776
 30
0.0
 11
4022.089419990177
 21
1434.691438161922
 31
0.0
  0
LINE
  5
CA0
102
{ACAD_REACTORS
330
1488
102
}
330
1F
100
AcDbEntity
  8
0
100
AcDbLine
 10
3782.427171107749
 20
1643.807857413776
 30
0.0
 11
4091.005384818582
 21
1643.807857413776
 31
0.0
  0
ELLIPSE
  5
CA1
102
{ACAD_REACTORS
330
1488
102
}
330
1F
100
AcDbEntity
  8
0
100
AcDbEllipse
 10
3936.716277963166
 20
1727.058498812621
 30
0.0
 11
0.0
 21
246.7493586011551
 31
0.0
210
0.0
220
0.0
230
1.0
 40
0.6642340280259686
 41
4.368246571928886
 42
6.173139814716581
  0
LINE
  5
CA2
102
{ACAD_REACTORS
330
1488
102
}
330
1F
100
AcDbEntity
  8
0
100
AcDbLine
 10
3816.377906485173
 20
1643.807857413776
 30
0.0
 11
3778.515473717894
 21
1434.691438161922
 31
0.0
  0
LINE
  5
CA3
102
{ACAD_REACTORS
330
1488
102
}
330
1F
100
AcDbEntity
  8
0
100
AcDbLine
 10
3889.205568703437
 20
1643.807857413776
 30
0.0
 11
3851.343135936153
 21
1434.691438161922
 31
0.0
  0
LINE
  5
CA4
102
{ACAD_REACTORS
330
1488
102
}
330
1F
100
AcDbEntity
  8
0
100
AcDbLine
 10
3918.716277963166
 20
2144.348494168189
 30
0.0
 11
3954.716277963166
 21
2144.348494168189
 31
0.0
  0
LINE
  5
CA5
102
{ACAD_REACTORS
330
1488
102
}
330
1F
100
AcDbEntity
  8
0
100
AcDbLine
 10
3918.716277963166
 20
1800.063009491762
 30
0.0
 11
3954.716277963166
 21
1800.063009491762
 31
0.0
  0
ELLIPSE
  5
CA6
102
{ACAD_REACTORS
330
1488
102
}
330
1F
100
AcDbEntity
  8
0
100
AcDbEllipse
 10
3936.716277963166
 20
1727.058498812621
 30
0.0
 11
0.0000000000012661
 21
246.7493586011554
 31
0.0
210
0.0
220
0.0
230
1.0
 40
0.6642340280259674
 41
0.1100454924630123
 42
1.914938735250703
  0
LINE
  5
CA7
102
{ACAD_REACTORS
330
1488
102
}
330
1F
100
AcDbEntity
  8
0
100
AcDbLine
 10
3636.716277963166
 20
2144.196080836145
 30
0.0
 11
3918.716277963166
 21
2144.196080836145
 31
0.0
  0
LINE
  5
CA8
102
{ACAD_REACTORS
330
148C
102
}
330
1F
100
AcDbEntity
  8
0
100
AcDbLine
 10
467.8228258231865
 20
5264.79160041567
 30
0.0
 11
467.8228258231865
 21
6296.321082497961
 31
0.0
  0
LINE
  5
CA9
102
{ACAD_REACTORS
330
148C
102
}
330
1F
100
AcDbEntity
  8
0
100
AcDbLine
 10
512.8228258231867
 20
5264.79160041567
 30
0.0
 11
512.8228258231867
 21
6296.321082497961
 31
0.0
  0
LINE
  5
CAA
102
{ACAD_REACTORS
330
148C
102
}
330
1F
100
AcDbEntity
  8
0
100
AcDbLine
 10
843.5728258231865
 20
5264.79160041567
 30
0.0
 11
843.5728258231865
 21
6296.321082497961
 31
0.0
  0
LINE
  5
CAB
102
{ACAD_REACTORS
330
148C
102
}
330
1F
100
AcDbEntity
  8
0
100
AcDbLine
 10
888.5728258231866
 20
5264.79160041567
 30
0.0
 11
888.5728258231866
 21
6296.321082497961
 31
0.0
  0
LINE
  5
CAC
102
{ACAD_REACTORS
330
148C
102
}
330
1F
100
AcDbEntity
  8
0
100
AcDbLine
 10
843.5728258231865
 20
5879.448611418629
 30
0.0
 11
843.5728258231865
 21
5071.75779545992
 31
0.0
  0
LINE
  5
CAD
102
{ACAD_REACTORS
330
148C
102
}
330
1F
100
AcDbEntity
  8
0
100
AcDbLine
 10
512.8228258231867
 20
5879.448611418629
 30
0.0
 11
512.8228258231867
 21
5071.757795459922
 31
0.0
  0
LINE
  5
CAE
102
{ACAD_REACTORS
330
148C
102
}
330
1F
100
AcDbEntity
  8
0
100
AcDbLine
 10
378.1978258231867
 20
6296.321082497959
 30
0.0
 11
378.1978258231867
 21
6606.339340846185
 31
0.0
  0
LINE
  5
CAF
102
{ACAD_REACTORS
330
148C
102
}
330
1F
100
AcDbEntity
  8
0
100
AcDbLine
 10
978.1978258231866
 20
6296.321082497959
 30
0.0
 11
978.1978258231866
 21
6606.339340846185
 31
0.0
  0
LINE
  5
CB0
102
{ACAD_REACTORS
330
148C
102
}
330
1F
100
AcDbEntity
  8
0
100
AcDbLine
 10
978.1978258231866
 20
6606.339340846185
 30
0.0
 11
378.1978258231867
 21
6606.339340846185
 31
0.0
  0
LINE
  5
CB1
102
{ACAD_REACTORS
330
148C
102
}
330
1F
100
AcDbEntity
  8
0
100
AcDbLine
 10
378.1978258231867
 20
6611.164098519639
 30
0.0
 11
378.1978258231867
 21
6650.12845119801
 31
0.0
  0
LINE
  5
CB2
102
{ACAD_REACTORS
330
148C
102
}
330
1F
100
AcDbEntity
  8
0
100
AcDbLine
 10
978.1978258231866
 20
6611.164098519639
 30
0.0
 11
378.1978258231867
 21
6611.164098519641
 31
0.0
  0
LINE
  5
CB3
102
{ACAD_REACTORS
330
148C
102
}
330
1F
100
AcDbEntity
  8
0
100
AcDbLine
 10
978.1978258231866
 20
6650.128451198009
 30
0.0
 11
378.1978258231867
 21
6650.128451198009
 31
0.0
  0
LINE
  5
CB4
102
{ACAD_REACTORS
330
148C
102
}
330
1F
100
AcDbEntity
  8
0
100
AcDbLine
 10
378.1978258231867
 20
6652.494103464903
 30
0.0
 11
378.1978258231867
 21
6721.653994963816
 31
0.0
  0
LINE
  5
CB5
102
{ACAD_REACTORS
330
148C
102
}
330
1F
100
AcDbEntity
  8
0
100
AcDbLine
 10
978.1978258231866
 20
6652.494103464903
 30
0.0
 11
378.1978258231867
 21
6652.494103464903
 31
0.0
  0
LINE
  5
CB6
102
{ACAD_REACTORS
330
148C
102
}
330
1F
100
AcDbEntity
  8
0
100
AcDbLine
 10
978.1978258231866
 20
6691.458456143272
 30
0.0
 11
378.1978258231867
 21
6691.458456143272
 31
0.0
  0
LINE
  5
CB7
102
{ACAD_REACTORS
330
148C
102
}
330
1F
100
AcDbEntity
  8
0
100
AcDbLine
 10
978.1978258231866
 20
6721.653994963816
 30
0.0
 11
378.1978258231867
 21
6721.653994963816
 31
0.0
  0
LINE
  5
CB8
102
{ACAD_REACTORS
330
148C
102
}
330
1F
100
AcDbEntity
  8
0
100
AcDbLine
 10
512.8228258231867
 20
6606.339340846185
 30
0.0
 11
512.8228258231867
 21
6611.164098519639
 31
0.0
  0
LINE
  5
CB9
102
{ACAD_REACTORS
330
148C
102
}
330
1F
100
AcDbEntity
  8
0
100
AcDbLine
 10
512.8228258231867
 20
6650.128451198009
 30
0.0
 11
512.8228258231867
 21
6652.494103464903
 31
0.0
  0
LINE
  5
CBA
102
{ACAD_REACTORS
330
148C
102
}
330
1F
100
AcDbEntity
  8
0
100
AcDbLine
 10
467.8228258231865
 20
6606.339340846185
 30
0.0
 11
467.8228258231865
 21
6611.164098519639
 31
0.0
  0
LINE
  5
CBB
102
{ACAD_REACTORS
330
148C
102
}
330
1F
100
AcDbEntity
  8
0
100
AcDbLine
 10
467.8228258231865
 20
6650.128451198009
 30
0.0
 11
467.8228258231865
 21
6652.494103464903
 31
0.0
  0
LINE
  5
CBC
102
{ACAD_REACTORS
330
148C
102
}
330
1F
100
AcDbEntity
  8
0
100
AcDbLine
 10
467.8228258231865
 20
6721.653994963816
 30
0.0
 11
467.8228258231865
 21
6760.012273316181
 31
0.0
  0
LINE
  5
CBD
102
{ACAD_REACTORS
330
148C
102
}
330
1F
100
AcDbEntity
  8
0
100
AcDbLine
 10
512.8228258231867
 20
6721.653994963816
 30
0.0
 11
512.8228258231867
 21
6760.012273316181
 31
0.0
  0
LINE
  5
CBE
102
{ACAD_REACTORS
330
148C
102
}
330
1F
100
AcDbEntity
  8
0
100
AcDbLine
 10
512.8228258231867
 20
6760.012273316181
 30
0.0
 11
467.8228258231865
 21
6760.012273316181
 31
0.0
  0
LINE
  5
CBF
102
{ACAD_REACTORS
330
148C
102
}
330
1F
100
AcDbEntity
  8
0
100
AcDbLine
 10
888.5728258231866
 20
6760.012273316181
 30
0.0
 11
843.5728258231865
 21
6760.012273316181
 31
0.0
  0
LINE
  5
CC0
102
{ACAD_REACTORS
330
148C
102
}
330
1F
100
AcDbEntity
  8
0
100
AcDbLine
 10
978.1978258231866
 20
6611.164098519639
 30
0.0
 11
978.1978258231866
 21
6650.128451198009
 31
0.0
  0
LINE
  5
CC1
102
{ACAD_REACTORS
330
148C
102
}
330
1F
100
AcDbEntity
  8
0
100
AcDbLine
 10
978.1978258231866
 20
6652.494103464903
 30
0.0
 11
978.1978258231866
 21
6721.653994963816
 31
0.0
  0
LINE
  5
CC2
102
{ACAD_REACTORS
330
148C
102
}
330
1F
100
AcDbEntity
  8
0
100
AcDbLine
 10
888.5728258231866
 20
6721.653994963816
 30
0.0
 11
888.5728258231866
 21
6760.012273316181
 31
0.0
  0
LINE
  5
CC3
102
{ACAD_REACTORS
330
148C
102
}
330
1F
100
AcDbEntity
  8
0
100
AcDbLine
 10
843.5728258231865
 20
6721.653994963816
 30
0.0
 11
843.5728258231865
 21
6760.012273316181
 31
0.0
  0
LINE
  5
CC4
102
{ACAD_REACTORS
330
148C
102
}
330
1F
100
AcDbEntity
  8
0
100
AcDbLine
 10
843.5728258231865
 20
6650.128451198009
 30
0.0
 11
843.5728258231865
 21
6652.494103464903
 31
0.0
  0
LINE
  5
CC5
102
{ACAD_REACTORS
330
148C
102
}
330
1F
100
AcDbEntity
  8
0
100
AcDbLine
 10
888.5728258231866
 20
6650.128451198009
 30
0.0
 11
888.5728258231866
 21
6652.494103464903
 31
0.0
  0
LINE
  5
CC6
102
{ACAD_REACTORS
330
148C
102
}
330
1F
100
AcDbEntity
  8
0
100
AcDbLine
 10
843.5728258231865
 20
6606.339340846185
 30
0.0
 11
843.5728258231865
 21
6611.164098519639
 31
0.0
  0
LINE
  5
CC7
102
{ACAD_REACTORS
330
148C
102
}
330
1F
100
AcDbEntity
  8
0
100
AcDbLine
 10
888.5728258231866
 20
6606.339340846185
 30
0.0
 11
888.5728258231866
 21
6611.164098519639
 31
0.0
  0
LINE
  5
CC8
102
{ACAD_REACTORS
330
148C
102
}
330
1F
100
AcDbEntity
  8
0
100
AcDbLine
 10
978.1978258231866
 20
6296.321082497959
 30
0.0
 11
378.1978258231867
 21
6296.321082497959
 31
0.0
  0
LINE
  5
CC9
102
{ACAD_REACTORS
330
148C
102
}
330
1F
100
AcDbEntity
  8
0
100
AcDbLine
 10
843.5728258231865
 20
5879.448611418629
 30
0.0
 11
512.8228258231867
 21
5879.448611418629
 31
0.0
  0
LINE
  5
CCA
102
{ACAD_REACTORS
330
148C
102
}
330
1F
100
AcDbEntity
  8
0
100
AcDbLine
 10
467.8228258231865
 20
5264.79160041567
 30
0.0
 11
512.8228258231867
 21
5264.79160041567
 31
0.0
  0
LINE
  5
CCB
102
{ACAD_REACTORS
330
148C
102
}
330
1F
100
AcDbEntity
  8
0
100
AcDbLine
 10
888.5728258231866
 20
5264.79160041567
 30
0.0
 11
843.5728258231865
 21
5264.79160041567
 31
0.0
  0
LINE
  5
CCC
102
{ACAD_REACTORS
330
148C
102
}
330
1F
100
AcDbEntity
  8
0
100
AcDbLine
 10
696.1978258231867
 20
5051.315471007736
 30
0.0
 11
660.1978258231866
 21
5051.315471007736
 31
0.0
  0
LINE
  5
CCD
102
{ACAD_REACTORS
330
148C
102
}
330
1F
100
AcDbEntity
  8
0
100
AcDbLine
 10
843.5728258231865
 20
5071.75779545992
 30
0.0
 11
696.1978258231867
 21
5071.75779545992
 31
0.0
  0
LINE
  5
CCE
102
{ACAD_REACTORS
330
148C
102
}
330
1F
100
AcDbEntity
  8
0
100
AcDbLine
 10
660.1978258231866
 20
5071.75779545992
 30
0.0
 11
512.8228258231867
 21
5071.75779545992
 31
0.0
  0
LINE
  5
CCF
102
{ACAD_REACTORS
330
148C
102
}
330
1F
100
AcDbEntity
  8
0
100
AcDbLine
 10
696.1978258231867
 20
5291.488321840207
 30
0.0
 11
660.1978258231866
 21
5291.488321840207
 31
0.0
  0
LINE
  5
CD0
102
{ACAD_REACTORS
330
148C
102
}
330
1F
100
AcDbEntity
  8
0
100
AcDbLine
 10
696.1978258231867
 20
4986.854413613295
 30
0.0
 11
660.1978258231866
 21
4986.854413613295
 31
0.0
  0
LINE
  5
CD1
102
{ACAD_REACTORS
330
148C
102
}
330
1F
100
AcDbEntity
  8
0
100
AcDbLine
 10
696.1978258231867
 20
4855.410632660985
 30
0.0
 11
660.1978258231866
 21
4855.410632660985
 31
0.0
  0
LINE
  5
CD2
102
{ACAD_REACTORS
330
148C
102
}
330
1F
100
AcDbEntity
  8
0
100
AcDbLine
 10
660.1978258231866
 20
5291.488321840207
 30
0.0
 11
660.1978258231866
 21
4855.410632660985
 31
0.0
  0
LINE
  5
CD3
102
{ACAD_REACTORS
330
148C
102
}
330
1F
100
AcDbEntity
  8
0
100
AcDbLine
 10
696.1978258231867
 20
5291.488321840207
 30
0.0
 11
696.1978258231867
 21
4855.410632660985
 31
0.0
  0
LINE
  5
CD4
102
{ACAD_REACTORS
330
1488
102
}
330
1F
100
AcDbEntity
  8
0
100
AcDbLine
 10
3636.716277963166
 20
1766.405404023351
 30
0.0
 11
3636.716277963166
 21
1949.735461148078
 31
0.0
  0
LINE
  5
CD5
102
{ACAD_REACTORS
330
1488
102
}
330
1F
100
AcDbEntity
  8
0
100
AcDbLine
 10
4236.716277963165
 20
1766.405404023351
 30
0.0
 11
4236.716277963165
 21
1949.735461148078
 31
0.0
  0
LINE
  5
CD6
102
{ACAD_REACTORS
330
1488
102
}
330
1F
100
AcDbEntity
  8
0
100
AcDbLine
 10
3636.716277963166
 20
1960.866023711418
 30
0.0
 11
3884.333149872214
 21
1960.866023711418
 31
0.0
  0
LINE
  5
CD7
102
{ACAD_REACTORS
330
1488
102
}
330
1F
100
AcDbEntity
  8
0
100
AcDbLine
 10
3636.716277963166
 20
1766.405404023351
 30
0.0
 11
3774.914176395974
 21
1766.405404023351
 31
0.0
  0
LINE
  5
CD8
102
{ACAD_REACTORS
330
1488
102
}
330
1F
100
AcDbEntity
  8
0
100
AcDbLine
 10
3729.943320783121
 20
1817.333433971234
 30
0.0
 11
3774.943320783121
 21
1817.333433971234
 31
0.0
  0
LINE
  5
CD9
102
{ACAD_REACTORS
330
1488
102
}
330
1F
100
AcDbEntity
  8
0
100
AcDbLine
 10
3729.943320783121
 20
1767.874862072592
 30
0.0
 11
3774.943320783121
 21
1767.874862072592
 31
0.0
  0
LINE
  5
CDA
102
{ACAD_REACTORS
330
1488
102
}
330
1F
100
AcDbEntity
  8
0
100
AcDbLine
 10
3774.943320783121
 20
1767.874862072592
 30
0.0
 11
3774.943320783121
 21
1817.333433971234
 31
0.0
  0
LINE
  5
CDB
102
{ACAD_REACTORS
330
1488
102
}
330
1F
100
AcDbEntity
  8
0
100
AcDbLine
 10
3729.943320783121
 20
1767.874862072592
 30
0.0
 11
3729.943320783121
 21
1817.333433971234
 31
0.0
  0
LINE
  5
CDC
102
{ACAD_REACTORS
330
1488
102
}
330
1F
100
AcDbEntity
  8
0
100
AcDbLine
 10
3744.90432201917
 20
1817.333433971234
 30
0.0
 11
3744.90432201917
 21
1767.874862072592
 31
0.0
  0
LINE
  5
CDD
102
{ACAD_REACTORS
330
1488
102
}
330
1F
100
AcDbEntity
  8
0
100
AcDbLine
 10
4128.52823390716
 20
1817.333433971234
 30
0.0
 11
4128.52823390716
 21
1767.874862072592
 31
0.0
  0
LINE
  5
CDE
102
{ACAD_REACTORS
330
1488
102
}
330
1F
100
AcDbEntity
  8
0
100
AcDbLine
 10
4143.489235143209
 20
1817.333433971234
 30
0.0
 11
4098.489235143211
 21
1817.333433971234
 31
0.0
  0
LINE
  5
CDF
102
{ACAD_REACTORS
330
1488
102
}
330
1F
100
AcDbEntity
  8
0
100
AcDbLine
 10
4143.489235143209
 20
1767.874862072592
 30
0.0
 11
4143.489235143209
 21
1817.333433971234
 31
0.0
  0
LINE
  5
CE0
102
{ACAD_REACTORS
330
1488
102
}
330
1F
100
AcDbEntity
  8
0
100
AcDbLine
 10
4098.489235143211
 20
1767.874862072592
 30
0.0
 11
4098.489235143211
 21
1817.333433971234
 31
0.0
  0
LINE
  5
CE1
102
{ACAD_REACTORS
330
1488
102
}
330
1F
100
AcDbEntity
  8
0
100
AcDbLine
 10
4143.489235143209
 20
1767.874862072592
 30
0.0
 11
4098.489235143211
 21
1767.874862072592
 31
0.0
  0
LINE
  5
CE2
102
{ACAD_REACTORS
330
1488
102
}
330
1F
100
AcDbEntity
  8
0
100
AcDbLine
 10
3954.716277963166
 20
2144.196080836145
 30
0.0
 11
4236.716277963165
 21
2144.196080836145
 31
0.0
  0
LINE
  5
CE3
102
{ACAD_REACTORS
330
1488
102
}
330
1F
100
AcDbEntity
  8
0
100
AcDbLine
 10
3989.099406054116
 20
1960.866023711419
 30
0.0
 11
4236.716277963165
 21
1960.866023711419
 31
0.0
  0
LINE
  5
CE4
102
{ACAD_REACTORS
330
1488
102
}
330
1F
100
AcDbEntity
  8
0
100
AcDbLine
 10
4098.518379530355
 20
1766.405404023351
 30
0.0
 11
4236.716277963165
 21
1766.405404023351
 31
0.0
  0
LINE
  5
CE5
102
{ACAD_REACTORS
330
1488
102
}
330
1F
100
AcDbEntity
  8
0
100
AcDbLine
 10
3656.218132165992
 20
1673.49407564015
 30
0.0
 11
3776.725341540406
 21
1673.49407564015
 31
0.0
  0
LINE
  5
CE6
102
{ACAD_REACTORS
330
1488
102
}
330
1F
100
AcDbEntity
  8
0
100
AcDbLine
 10
3656.218132165992
 20
1673.49407564015
 30
0.0
 11
3656.218132165992
 21
1434.691438161922
 31
0.0
  0
LINE
  5
CE7
102
{ACAD_REACTORS
330
1488
102
}
330
1F
100
AcDbEntity
  8
0
100
AcDbLine
 10
4217.214423760339
 20
1673.49407564015
 30
0.0
 11
4217.214423760339
 21
1434.691438161922
 31
0.0
  0
LINE
  5
CE8
102
{ACAD_REACTORS
330
1488
102
}
330
1F
100
AcDbEntity
  8
0
100
AcDbLine
 10
4096.707214385922
 20
1673.49407564015
 30
0.0
 11
4217.214423760339
 21
1673.49407564015
 31
0.0
  0
LINE
  5
CE9
102
{ACAD_REACTORS
330
1488
102
}
330
1F
100
AcDbEntity
  8
0
100
AcDbLine
 10
3729.943320783121
 20
1767.874862072592
 30
0.0
 11
3729.943320783121
 21
1673.49407564015
 31
0.0
  0
LINE
  5
CEA
102
{ACAD_REACTORS
330
1488
102
}
330
1F
100
AcDbEntity
  8
0
100
AcDbLine
 10
3774.914176395974
 20
1687.711593601887
 30
0.0
 11
3774.914176395974
 21
1673.49407564015
 31
0.0
  0
LINE
  5
CEB
102
{ACAD_REACTORS
330
1488
102
}
330
1F
100
AcDbEntity
  8
0
100
AcDbLine
 10
4098.518379530355
 20
1687.711593601887
 30
0.0
 11
4098.518379530355
 21
1673.49407564015
 31
0.0
  0
LINE
  5
CEC
102
{ACAD_REACTORS
330
1488
102
}
330
1F
100
AcDbEntity
  8
0
100
AcDbLine
 10
4143.489235143209
 20
1767.874862072592
 30
0.0
 11
4143.489235143209
 21
1673.49407564015
 31
0.0
  0
LINE
  5
CED
102
{ACAD_REACTORS
330
1488
102
}
330
1F
100
AcDbEntity
  8
0
100
AcDbLine
 10
3636.716277963166
 20
1739.089134314053
 30
0.0
 11
3729.943320783121
 21
1739.089134314053
 31
0.0
  0
LINE
  5
CEE
102
{ACAD_REACTORS
330
1488
102
}
330
1F
100
AcDbEntity
  8
0
100
AcDbLine
 10
3636.716277963166
 20
1766.405404023351
 30
0.0
 11
3636.716277963166
 21
1739.089134314052
 31
0.0
  0
LINE
  5
CEF
102
{ACAD_REACTORS
330
1488
102
}
330
1F
100
AcDbEntity
  8
0
100
AcDbLine
 10
4236.716277963165
 20
1766.405404023351
 30
0.0
 11
4236.716277963165
 21
1739.089134314052
 31
0.0
  0
LINE
  5
CF0
102
{ACAD_REACTORS
330
1488
102
}
330
1F
100
AcDbEntity
  8
0
100
AcDbLine
 10
4143.489235143209
 20
1739.089134314052
 30
0.0
 11
4236.716277963165
 21
1739.089134314052
 31
0.0
  0
LINE
  5
CF1
102
{ACAD_REACTORS
330
1488
102
}
330
1F
100
AcDbEntity
  8
0
100
AcDbLine
 10
3636.716277963166
 20
1949.735461148078
 30
0.0
 11
3866.106556104922
 21
1949.735461148078
 31
0.0
  0
LINE
  5
CF2
102
{ACAD_REACTORS
330
1488
102
}
330
1F
100
AcDbEntity
  8
0
100
AcDbLine
 10
4007.325999821409
 20
1949.735461148078
 30
0.0
 11
4236.716277963165
 21
1949.735461148078
 31
0.0
  0
LINE
  5
CF3
102
{ACAD_REACTORS
330
1488
102
}
330
1F
100
AcDbEntity
  8
0
100
AcDbLine
 10
3636.716277963166
 20
1960.866023711418
 30
0.0
 11
3636.716277963166
 21
2144.196080836145
 31
0.0
  0
LINE
  5
CF4
102
{ACAD_REACTORS
330
1488
102
}
330
1F
100
AcDbEntity
  8
0
100
AcDbLine
 10
4236.716277963165
 20
1960.866023711419
 30
0.0
 11
4236.716277963165
 21
2144.196080836145
 31
0.0
  0
LINE
  5
CF5
102
{ACAD_REACTORS
330
1488
102
}
330
1F
100
AcDbEntity
  8
0
100
AcDbLine
 10
3729.943320783121
 20
1949.735461148078
 30
0.0
 11
3729.943320783121
 21
1960.866023711418
 31
0.0
  0
LINE
  5
CF6
102
{ACAD_REACTORS
330
1488
102
}
330
1F
100
AcDbEntity
  8
0
100
AcDbLine
 10
3774.943320783121
 20
1949.735461148078
 30
0.0
 11
3774.943320783121
 21
1960.866023711418
 31
0.0
  0
LINE
  5
CF7
102
{ACAD_REACTORS
330
1488
102
}
330
1F
100
AcDbEntity
  8
0
100
AcDbLine
 10
4098.489235143211
 20
1949.735461148078
 30
0.0
 11
4098.489235143211
 21
1960.866023711419
 31
0.0
  0
LINE
  5
CF8
102
{ACAD_REACTORS
330
1488
102
}
330
1F
100
AcDbEntity
  8
0
100
AcDbLine
 10
4143.489235143209
 20
1949.735461148077
 30
0.0
 11
4143.489235143209
 21
1960.866023711419
 31
0.0
  0
DIMENSION
  5
D03
330
1F
100
AcDbEntity
  8
0
100
AcDbDimension
  2
*D31
 10
2678.197825823187
 20
9228.509136941516
 30
0.0
 11
678.1978258231864
 21
9329.566435713688
 31
0.0
 70
    32
 71
     5
 42
4000.0
  3
ISO-25
100
AcDbAlignedDimension
 13
-1321.802174176813
 23
8307.711452988584
 33
0.0
 14
2678.197825823187
 24
8307.711452988584
 34
0.0
100
AcDbRotatedDimension
1001
ACAD
1000
DSTYLE
1002
{
1070
    41
1040
100.0
1070
    42
1040
125.0
1070
    44
1040
75.0
1070
    46
1040
75.0
1070
   140
1040
100.0
1070
   147
1040
50.0
1070
   173
1070
     1
1070
   343
1005
338
1070
   344
1005
338
1002
}
  0
DIMENSION
  5
D04
330
1F
100
AcDbEntity
  8
0
100
AcDbDimension
  2
*D32
 10
3844.237498354083
 20
3307.711452988582
 30
0.0
 11
3743.180199581914
 21
5807.711452988583
 31
0.0
 70
    32
 71
     5
 42
5000.000000000002
  3
ISO-25
100
AcDbAlignedDimension
 13
2678.197825823187
 23
8307.711452988584
 33
0.0
 14
2678.197825823187
 24
3307.711452988582
 34
0.0
 50
90.0
100
AcDbRotatedDimension
1001
ACAD
1000
DSTYLE
1002
{
1070
    41
1040
100.0
1070
    42
1040
125.0
1070
    44
1040
75.0
1070
    46
1040
75.0
1070
   140
1040
100.0
1070
   147
1040
50.0
1070
   173
1070
     1
1070
   343
1005
338
1070
   344
1005
338
1002
}
  0
LWPOLYLINE
  5
131F
102
{ACAD_REACTORS
330
148C
102
}
330
1F
100
AcDbEntity
  8
0
  6
ACAD_ISO03W100
 48
10.0
100
AcDbPolyline
 90
        9
 70
     0
 43
0.0
 10
-821.8021741768135
 20
8307.711452988584
 10
2178.197825823187
 20
8307.711452988584
 42
-0.4142135623730952
 10
2678.197825823187
 20
7807.711452988584
 10
2678.197825823187
 20
3807.711452988582
 42
-0.4142135623730952
 10
2178.197825823187
 20
3307.711452988582
 10
-821.8021741768135
 20
3307.711452988582
 42
-0.4142135623730959
 10
-1321.802174176813
 20
3807.711452988583
 10
-1321.80217417681
 20
7807.711452988586
 42
-0.4142135623730939
 10
-821.8021741768135
 20
8307.711452988584
 42
-0.4629094029504423
  0
LWPOLYLINE
  5
1352
102
{ACAD_REACTORS
330
148B
102
}
330
1F
100
AcDbEntity
  8
0
100
AcDbPolyline
 90
       21
 70
     0
 43
0.0
 10
1430.16567312361
 20
1974.557857413777
 42
0.0777477095291384
 10
1481.363100198243
 20
2199.097163897699
 42
-0.3231612740610656
 10
1622.755761959106
 20
2368.977981469015
 42
0.2025739707007986
 10
1699.628042663938
 20
2427.570574783274
 42
-0.5798924006424994
 10
1722.605779632209
 20
2427.570574783274
 42
-0.1163601869236177
 10
1734.291258468005
 20
2388.140165090823
 42
0.006243030954571
 10
1737.696328858557
 20
2338.811330308468
 42
0.0792599401492825
 10
1740.398304509643
 20
2327.750631527306
 42
0.0784150417122342
 10
1750.299737863886
 20
2311.755481115804
 42
0.0169139132332798
 10
1751.990651658449
 20
2309.920743274764
 42
0.0344905667093354
 10
1800.800534391488
 20
2266.817471937538
 42
0.0397532831957289
 10
1840.528292515959
 20
2241.073643252516
 42
-0.3985964008546775
 10
1859.911102501745
 20
2181.930650221477
 42
-0.3746483821468806
 10
1784.437602275695
 20
2148.949940359482
 42
-0.0563254661264038
 10
1765.157698595609
 20
2157.50159593884
 42
0.0015831068077813
 10
1730.659570764463
 20
2177.568714380527
 42
0.1201245655417724
 10
1708.358102915521
 20
2184.092226704844
 42
0.2847742439180155
 10
1687.404717541944
 20
2172.388585603127
 42
0.2265812434434182
 10
1679.9147248228
 20
2049.570920875558
 42
-0.085674229775991
 10
1680.205259839716
 20
2048.232764501387
 42
-0.1463460530319133
 10
1649.896199503892
 20
1928.415053757471
 42
2.009177665083753
  0
LINE
  5
1489
330
1F
100
AcDbEntity
  8
0
100
AcDbLine
 10
4217.214423760339
 20
1434.691438161922
 30
0.0
 11
4503.23432663601
 21
1434.691438161922
 31
0.0
  0
LINE
  5
148A
330
1F
100
AcDbEntity
  8
0
100
AcDbLine
 10
3656.218132165992
 20
1434.691438161922
 30
0.0
 11
3323.3920757077
 21
1434.691438161922
 31
0.0
  0
DIMENSION
  5
14A3
330
1F
100
AcDbEntity
  8
0
100
AcDbDimension
  2
*D55
 10
4236.716277963165
 20
2625.907038190635
 30
0.0
 11
3936.716277963166
 21
2726.964336962804
 31
0.0
 70
    32
 71
     5
 42
599.9999999999995
  3
ISO-25
100
AcDbAlignedDimension
 13
3636.716277963166
 23
2434.691438161923
 33
0.0
 14
4236.716277963165
 24
2434.691438161923
 34
0.0
100
AcDbRotatedDimension
1001
ACAD
1000
DSTYLE
1002
{
1070
    41
1040
100.0
1070
    42
1040
125.0
1070
    44
1040
75.0
1070
    46
1040
75.0
1070
   140
1040
100.0
1070
   147
1040
50.0
1070
   173
1070
     1
1070
   343
1005
338
1070
   344
1005
338
1002
}
  0
ENDSEC
  0
SECTION
  2
OBJECTS
  0
DICTIONARY
  5
C
330
0
100
AcDbDictionary
281
     1
  3
ACAD_2007HEADERVARS_RT
350
14BD
  3
ACAD_COLOR
350
6B
  3
ACAD_GROUP
350
D
  3
ACAD_IMAGE_DICT
350
C43
  3
ACAD_IMAGE_VARS
350
C46
  3
ACAD_LAYOUT
350
1A
  3
ACAD_MATERIAL
350
6A
  3
ACAD_MLEADERSTYLE
350
12D
  3
ACAD_MLINESTYLE
350
17
  3
ACAD_PLOTSETTINGS
350
19
  3
ACAD_PLOTSTYLENAME
350
E
  3
ACAD_SCALELIST
350
10C
  3
ACAD_TABLESTYLE
350
7E
  3
ACAD_VISUALSTYLE
350
EF
  3
ACDB_RECOMPOSE_DATA
350
15D
  3
AcDbVariableDictionary
350
5E
  3
DWGPROPS
350
14BC
  0
DICTIONARY
  5
13C
330
10
100
AcDbDictionary
280
     1
281
     1
  3
ADSK_XREC_LAYER_RECONCILED
360
6BF
  0
DICTIONARY
  5
1CE
330
1F
100
AcDbDictionary
280
     1
281
     1
  3
ACAD_SORTENTS
360
1CF
  0
DICTIONARY
  5
14BD
102
{ACAD_REACTORS
330
C
102
}
330
C
100
AcDbDictionary
281
     1
  3
DIMFXL
350
14BE
  0
DICTIONARY
  5
6B
102
{ACAD_REACTORS
330
C
102
}
330
C
100
AcDbDictionary
281
     1
  0
DICTIONARY
  5
D
102
{ACAD_REACTORS
330
C
102
}
330
C
100
AcDbDictionary
281
     1
  3
*A1
350
1488
  3
*A2
350
148B
  3
*A3
350
148C
  0
DICTIONARY
  5
C43
102
{ACAD_REACTORS
330
C
102
}
330
C
100
AcDbDictionary
281
     1
  3
SLK05_stor
350
C44
  0
RASTERVARIABLES
  5
C46
102
{ACAD_REACTORS
330
C
102
}
330
C
100
AcDbRasterVariables
 90
        0
 70
     1
 71
     1
 72
     1
  0
DICTIONARY
  5
1A
102
{ACAD_REACTORS
330
C
102
}
330
C
100
AcDbDictionary
281
     1
  3
Layout1
350
D3
  3
Layout2
350
D7
  3
Model
350
22
  0
DICTIONARY
  5
6A
102
{ACAD_REACTORS
330
C
102
}
330
C
100
AcDbDictionary
281
     1
  3
ByBlock
350
ED
  3
ByLayer
350
EC
  3
Global
350
EE
  0
DICTIONARY
  5
12D
102
{ACAD_REACTORS
330
C
102
}
330
C
100
AcDbDictionary
281
     1
  3
Annotative
350
13B
  3
Standard
350
12E
  0
DICTIONARY
  5
17
102
{ACAD_REACTORS
330
C
102
}
330
C
100
AcDbDictionary
281
     1
  3
Standard
350
18
  0
DICTIONARY
  5
19
102
{ACAD_REACTORS
330
C
102
}
330
C
100
AcDbDictionary
281
     1
  0
ACDBDICTIONARYWDFLT
  5
E
102
{ACAD_REACTORS
330
C
102
}
330
C
100
AcDbDictionary
281
     1
  3
Normal
350
F
100
AcDbDictionaryWithDefault
340
F
  0
DICTIONARY
  5
10C
102
{ACAD_REACTORS
330
C
102
}
330
C
100
AcDbDictionary
281
     1
  3
A0
350
10D
  3
A1
350
188
  3
A2
350
189
  3
A3
350
18A
  3
A4
350
18B
  3
A5
350
18C
  3
A6
350
18D
  3
A7
350
18E
  3
A8
350
18F
  3
A9
350
190
  3
B0
350
191
  3
B1
350
192
  3
B2
350
193
  3
B3
350
194
  3
B4
350
195
  3
B5
350
196
  3
B6
350
197
  3
B7
350
198
  3
B8
350
199
  3
B9
350
19A
  3
C0
350
19B
  3
C1
350
19C
  3
C2
350
19D
  3
C3
350
19E
  3
C4
350
19F
  3
C5
350
1A0
  3
C6
350
1A1
  3
C7
350
1A2
  3
C8
350
1A3
  3
C9
350
1A4
  3
D0
350
1A5
  3
D1
350
1A6
  3
D2
350
1A7
  0
DICTIONARY
  5
7E
102
{ACAD_REACTORS
330
C
102
}
330
C
100
AcDbDictionary
281
     1
  3
Standard
350
7F
  0
DICTIONARY
  5
EF
102
{ACAD_REACTORS
330
C
102
}
330
C
100
AcDbDictionary
281
     1
  3
2dWireframe
350
F5
  3
3D Hidden
350
F7
  3
3dWireframe
350
F6
  3
Basic
350
F4
  3
Brighten
350
FB
  3
ColorChange
350
FF
  3
Conceptual
350
F8
  3
Dim
350
FA
  3
Facepattern
350
FE
  3
Flat
350
F0
  3
FlatWithEdges
350
F1
  3
Gouraud
350
F2
  3
GouraudWithEdges
350
F3
  3
Linepattern
350
FD
  3
Realistic
350
F9
  3
Thicken
350
FC
  0
XRECORD
  5
15D
102
{ACAD_REACTORS
330
C
102
}
330
C
100
AcDbXrecord
280
     1
 90
        1
330
7F
  0
DICTIONARY
  5
5E
102
{ACAD_REACTORS
330
C
102
}
330
C
100
AcDbDictionary
281
     1
  3
CANNOSCALE
350
146
  3
CMLEADERSTYLE
350
145
  3
CTABLESTYLE
350
84
  3
DIMASSOC
350
5F
  3
HIDETEXT
350
63
  3
INDEXCTL
350
1357
  3
LIGHTINGUNITS
350
1355
  3
MSLTSCALE
350
1354
  3
PSOLHEIGHT
350
14BA
  3
PSOLWIDTH
350
14B9
  3
SORTENTS
350
1356
  0
XRECORD
  5
14BC
102
{ACAD_REACTORS
330
C
102
}
330
C
100
AcDbXrecord
280
     1
  1
DWGPROPS COOKIE
  2

  3

  4

  6

  7

  8
dk
  9

300
=
301
=
302
=
303
=
304
=
305
=
306
=
307
=
308
=
309
=
 40
0.3517735648148148
 41
2454525.590090787
 42
2454554.412185509
  1

 90
        0
  0
XRECORD
  5
6BF
102
{ACAD_REACTORS
330
13C
102
}
330
13C
100
AcDbXrecord
280
     1
290
     1
  0
SORTENTSTABLE
  5
1CF
102
{ACAD_REACTORS
330
1CE
102
}
330
1CE
100
AcDbSortentsTable
330
1F
331
CB1
  5
CB1
331
CE8
  5
CE8
331
C72
  5
C72
331
CB9
  5
CB9
331
CF0
  5
CF0
331
C7A
  5
C7A
331
C82
  5
C82
331
CC1
  5
CC1
331
CF8
  5
CF8
331
C8A
  5
C8A
331
C6D
  5
C6D
331
CC9
  5
CC9
331
C4B
  5
C4B
331
C92
  5
C92
331
CD1
  5
CD1
331
C53
  5
C53
331
C9A
  5
C9A
331
CA2
  5
CA2
331
CD9
  5
CD9
331
C5B
  5
C5B
331
C63
  5
C63
331
CAA
  5
CAA
331
CE1
  5
CE1
331
C73
  5
C73
331
CB2
  5
CB2
331
CE9
  5
CE9
331
CF1
  5
CF1
331
C7B
  5
C7B
331
CBA
  5
CBA
331
CC2
  5
CC2
331
C83
  5
C83
331
C8B
  5
C8B
331
C6E
  5
C6E
331
C93
  5
C93
331
CCA
  5
CCA
331
C54
  5
C54
331
C9B
  5
C9B
331
CD2
  5
CD2
331
CDA
  5
CDA
331
C5C
  5
C5C
331
CA3
  5
CA3
331
CE2
  5
CE2
331
C64
  5
C64
331
CAB
  5
CAB
331
CB3
  5
CB3
331
CEA
  5
CEA
331
C74
  5
C74
331
C7C
  5
C7C
331
CBB
  5
CBB
331
CF2
  5
CF2
331
C84
  5
C84
331
CC3
  5
CC3
331
1352
  5
1352
331
C8C
  5
C8C
331
C6F
  5
C6F
331
CCB
  5
CCB
331
C94
  5
C94
331
CD3
  5
CD3
331
C55
  5
C55
331
C9C
  5
C9C
331
CA4
  5
CA4
331
CDB
  5
CDB
331
C5D
  5
C5D
331
C65
  5
C65
331
CAC
  5
CAC
331
CE3
  5
CE3
331
CEB
  5
CEB
331
C75
  5
C75
331
CB4
  5
CB4
331
CF3
  5
CF3
331
C7D
  5
C7D
331
CBC
  5
CBC
331
CC4
  5
CC4
331
C85
  5
C85
331
C8D
  5
C8D
331
C68
  5
C68
331
C95
  5
C95
331
CCC
  5
CCC
331
C56
  5
C56
331
C9D
  5
C9D
331
CD4
  5
CD4
331
CDC
  5
CDC
331
C5E
  5
C5E
331
CA5
  5
CA5
331
CE4
  5
CE4
331
C66
  5
C66
331
CAD
  5
CAD
331
CB5
  5
CB5
331
CEC
  5
CEC
331
C76
  5
C76
331
C7E
  5
C7E
331
CBD
  5
CBD
331
CF4
  5
CF4
331
C86
  5
C86
331
CC5
  5
CC5
331
C8E
  5
C8E
331
C69
  5
C69
331
CCD
  5
CCD
331
C96
  5
C96
331
C9E
  5
C9E
331
CD5
  5
CD5
331
C57
  5
C57
331
CA6
  5
CA6
331
CDD
  5
CDD
331
C5F
  5
C5F
331
C67
  5
C67
331
CAE
  5
CAE
331
CE5
  5
CE5
331
CED
  5
CED
331
C77
  5
C77
331
CB6
  5
CB6
331
CF5
  5
CF5
331
C7F
  5
C7F
331
CBE
  5
CBE
331
CC6
  5
CC6
331
C87
  5
C87
331
C8F
  5
C8F
331
C6A
  5
C6A
331
C97
  5
C97
331
CCE
  5
CCE
331
C58
  5
C58
331
C9F
  5
C9F
331
CD6
  5
CD6
331
CDE
  5
CDE
331
C60
  5
C60
331
CA7
  5
CA7
331
CAF
  5
CAF
331
CE6
  5
CE6
331
C70
  5
C70
331
CB7
  5
CB7
331
CEE
  5
CEE
331
C78
  5
C78
331
C80
  5
C80
331
CBF
  5
CBF
331
CF6
  5
CF6
331
C88
  5
C88
331
CC7
  5
CC7
331
D03
  5
D03
331
C6B
  5
C6B
331
C49
  5
C49
331
C90
  5
C90
331
CCF
  5
CCF
331
C51
  5
C51
331
C98
  5
C98
331
CA0
  5
CA0
331
CD7
  5
CD7
331
C59
  5
C59
331
CA8
  5
CA8
331
CDF
  5
CDF
331
C61
  5
C61
331
CE7
  5
CE7
331
C71
  5
C71
331
CB0
  5
CB0
331
CEF
  5
CEF
331
C79
  5
C79
331
CB8
  5
CB8
331
CC0
  5
CC0
331
CF7
  5
CF7
331
C81
  5
C81
331
C89
  5
C89
331
D04
  5
D04
331
C6C
  5
C6C
331
C91
  5
C91
331
CC8
  5
CC8
331
C4A
  5
C4A
331
C52
  5
C52
331
C99
  5
C99
331
CD0
  5
CD0
331
C5A
  5
C5A
331
CA1
  5
CA1
331
CD8
  5
CD8
331
CE0
  5
CE0
331
C62
  5
C62
331
CA9
  5
CA9
331
131F
  5
131F
  0
XRECORD
  5
14BE
102
{ACAD_REACTORS
330
14BD
102
}
330
14BD
100
AcDbXrecord
280
     1
 40
1.25
  0
GROUP
  5
1488
102
{ACAD_REACTORS
330
D
102
}
330
D
100
AcDbGroup
300

 70
     1
 71
     1
340
CF8
340
CF7
340
CF6
340
CF5
340
CF4
340
CF3
340
CF2
340
CF1
340
CF0
340
CEF
340
CEE
340
CED
340
CEC
340
CEB
340
CEA
340
CE9
340
CE8
340
CE7
340
CE6
340
CE5
340
CE4
340
CE3
340
CE2
340
CE1
340
CE0
340
CDF
340
CDE
340
CDD
340
CDC
340
CDB
340
CDA
340
CD9
340
CD8
340
CD7
340
CD6
340
CD5
340
CD4
340
CA7
340
CA6
340
CA5
340
CA4
340
CA3
340
CA2
340
CA1
340
CA0
340
C9F
340
C9E
340
C9D
340
C9C
340
C9B
340
C4A
  0
GROUP
  5
148B
102
{ACAD_REACTORS
330
D
102
}
330
D
100
AcDbGroup
300

 70
     1
 71
     1
340
C5A
340
1352
340
C79
340
C6C
340
C6B
340
C6A
340
C69
340
C68
340
C67
340
C66
340
C65
340
C64
340
C63
340
C62
340
C61
340
C60
340
C5F
340
C5E
340
C5D
340
C5C
340
C5B
340
C55
340
C54
340
C53
340
C52
340
C51
340
C4B
340
C49
  0
GROUP
  5
148C
102
{ACAD_REACTORS
330
D
102
}
330
D
100
AcDbGroup
300

 70
     1
 71
     1
340
131F
340
CD3
340
CD2
340
CD1
340
CD0
340
CCF
340
CCE
340
CCD
340
CCC
340
CCB
340
CCA
340
CC9
340
CC8
340
CC7
340
CC6
340
CC5
340
CC4
340
CC3
340
CC2
340
CC1
340
CC0
340
CBF
340
CBE
340
CBD
340
CBC
340
CBB
340
CBA
340
CB9
340
CB8
340
CB7
340
CB6
340
CB5
340
CB4
340
CB3
340
CB2
340
CB1
340
CB0
340
CAF
340
CAE
340
CAD
340
CAC
340
CAB
340
CAA
340
CA9
340
CA8
  0
IMAGEDEF
  5
C44
102
{ACAD_REACTORS
330
C43
102
}
330
C43
100
AcDbRasterImageDef
 90
        0
  1
C:\Users\Magnus Helgesson\Projekt\Magnusprojekt\Marbit\Naturlek\SLK05_stor.jpg
 10
1136.0
 20
852.0
 11
0.0008802816901408
 21
0.0008802816901408
280
     1
281
     0
  0
LAYOUT
  5
D3
102
{ACAD_XDICTIONARY
360
14C2
102
}
102
{ACAD_REACTORS
330
1A
102
}
330
1A
100
AcDbPlotSettings
  1

  2
C:\Documents and Settings\basas\Application Data\Autodesk\AutoCAD 2005\R16.1\enu\plotters\Default Windows System Printer.pc3
  4

  6

 40
0.0
 41
0.0
 42
0.0
 43
0.0
 44
0.0
 45
0.0
 46
0.0
 47
0.0
 48
0.0
 49
0.0
140
0.0
141
0.0
142
1.0
143
1.0
 70
   688
 72
     0
 73
     0
 74
     5
  7

 75
    16
147
1.0
148
0.0
149
0.0
100
AcDbLayout
  1
Layout1
 70
     1
 71
     1
 10
0.0
 20
0.0
 11
12.0
 21
9.0
 12
0.0
 22
0.0
 32
0.0
 14
0.0
 24
0.0
 34
0.0
 15
0.0
 25
0.0
 35
0.0
146
0.0
 13
0.0
 23
0.0
 33
0.0
 16
1.0
 26
0.0
 36
0.0
 17
0.0
 27
1.0
 37
0.0
 76
     0
330
D2
  0
LAYOUT
  5
D7
102
{ACAD_XDICTIONARY
360
14C4
102
}
102
{ACAD_REACTORS
330
1A
102
}
330
1A
100
AcDbPlotSettings
  1

  2
C:\Documents and Settings\basas\Application Data\Autodesk\AutoCAD 2005\R16.1\enu\plotters\Default Windows System Printer.pc3
  4

  6

 40
0.0
 41
0.0
 42
0.0
 43
0.0
 44
0.0
 45
0.0
 46
0.0
 47
0.0
 48
0.0
 49
0.0
140
0.0
141
0.0
142
1.0
143
1.0
 70
   688
 72
     0
 73
     0
 74
     5
  7

 75
    16
147
1.0
148
0.0
149
0.0
100
AcDbLayout
  1
Layout2
 70
     1
 71
     2
 10
0.0
 20
0.0
 11
12.0
 21
9.0
 12
0.0
 22
0.0
 32
0.0
 14
0.0
 24
0.0
 34
0.0
 15
0.0
 25
0.0
 35
0.0
146
0.0
 13
0.0
 23
0.0
 33
0.0
 16
1.0
 26
0.0
 36
0.0
 17
0.0
 27
1.0
 37
0.0
 76
     0
330
D6
  0
LAYOUT
  5
22
102
{ACAD_XDICTIONARY
360
14BF
102
}
102
{ACAD_REACTORS
330
1A
102
}
330
1A
100
AcDbPlotSettings
  1

  2
none_device
  4
ISO_A4_(210.00_x_297.00_MM)
  6

 40
7.5
 41
20.0
 42
7.5
 43
20.0
 44
210.0
 45
297.0
 46
11.54999923706054
 47
-13.65000009536743
 48
0.0
 49
0.0
140
0.0
141
0.0
142
1.0
143
8.704084754739808
 70
 11952
 72
     1
 73
     0
 74
     0
  7

 75
     0
147
0.1148885871608098
148
0.0
149
0.0
100
AcDbLayout
  1
Model
 70
     1
 71
     0
 10
0.0
 20
0.0
 11
12.0
 21
9.0
 12
0.0
 22
0.0
 32
0.0
 14
0.0
 24
0.0
 34
0.0
 15
0.0
 25
0.0
 35
0.0
146
0.0
 13
0.0
 23
0.0
 33
0.0
 16
1.0
 26
0.0
 36
0.0
 17
0.0
 27
1.0
 37
0.0
 76
     0
330
1F
331
EA
1001
ACAD_PSEXT
1000
None
1000
None
1000
Not applicable
1000
The layout will not be plotted unless a new plotter configuration name is selected.
1070
     0
  0
MATERIAL
  5
ED
102
{ACAD_XDICTIONARY
360
1498
102
}
102
{ACAD_REACTORS
330
6A
102
}
330
6A
100
AcDbMaterial
  1
ByBlock
  0
MATERIAL
  5
EC
102
{ACAD_XDICTIONARY
360
1496
102
}
102
{ACAD_REACTORS
330
6A
102
}
330
6A
100
AcDbMaterial
  1
ByLayer
  0
MATERIAL
  5
EE
102
{ACAD_XDICTIONARY
360
173
102
}
102
{ACAD_REACTORS
330
6A
102
}
330
6A
100
AcDbMaterial
  1
Global
 43
0.0007999999797903
 43
0.0
 43
0.0
 43
0.0
 43
0.0
 43
0.0007999999797903
 43
0.0
 43
0.0
 43
0.0
 43
0.0
 43
1.0
 43
0.0
 43
0.0
 43
0.0
 43
0.0
 43
1.0
 49
0.0007999999797903
 49
0.0
 49
0.0
 49
0.0
 49
0.0
 49
0.0007999999797903
 49
0.0
 49
0.0
 49
0.0
 49
0.0
 49
1.0
 49
0.0
 49
0.0
 49
0.0
 49
0.0
 49
1.0
142
0.0007999999797903
142
0.0
142
0.0
142
0.0
142
0.0
142
0.0007999999797903
142
0.0
142
0.0
142
0.0
142
0.0
142
1.0
142
0.0
142
0.0
142
0.0
142
0.0
142
1.0
144
0.0007999999797903
144
0.0
144
0.0
144
0.0
144
0.0
144
0.0007999999797903
144
0.0
144
0.0
144
0.0
144
0.0
144
1.0
144
0.0
144
0.0
144
0.0
144
0.0
144
1.0
1001
ACAD
1070
    -1
1070
     3
1070
     0
1000

1071
        0
1070
     0
  0
MLEADERSTYLE
  5
13B
102
{ACAD_REACTORS
330
12D
102
}
330
12D
100
AcDbMLeaderStyle
170
     2
171
     1
172
     0
 90
        2
 40
0.0
 41
0.0
173
     1
 91
-1056964608
340
14
 92
       -2
290
     1
 42
2.0
291
     1
 43
8.0
  3
Standard
 44
4.0
300

342
11
174
     1
178
     1
175
     1
176
     0
 93
-1056964608
 45
4.0
292
     0
297
     0
 46
4.0
 94
-1056964608
 47
1.0
 49
1.0
140
1.0
293
     1
141
0.0
294
     1
177
     0
142
1.0
295
     0
296
     1
143
3.75
1001
ACAD_MLEADERVER
1070
     2
  0
MLEADERSTYLE
  5
12E
102
{ACAD_REACTORS
330
12D
102
}
330
12D
100
AcDbMLeaderStyle
170
     2
171
     1
172
     0
 90
        2
 40
0.0
 41
0.0
173
     1
 91
-1056964608
340
14
 92
       -2
290
     1
 42
2.0
291
     1
 43
8.0
  3
Standard
 44
4.0
300

342
11
174
     1
178
     1
175
     1
176
     0
 93
-1056964608
 45
4.0
292
     0
297
     0
 46
4.0
 94
-1056964608
 47
1.0
 49
1.0
140
1.0
293
     1
141
0.0
294
     1
177
     0
142
1.0
295
     0
296
     0
143
3.75
1001
ACAD_MLEADERVER
1070
     2
  0
MLINESTYLE
  5
18
102
{ACAD_REACTORS
330
17
102
}
330
17
100
AcDbMlineStyle
  2
STANDARD
 70
     0
  3

 62
   256
 51
90.0
 52
90.0
 71
     2
 49
0.5
 62
   256
  6
BYLAYER
 49
-0.5
 62
   256
  6
BYLAYER
  0
ACDBPLACEHOLDER
  5
F
102
{ACAD_REACTORS
330
E
102
}
330
E
  0
SCALE
  5
10D
102
{ACAD_REACTORS
330
10C
102
}
330
10C
100
AcDbScale
 70
     0
300
1:1
140
1.0
141
1.0
290
     1
  0
SCALE
  5
188
102
{ACAD_REACTORS
330
10C
102
}
330
10C
100
AcDbScale
 70
     0
300
1:2
140
1.0
141
2.0
290
     0
  0
SCALE
  5
189
102
{ACAD_REACTORS
330
10C
102
}
330
10C
100
AcDbScale
 70
     0
300
1:4
140
1.0
141
4.0
290
     0
  0
SCALE
  5
18A
102
{ACAD_REACTORS
330
10C
102
}
330
10C
100
AcDbScale
 70
     0
300
1:5
140
1.0
141
5.0
290
     0
  0
SCALE
  5
18B
102
{ACAD_REACTORS
330
10C
102
}
330
10C
100
AcDbScale
 70
     0
300
1:8
140
1.0
141
8.0
290
     0
  0
SCALE
  5
18C
102
{ACAD_REACTORS
330
10C
102
}
330
10C
100
AcDbScale
 70
     0
300
1:10
140
1.0
141
10.0
290
     0
  0
SCALE
  5
18D
102
{ACAD_REACTORS
330
10C
102
}
330
10C
100
AcDbScale
 70
     0
300
1:16
140
1.0
141
16.0
290
     0
  0
SCALE
  5
18E
102
{ACAD_REACTORS
330
10C
102
}
330
10C
100
AcDbScale
 70
     0
300
1:20
140
1.0
141
20.0
290
     0
  0
SCALE
  5
18F
102
{ACAD_REACTORS
330
10C
102
}
330
10C
100
AcDbScale
 70
     0
300
1:30
140
1.0
141
30.0
290
     0
  0
SCALE
  5
190
102
{ACAD_REACTORS
330
10C
102
}
330
10C
100
AcDbScale
 70
     0
300
1:40
140
1.0
141
40.0
290
     0
  0
SCALE
  5
191
102
{ACAD_REACTORS
330
10C
102
}
330
10C
100
AcDbScale
 70
     0
300
1:50
140
1.0
141
50.0
290
     0
  0
SCALE
  5
192
102
{ACAD_REACTORS
330
10C
102
}
330
10C
100
AcDbScale
 70
     0
300
1:100
140
1.0
141
100.0
290
     0
  0
SCALE
  5
193
102
{ACAD_REACTORS
330
10C
102
}
330
10C
100
AcDbScale
 70
     0
300
2:1
140
2.0
141
1.0
290
     0
  0
SCALE
  5
194
102
{ACAD_REACTORS
330
10C
102
}
330
10C
100
AcDbScale
 70
     0
300
4:1
140
4.0
141
1.0
290
     0
  0
SCALE
  5
195
102
{ACAD_REACTORS
330
10C
102
}
330
10C
100
AcDbScale
 70
     0
300
8:1
140
8.0
141
1.0
290
     0
  0
SCALE
  5
196
102
{ACAD_REACTORS
330
10C
102
}
330
10C
100
AcDbScale
 70
     0
300
10:1
140
10.0
141
1.0
290
     0
  0
SCALE
  5
197
102
{ACAD_REACTORS
330
10C
102
}
330
10C
100
AcDbScale
 70
     0
300
100:1
140
100.0
141
1.0
290
     0
  0
SCALE
  5
198
102
{ACAD_REACTORS
330
10C
102
}
330
10C
100
AcDbScale
 70
     0
300
1/128" = 1'-0"
140
0.0078125
141
12.0
290
     0
  0
SCALE
  5
199
102
{ACAD_REACTORS
330
10C
102
}
330
10C
100
AcDbScale
 70
     0
300
1/64" = 1'-0"
140
0.015625
141
12.0
290
     0
  0
SCALE
  5
19A
102
{ACAD_REACTORS
330
10C
102
}
330
10C
100
AcDbScale
 70
     0
300
1/32" = 1'-0"
140
0.03125
141
12.0
290
     0
  0
SCALE
  5
19B
102
{ACAD_REACTORS
330
10C
102
}
330
10C
100
AcDbScale
 70
     0
300
1/16" = 1'-0"
140
0.0625
141
12.0
290
     0
  0
SCALE
  5
19C
102
{ACAD_REACTORS
330
10C
102
}
330
10C
100
AcDbScale
 70
     0
300
3/32" = 1'-0"
140
0.09375
141
12.0
290
     0
  0
SCALE
  5
19D
102
{ACAD_REACTORS
330
10C
102
}
330
10C
100
AcDbScale
 70
     0
300
1/8" = 1'-0"
140
0.125
141
12.0
290
     0
  0
SCALE
  5
19E
102
{ACAD_REACTORS
330
10C
102
}
330
10C
100
AcDbScale
 70
     0
300
3/16" = 1'-0"
140
0.1875
141
12.0
290
     0
  0
SCALE
  5
19F
102
{ACAD_REACTORS
330
10C
102
}
330
10C
100
AcDbScale
 70
     0
300
1/4" = 1'-0"
140
0.25
141
12.0
290
     0
  0
SCALE
  5
1A0
102
{ACAD_REACTORS
330
10C
102
}
330
10C
100
AcDbScale
 70
     0
300
3/8" = 1'-0"
140
0.375
141
12.0
290
     0
  0
SCALE
  5
1A1
102
{ACAD_REACTORS
330
10C
102
}
330
10C
100
AcDbScale
 70
     0
300
1/2" = 1'-0"
140
0.5
141
12.0
290
     0
  0
SCALE
  5
1A2
102
{ACAD_REACTORS
330
10C
102
}
330
10C
100
AcDbScale
 70
     0
300
3/4" = 1'-0"
140
0.75
141
12.0
290
     0
  0
SCALE
  5
1A3
102
{ACAD_REACTORS
330
10C
102
}
330
10C
100
AcDbScale
 70
     0
300
1" = 1'-0"
140
1.0
141
12.0
290
     0
  0
SCALE
  5
1A4
102
{ACAD_REACTORS
330
10C
102
}
330
10C
100
AcDbScale
 70
     0
300
1-1/2" = 1'-0"
140
1.5
141
12.0
290
     0
  0
SCALE
  5
1A5
102
{ACAD_REACTORS
330
10C
102
}
330
10C
100
AcDbScale
 70
     0
300
3" = 1'-0"
140
3.0
141
12.0
290
     0
  0
SCALE
  5
1A6
102
{ACAD_REACTORS
330
10C
102
}
330
10C
100
AcDbScale
 70
     0
300
6" = 1'-0"
140
6.0
141
12.0
290
     0
  0
SCALE
  5
1A7
102
{ACAD_REACTORS
330
10C
102
}
330
10C
100
AcDbScale
 70
     0
300
1'-0" = 1'-0"
140
12.0
141
12.0
290
     0
  0
TABLESTYLE
  5
7F
102
{ACAD_XDICTIONARY
360
162
102
}
102
{ACAD_REACTORS
330
7E
102
}
330
7E
100
AcDbTableStyle
  3
Standard
 70
     0
 71
     0
 40
1.5
 41
1.5
280
     0
281
     0
  7
Standard
140
4.5
170
     2
 62
     0
 63
     7
283
     0
274
    -2
284
     1
 64
     0
275
    -2
285
     1
 65
     0
276
    -2
286
     1
 66
     0
277
    -2
287
     1
 67
     0
278
    -2
288
     1
 68
     0
279
    -2
289
     1
 69
     0
  7
Standard
140
6.0
170
     5
 62
     0
 63
     7
283
     0
274
    -2
284
     1
 64
     0
275
    -2
285
     1
 65
     0
276
    -2
286
     1
 66
     0
277
    -2
287
     1
 67
     0
278
    -2
288
     1
 68
     0
279
    -2
289
     1
 69
     0
  7
Standard
140
4.5
170
     5
 62
     0
 63
     7
283
     0
274
    -2
284
     1
 64
     0
275
    -2
285
     1
 65
     0
276
    -2
286
     1
 66
     0
277
    -2
287
     1
 67
     0
278
    -2
288
     1
 68
     0
279
    -2
289
     1
 69
     0
  0
VISUALSTYLE
  5
F5
102
{ACAD_REACTORS
330
EF
102
}
330
EF
100
AcDbVisualStyle
  2
2dWireframe
 70
     4
 71
     0
 72
     2
 73
     1
 90
        0
 40
-0.6
 41
-30.0
 62
     5
 63
     7
 74
     1
 91
        4
 64
     7
 65
   257
 75
     1
175
     1
 42
1.0
 92
        0
 66
   257
 43
1.0
 76
     1
 77
     6
 78
     2
 67
     7
 79
     5
170
     0
171
     0
290
     0
174
     0
 93
        1
 44
0.0
173
     0
291
     0
 45
0.0
1001
ACAD
1000
AcDbSavedByObjectVersion
1070
     0
1000
AcDbSavedByObjectVersion
1070
     0
  0
VISUALSTYLE
  5
F7
102
{ACAD_REACTORS
330
EF
102
}
330
EF
100
AcDbVisualStyle
  2
3D Hidden
 70
     6
 71
     1
 72
     2
 73
     2
 90
        0
 40
-0.6
 41
-30.0
 62
     5
 63
     7
 74
     2
 91
        2
 64
     7
 65
   257
 75
     2
175
     1
 42
40.0
 92
        0
 66
   257
 43
1.0
 76
     1
 77
     6
 78
     2
 67
     7
 79
     3
170
     0
171
     0
290
     0
174
     0
 93
        1
 44
0.0
173
     0
291
     0
 45
0.0
1001
ACAD
1000
AcDbSavedByObjectVersion
1070
     0
1000
AcDbSavedByObjectVersion
1070
     0
  0
VISUALSTYLE
  5
F6
102
{ACAD_REACTORS
330
EF
102
}
330
EF
100
AcDbVisualStyle
  2
3dWireframe
 70
     5
 71
     0
 72
     2
 73
     1
 90
        0
 40
-0.6
 41
-30.0
 62
     5
 63
     7
 74
     1
 91
        4
 64
     7
 65
   257
 75
     1
175
     1
 42
1.0
 92
        0
 66
   257
 43
1.0
 76
     1
 77
     6
 78
     2
 67
     7
 79
     5
170
     0
171
     0
290
     0
174
     0
 93
        1
 44
0.0
173
     0
291
     0
 45
0.0
1001
ACAD
1000
AcDbSavedByObjectVersion
1070
     0
1000
AcDbSavedByObjectVersion
1070
     0
  0
VISUALSTYLE
  5
F4
102
{ACAD_REACTORS
330
EF
102
}
330
EF
100
AcDbVisualStyle
  2
Basic
 70
     7
 71
     1
 72
     0
 73
     1
 90
        0
 40
-0.6
 41
-30.0
 62
     5
 63
     7
 74
     0
 91
        4
 64
     7
 65
   257
 75
     1
175
     1
 42
1.0
 92
        8
 66
     7
 43
1.0
 76
     1
 77
     6
 78
     2
 67
     7
 79
     5
170
     0
171
     0
290
     0
174
     0
 93
        1
 44
0.0
173
     0
291
     1
 45
0.0
1001
ACAD
1000
AcDbSavedByObjectVersion
1070
     0
1000
AcDbSavedByObjectVersion
1070
     0
  0
VISUALSTYLE
  5
FB
102
{ACAD_REACTORS
330
EF
102
}
330
EF
100
AcDbVisualStyle
  2
Brighten
 70
    12
 71
     2
 72
     2
 73
     1
 90
        0
 40
-0.6
 41
-30.0
 62
     5
 63
     7
 74
     1
 91
        4
 64
     7
 65
   257
 75
     1
175
     1
 42
1.0
 92
        8
 66
     7
 43
1.0
 76
     1
 77
     6
 78
     2
 67
     7
 79
     5
170
     0
171
     0
290
     0
174
     0
 93
        1
 44
50.0
173
     0
291
     1
 45
0.0
1001
ACAD
1000
AcDbSavedByObjectVersion
1070
     0
1000
AcDbSavedByObjectVersion
1070
     0
  0
VISUALSTYLE
  5
FF
102
{ACAD_REACTORS
330
EF
102
}
330
EF
100
AcDbVisualStyle
  2
ColorChange
 70
    16
 71
     2
 72
     2
 73
     3
 90
        0
 40
-0.6
 41
-30.0
 62
     5
 63
     8
 74
     1
 91
        4
 64
     7
 65
   257
 75
     1
175
     1
 42
1.0
 92
        8
 66
     8
 43
1.0
 76
     1
 77
     6
 78
     2
 67
     7
 79
     5
170
     0
171
     0
290
     0
174
     0
 93
        1
 44
0.0
173
     0
291
     1
 45
0.0
1001
ACAD
1000
AcDbSavedByObjectVersion
1070
     0
1000
AcDbSavedByObjectVersion
1070
     0
  0
VISUALSTYLE
  5
F8
102
{ACAD_REACTORS
330
EF
102
}
330
EF
100
AcDbVisualStyle
  2
Conceptual
 70
     9
 71
     3
 72
     2
 73
     1
 90
        0
 40
-0.6
 41
-30.0
 62
     5
 63
     7
 74
     2
 91
        2
 64
     7
 65
   257
 75
     1
175
     1
 42
40.0
 92
        8
 66
     7
 43
1.0
 76
     1
 77
     6
 78
     2
 67
     7
 79
     3
170
     0
171
     0
290
     0
174
     0
 93
        1
 44
0.0
173
     0
291
     0
 45
0.0
1001
ACAD
1000
AcDbSavedByObjectVersion
1070
     0
1000
AcDbSavedByObjectVersion
1070
     0
  0
VISUALSTYLE
  5
FA
102
{ACAD_REACTORS
330
EF
102
}
330
EF
100
AcDbVisualStyle
  2
Dim
 70
    11
 71
     2
 72
     2
 73
     1
 90
        0
 40
-0.6
 41
-30.0
 62
     5
 63
     7
 74
     1
 91
        4
 64
     7
 65
   257
 75
     1
175
     1
 42
1.0
 92
        8
 66
     7
 43
1.0
 76
     1
 77
     6
 78
     2
 67
     7
 79
     5
170
     0
171
     0
290
     0
174
     0
 93
        1
 44
-50.0
173
     0
291
     1
 45
0.0
1001
ACAD
1000
AcDbSavedByObjectVersion
1070
     0
1000
AcDbSavedByObjectVersion
1070
     0
  0
VISUALSTYLE
  5
FE
102
{ACAD_REACTORS
330
EF
102
}
330
EF
100
AcDbVisualStyle
  2
Facepattern
 70
    15
 71
     2
 72
     2
 73
     1
 90
        0
 40
-0.6
 41
-30.0
 62
     5
 63
     7
 74
     1
 91
        4
 64
     7
 65
   257
 75
     1
175
     1
 42
1.0
 92
        8
 66
     7
 43
1.0
 76
     1
 77
     6
 78
     2
 67
     7
 79
     5
170
     0
171
     0
290
     0
174
     0
 93
        1
 44
0.0
173
     0
291
     1
 45
0.0
1001
ACAD
1000
AcDbSavedByObjectVersion
1070
     0
1000
AcDbSavedByObjectVersion
1070
     0
  0
VISUALSTYLE
  5
F0
102
{ACAD_REACTORS
330
EF
102
}
330
EF
100
AcDbVisualStyle
  2
Flat
 70
     0
 71
     2
 72
     1
 73
     1
 90
        2
 40
-0.6
 41
30.0
 62
     5
 63
     7
 74
     0
 91
        4
 64
     7
 65
   257
 75
     1
175
     1
 42
1.0
 92
        8
 66
     7
 43
1.0
 76
     1
 77
     6
 78
     2
 67
     7
 79
     5
170
     0
171
     0
290
     0
174
     0
 93
        1
 44
0.0
173
     0
291
     1
 45
0.0
1001
ACAD
1000
AcDbSavedByObjectVersion
1070
     0
1000
AcDbSavedByObjectVersion
1070
     0
  0
VISUALSTYLE
  5
F1
102
{ACAD_REACTORS
330
EF
102
}
330
EF
100
AcDbVisualStyle
  2
FlatWithEdges
 70
     1
 71
     2
 72
     1
 73
     1
 90
        2
 40
-0.6
 41
30.0
 62
     5
 63
     7
 74
     1
 91
        4
 64
     7
 65
   257
 75
     1
175
     1
 42
1.0
 92
        0
 66
   257
 43
1.0
 76
     1
 77
     6
 78
     2
 67
     7
 79
     5
170
     0
171
     0
290
     0
174
     0
 93
        1
 44
0.0
173
     0
291
     1
 45
0.0
1001
ACAD
1000
AcDbSavedByObjectVersion
1070
     0
1000
AcDbSavedByObjectVersion
1070
     0
  0
VISUALSTYLE
  5
F2
102
{ACAD_REACTORS
330
EF
102
}
330
EF
100
AcDbVisualStyle
  2
Gouraud
 70
     2
 71
     2
 72
     2
 73
     1
 90
        2
 40
-0.6
 41
30.0
 62
     5
 63
     7
 74
     0
 91
        4
 64
     7
 65
   257
 75
     1
175
     1
 42
1.0
 92
        0
 66
     7
 43
1.0
 76
     1
 77
     6
 78
     2
 67
     7
 79
     5
170
     0
171
     0
290
     0
174
     0
 93
        1
 44
0.0
173
     0
291
     1
 45
0.0
1001
ACAD
1000
AcDbSavedByObjectVersion
1070
     0
1000
AcDbSavedByObjectVersion
1070
     0
  0
VISUALSTYLE
  5
F3
102
{ACAD_REACTORS
330
EF
102
}
330
EF
100
AcDbVisualStyle
  2
GouraudWithEdges
 70
     3
 71
     2
 72
     2
 73
     1
 90
        2
 40
-0.6
 41
30.0
 62
     5
 63
     7
 74
     1
 91
        4
 64
     7
 65
   257
 75
     1
175
     1
 42
1.0
 92
        0
 66
   257
 43
1.0
 76
     1
 77
     6
 78
     2
 67
     7
 79
     5
170
     0
171
     0
290
     0
174
     0
 93
        1
 44
0.0
173
     0
291
     1
 45
0.0
1001
ACAD
1000
AcDbSavedByObjectVersion
1070
     0
1000
AcDbSavedByObjectVersion
1070
     0
  0
VISUALSTYLE
  5
FD
102
{ACAD_REACTORS
330
EF
102
}
330
EF
100
AcDbVisualStyle
  2
Linepattern
 70
    14
 71
     2
 72
     2
 73
     1
 90
        0
 40
-0.6
 41
-30.0
 62
     5
 63
     7
 74
     1
 91
        4
 64
     7
 65
   257
 75
     7
175
     7
 42
1.0
 92
        8
 66
     7
 43
1.0
 76
     1
 77
     6
 78
     2
 67
     7
 79
     5
170
     0
171
     0
290
     0
174
     0
 93
        1
 44
0.0
173
     0
291
     1
 45
0.0
1001
ACAD
1000
AcDbSavedByObjectVersion
1070
     0
1000
AcDbSavedByObjectVersion
1070
     0
  0
VISUALSTYLE
  5
F9
102
{ACAD_REACTORS
330
EF
102
}
330
EF
100
AcDbVisualStyle
  2
Realistic
 70
     8
 71
     2
 72
     2
 73
     1
 90
        0
 40
-0.6
 41
-30.0
 62
     5
 63
     7
 74
     1
 91
        0
 64
     7
 65
   257
 75
     1
175
     1
 42
1.0
 92
        8
 66
     8
 43
1.0
 76
     1
 77
     6
 78
     2
 67
     7
 79
     5
170
     0
171
     0
290
     0
174
     0
 93
       13
 44
0.0
173
     0
291
     0
 45
0.0
1001
ACAD
1000
AcDbSavedByObjectVersion
1070
     0
1000
AcDbSavedByObjectVersion
1070
     0
  0
VISUALSTYLE
  5
FC
102
{ACAD_REACTORS
330
EF
102
}
330
EF
100
AcDbVisualStyle
  2
Thicken
 70
    13
 71
     2
 72
     2
 73
     1
 90
        0
 40
-0.6
 41
-30.0
 62
     5
 63
     7
 74
     1
 91
        4
 64
     7
 65
   257
 75
     1
175
     1
 42
1.0
 92
       12
 66
     7
 43
1.0
 76
     1
 77
     6
 78
     2
 67
     7
 79
     5
170
     0
171
     0
290
     0
174
     0
 93
        1
 44
0.0
173
     0
291
     1
 45
0.0
1001
ACAD
1000
AcDbSavedByObjectVersion
1070
     0
1000
AcDbSavedByObjectVersion
1070
     0
  0
DICTIONARYVAR
  5
146
102
{ACAD_REACTORS
330
5E
102
}
330
5E
100
DictionaryVariables
280
     0
  1
1:1
  0
DICTIONARYVAR
  5
145
102
{ACAD_REACTORS
330
5E
102
}
330
5E
100
DictionaryVariables
280
     0
  1
STANDARD
  0
DICTIONARYVAR
  5
84
102
{ACAD_REACTORS
330
5E
102
}
330
5E
100
DictionaryVariables
280
     0
  1
STANDARD
  0
DICTIONARYVAR
  5
5F
102
{ACAD_REACTORS
330
5E
102
}
330
5E
100
DictionaryVariables
280
     0
  1
2
  0
DICTIONARYVAR
  5
63
102
{ACAD_REACTORS
330
5E
102
}
330
5E
100
DictionaryVariables
280
     0
  1
1
  0
DICTIONARYVAR
  5
1357
102
{ACAD_REACTORS
330
5E
102
}
330
5E
100
DictionaryVariables
280
     0
  1
0
  0
DICTIONARYVAR
  5
1355
102
{ACAD_REACTORS
330
5E
102
}
330
5E
100
DictionaryVariables
280
     0
  1
2
  0
DICTIONARYVAR
  5
1354
102
{ACAD_REACTORS
330
5E
102
}
330
5E
100
DictionaryVariables
280
     0
  1
1
  0
DICTIONARYVAR
  5
14BA
102
{ACAD_REACTORS
330
5E
102
}
330
5E
100
DictionaryVariables
280
     0
  1
80.000000
  0
DICTIONARYVAR
  5
14B9
102
{ACAD_REACTORS
330
5E
102
}
330
5E
100
DictionaryVariables
280
     0
  1
5.000000
  0
DICTIONARYVAR
  5
1356
102
{ACAD_REACTORS
330
5E
102
}
330
5E
100
DictionaryVariables
280
     0
  1
127
  0
DICTIONARY
  5
14C2
330
D3
100
AcDbDictionary
280
     1
281
     1
  3
ACAD_XREC_ROUNDTRIP
360
14C3
  0
DICTIONARY
  5
14C4
330
D7
100
AcDbDictionary
280
     1
281
     1
  3
ACAD_XREC_ROUNDTRIP
360
14C5
  0
DICTIONARY
  5
14BF
330
22
100
AcDbDictionary
280
     1
281
     1
  3
ACAD_XREC_ROUNDTRIP
360
14C0
  0
DICTIONARY
  5
1498
330
ED
100
AcDbDictionary
280
     1
281
     1
  3
ACAD_XREC_ROUNDTRIP
360
1499
  0
DICTIONARY
  5
1496
330
EC
100
AcDbDictionary
280
     1
281
     1
  3
ACAD_XREC_ROUNDTRIP
360
1497
  0
DICTIONARY
  5
173
330
EE
100
AcDbDictionary
280
     1
281
     1
  3
ACAD_XREC_ROUNDTRIP
360
149A
  3
BUMPTILE
360
175
  3
DIFFUSETILE
360
174
  3
OPACITYTILE
360
176
  3
REFLECTIONTILE
360
177
  0
DICTIONARY
  5
162
330
7F
100
AcDbDictionary
280
     1
281
     1
  3
ACAD_ROUNDTRIP_2008_TABLESTYLE_CELLSTYLEMAP
360
14BB
  3
ACAD_XREC_ROUNDTRIP
360
14C1
  0
XRECORD
  5
14C3
102
{ACAD_REACTORS
330
14C2
102
}
330
14C2
100
AcDbXrecord
280
     1
102
SHADEPLOT
 70
     0
102
SHADEPLOTRESLEVEL
 70
     2
102
SHADEPLOTCUSTOMDPI
 70
   300
  0
XRECORD
  5
14C5
102
{ACAD_REACTORS
330
14C4
102
}
330
14C4
100
AcDbXrecord
280
     1
102
SHADEPLOT
 70
     0
102
SHADEPLOTRESLEVEL
 70
     2
102
SHADEPLOTCUSTOMDPI
 70
   300
  0
XRECORD
  5
14C0
102
{ACAD_REACTORS
330
14BF
102
}
330
14BF
100
AcDbXrecord
280
     1
102
SHADEPLOT
 70
     0
102
SHADEPLOTRESLEVEL
 70
     2
102
SHADEPLOTCUSTOMDPI
 70
   300
  0
XRECORD
  5
1499
102
{ACAD_REACTORS
330
1498
102
}
330
1498
100
AcDbXrecord
280
     1
102
MATERIAL
148
0.0
149
0.0
149
0.0
 93
        0
 94
      127
282
     0
 72
     1
 77
     1
171
     1
175
     1
179
     1
273
     0
  0
XRECORD
  5
1497
102
{ACAD_REACTORS
330
1496
102
}
330
1496
100
AcDbXrecord
280
     1
102
MATERIAL
148
0.0
149
0.0
149
0.0
 93
        0
 94
      127
282
     0
 72
     1
 77
     1
171
     1
175
     1
179
     1
273
     0
  0
XRECORD
  5
149A
102
{ACAD_REACTORS
330
173
102
}
330
173
100
AcDbXrecord
280
     1
102
MATERIAL
148
0.0
149
0.0
149
0.0
 93
        0
 94
      127
282
     0
 72
     1
 77
     1
171
     1
175
     1
179
     1
273
     0
  0
XRECORD
  5
175
102
{ACAD_REACTORS
330
173
102
}
330
173
100
AcDbXrecord
280
     1
270
     1
271
     1
  0
XRECORD
  5
174
102
{ACAD_REACTORS
330
173
102
}
330
173
100
AcDbXrecord
280
     1
270
     1
271
     1
  0
XRECORD
  5
176
102
{ACAD_REACTORS
330
173
102
}
330
173
100
AcDbXrecord
280
     1
270
     1
271
     1
  0
XRECORD
  5
177
102
{ACAD_REACTORS
330
173
102
}
330
173
100
AcDbXrecord
280
     1
270
     1
271
     1
  0
CELLSTYLEMAP
  5
14BB
102
{ACAD_REACTORS
330
162
102
}
330
162
100
AcDbCellStyleMap
 90
        3
300
CELLSTYLE
  1
TABLEFORMAT_BEGIN
 90
        5
170
     1
 91
        0
 92
    32768
 62
   257
 93
        1
300
CONTENTFORMAT
  1
CONTENTFORMAT_BEGIN
 90
        0
 91
        0
 92
      512
 93
        0
300

 40
0.0
140
1.0
 94
        5
 62
     0
340
11
144
6.0
309
CONTENTFORMAT_END
171
     1
301
MARGIN
  1
CELLMARGIN_BEGIN
 40
1.5
 40
1.5
 40
1.5
 40
1.5
 40
0.18
 40
0.18
309
CELLMARGIN_END
 94
        6
 95
        1
302
GRIDFORMAT
  1
GRIDFORMAT_BEGIN
 90
        0
 91
        1
 62
     0
 92
       -2
340
14
 93
        0
 40
1.125
309
GRIDFORMAT_END
 95
        2
302
GRIDFORMAT
  1
GRIDFORMAT_BEGIN
 90
        0
 91
        1
 62
     0
 92
       -2
340
14
 93
        0
 40
1.125
309
GRIDFORMAT_END
 95
        4
302
GRIDFORMAT
  1
GRIDFORMAT_BEGIN
 90
        0
 91
        1
 62
     0
 92
       -2
340
14
 93
        0
 40
1.125
309
GRIDFORMAT_END
 95
        8
302
GRIDFORMAT
  1
GRIDFORMAT_BEGIN
 90
        0
 91
        1
 62
     0
 92
       -2
340
14
 93
        0
 40
1.125
309
GRIDFORMAT_END
 95
       16
302
GRIDFORMAT
  1
GRIDFORMAT_BEGIN
 90
        0
 91
        1
 62
     0
 92
       -2
340
14
 93
        0
 40
1.125
309
GRIDFORMAT_END
 95
       32
302
GRIDFORMAT
  1
GRIDFORMAT_BEGIN
 90
        0
 91
        1
 62
     0
 92
       -2
340
14
 93
        0
 40
1.125
309
GRIDFORMAT_END
309
TABLEFORMAT_END
  1
CELLSTYLE_BEGIN
 90
        1
 91
        1
300
_TITLE
309
CELLSTYLE_END
300
CELLSTYLE
  1
TABLEFORMAT_BEGIN
 90
        5
170
     1
 91
        0
 92
        0
 62
   257
 93
        1
300
CONTENTFORMAT
  1
CONTENTFORMAT_BEGIN
 90
        0
 91
        0
 92
      512
 93
        0
300

 40
0.0
140
1.0
 94
        5
 62
     0
340
11
144
4.5
309
CONTENTFORMAT_END
171
     1
301
MARGIN
  1
CELLMARGIN_BEGIN
 40
1.5
 40
1.5
 40
1.5
 40
1.5
 40
0.18
 40
0.18
309
CELLMARGIN_END
 94
        6
 95
        1
302
GRIDFORMAT
  1
GRIDFORMAT_BEGIN
 90
        0
 91
        1
 62
     0
 92
       -2
340
14
 93
        0
 40
1.125
309
GRIDFORMAT_END
 95
        2
302
GRIDFORMAT
  1
GRIDFORMAT_BEGIN
 90
        0
 91
        1
 62
     0
 92
       -2
340
14
 93
        0
 40
1.125
309
GRIDFORMAT_END
 95
        4
302
GRIDFORMAT
  1
GRIDFORMAT_BEGIN
 90
        0
 91
        1
 62
     0
 92
       -2
340
14
 93
        0
 40
1.125
309
GRIDFORMAT_END
 95
        8
302
GRIDFORMAT
  1
GRIDFORMAT_BEGIN
 90
        0
 91
        1
 62
     0
 92
       -2
340
14
 93
        0
 40
1.125
309
GRIDFORMAT_END
 95
       16
302
GRIDFORMAT
  1
GRIDFORMAT_BEGIN
 90
        0
 91
        1
 62
     0
 92
       -2
340
14
 93
        0
 40
1.125
309
GRIDFORMAT_END
 95
       32
302
GRIDFORMAT
  1
GRIDFORMAT_BEGIN
 90
        0
 91
        1
 62
     0
 92
       -2
340
14
 93
        0
 40
1.125
309
GRIDFORMAT_END
309
TABLEFORMAT_END
  1
CELLSTYLE_BEGIN
 90
        2
 91
        1
300
_HEADER
309
CELLSTYLE_END
300
CELLSTYLE
  1
TABLEFORMAT_BEGIN
 90
        5
170
     1
 91
        0
 92
        0
 62
   257
 93
        1
300
CONTENTFORMAT
  1
CONTENTFORMAT_BEGIN
 90
        0
 91
        0
 92
      512
 93
        0
300

 40
0.0
140
1.0
 94
        2
 62
     0
340
11
144
4.5
309
CONTENTFORMAT_END
171
     1
301
MARGIN
  1
CELLMARGIN_BEGIN
 40
1.5
 40
1.5
 40
1.5
 40
1.5
 40
0.18
 40
0.18
309
CELLMARGIN_END
 94
        6
 95
        1
302
GRIDFORMAT
  1
GRIDFORMAT_BEGIN
 90
        0
 91
        1
 62
     0
 92
       -2
340
14
 93
        0
 40
1.125
309
GRIDFORMAT_END
 95
        2
302
GRIDFORMAT
  1
GRIDFORMAT_BEGIN
 90
        0
 91
        1
 62
     0
 92
       -2
340
14
 93
        0
 40
1.125
309
GRIDFORMAT_END
 95
        4
302
GRIDFORMAT
  1
GRIDFORMAT_BEGIN
 90
        0
 91
        1
 62
     0
 92
       -2
340
14
 93
        0
 40
1.125
309
GRIDFORMAT_END
 95
        8
302
GRIDFORMAT
  1
GRIDFORMAT_BEGIN
 90
        0
 91
        1
 62
     0
 92
       -2
340
14
 93
        0
 40
1.125
309
GRIDFORMAT_END
 95
       16
302
GRIDFORMAT
  1
GRIDFORMAT_BEGIN
 90
        0
 91
        1
 62
     0
 92
       -2
340
14
 93
        0
 40
1.125
309
GRIDFORMAT_END
 95
       32
302
GRIDFORMAT
  1
GRIDFORMAT_BEGIN
 90
        0
 91
        1
 62
     0
 92
       -2
340
14
 93
        0
 40
1.125
309
GRIDFORMAT_END
309
TABLEFORMAT_END
  1
CELLSTYLE_BEGIN
 90
        3
 91
        2
300
_DATA
309
CELLSTYLE_END
  0
XRECORD
  5
14C1
102
{ACAD_REACTORS
330
162
102
}
330
162
100
AcDbXrecord
280
     1
102
ACAD_ROUNDTRIP_PRE2007_TABLESTYLE
 90
      512
 91
        0
  1

 92
      512
 93
        0
  2

 94
      512
 95
        0
  3

  0
ENDSEC
  0
EOF
