  0
SECTION
  2
HEADER
  9
$ACADVER
  1
AC1015
  9
$ACADMAINTVER
 70
    20
  9
$DWGCODEPAGE
  3
ANSI_1252
  9
$INSBASE
 10
0.0
 20
0.0
 30
0.0
  9
$EXTMIN
 10
-6411.384978391971
 20
-4229.729831915479
 30
0.0
  9
$EXTMAX
 10
47212.89084861006
 20
20693.88322789849
 30
0.0
  9
$LIMMIN
 10
0.0
 20
0.0
  9
$LIMMAX
 10
420.0
 20
297.0
  9
$ORTHOMODE
 70
     0
  9
$REGENMODE
 70
     1
  9
$FILLMODE
 70
     1
  9
$QTEXTMODE
 70
     0
  9
$MIRRTEXT
 70
     0
  9
$LTSCALE
 40
1.0
  9
$ATTMODE
 70
     1
  9
$TEXTSIZE
 40
2.5
  9
$TRACEWID
 40
1.0
  9
$TEXTSTYLE
  7
Standard
  9
$CLAYER
  8
0
  9
$CELTYPE
  6
ByLayer
  9
$CECOLOR
 62
   256
  9
$CELTSCALE
 40
1.0
  9
$DISPSILH
 70
     0
  9
$DIMSCALE
 40
1.0
  9
$DIMASZ
 40
2.5
  9
$DIMEXO
 40
0.625
  9
$DIMDLI
 40
3.75
  9
$DIMRND
 40
0.0
  9
$DIMDLE
 40
0.0
  9
$DIMEXE
 40
1.25
  9
$DIMTP
 40
0.0
  9
$DIMTM
 40
0.0
  9
$DIMTXT
 40
2.5
  9
$DIMCEN
 40
2.5
  9
$DIMTSZ
 40
0.0
  9
$DIMTOL
 70
     0
  9
$DIMLIM
 70
     0
  9
$DIMTIH
 70
     0
  9
$DIMTOH
 70
     0
  9
$DIMSE1
 70
     0
  9
$DIMSE2
 70
     0
  9
$DIMTAD
 70
     1
  9
$DIMZIN
 70
     8
  9
$DIMBLK
  1

  9
$DIMASO
 70
     1
  9
$DIMSHO
 70
     1
  9
$DIMPOST
  1

  9
$DIMAPOST
  1

  9
$DIMALT
 70
     0
  9
$DIMALTD
 70
     3
  9
$DIMALTF
 40
0.03937007874016
  9
$DIMLFAC
 40
1.0
  9
$DIMTOFL
 70
     1
  9
$DIMTVP
 40
0.0
  9
$DIMTIX
 70
     0
  9
$DIMSOXD
 70
     0
  9
$DIMSAH
 70
     0
  9
$DIMBLK1
  1

  9
$DIMBLK2
  1

  9
$DIMSTYLE
  2
ISO-25
  9
$DIMCLRD
 70
     0
  9
$DIMCLRE
 70
     0
  9
$DIMCLRT
 70
     0
  9
$DIMTFAC
 40
1.0
  9
$DIMGAP
 40
0.625
  9
$DIMJUST
 70
     0
  9
$DIMSD1
 70
     0
  9
$DIMSD2
 70
     0
  9
$DIMTOLJ
 70
     0
  9
$DIMTZIN
 70
     8
  9
$DIMALTZ
 70
     0
  9
$DIMALTTZ
 70
     0
  9
$DIMUPT
 70
     0
  9
$DIMDEC
 70
     2
  9
$DIMTDEC
 70
     2
  9
$DIMALTU
 70
     2
  9
$DIMALTTD
 70
     3
  9
$DIMTXSTY
  7
Standard
  9
$DIMAUNIT
 70
     0
  9
$DIMADEC
 70
     0
  9
$DIMALTRND
 40
0.0
  9
$DIMAZIN
 70
     0
  9
$DIMDSEP
 70
    44
  9
$DIMATFIT
 70
     3
  9
$DIMFRAC
 70
     0
  9
$DIMLDRBLK
  1

  9
$DIMLUNIT
 70
     2
  9
$DIMLWD
 70
    -2
  9
$DIMLWE
 70
    -2
  9
$DIMTMOVE
 70
     0
  9
$LUNITS
 70
     2
  9
$LUPREC
 70
     4
  9
$SKETCHINC
 40
1.0
  9
$FILLETRAD
 40
0.0
  9
$AUNITS
 70
     0
  9
$AUPREC
 70
     0
  9
$MENU
  1
.
  9
$ELEVATION
 40
0.0
  9
$PELEVATION
 40
0.0
  9
$THICKNESS
 40
0.0
  9
$LIMCHECK
 70
     0
  9
$CHAMFERA
 40
0.0
  9
$CHAMFERB
 40
0.0
  9
$CHAMFERC
 40
0.0
  9
$CHAMFERD
 40
0.0
  9
$SKPOLY
 70
     0
  9
$TDCREATE
 40
2454525.590090787
  9
$TDUCREATE
 40
2454525.548424121
  9
$TDUPDATE
 40
2454551.714969132
  9
$TDUUPDATE
 40
2454551.673302465
  9
$TDINDWG
 40
0.3531535880
  9
$TDUSRTIMER
 40
0.3531528819
  9
$USRTIMER
 70
     1
  9
$ANGBASE
 50
0.0
  9
$ANGDIR
 70
     0
  9
$PDMODE
 70
     0
  9
$PDSIZE
 40
0.0
  9
$PLINEWID
 40
0.0
  9
$SPLFRAME
 70
     0
  9
$SPLINETYPE
 70
     6
  9
$SPLINESEGS
 70
     8
  9
$HANDSEED
  5
166A
  9
$SURFTAB1
 70
     6
  9
$SURFTAB2
 70
     6
  9
$SURFTYPE
 70
     6
  9
$SURFU
 70
     6
  9
$SURFV
 70
     6
  9
$UCSBASE
  2

  9
$UCSNAME
  2

  9
$UCSORG
 10
0.0
 20
0.0
 30
0.0
  9
$UCSXDIR
 10
1.0
 20
0.0
 30
0.0
  9
$UCSYDIR
 10
0.0
 20
1.0
 30
0.0
  9
$UCSORTHOREF
  2

  9
$UCSORTHOVIEW
 70
     0
  9
$UCSORGTOP
 10
0.0
 20
0.0
 30
0.0
  9
$UCSORGBOTTOM
 10
0.0
 20
0.0
 30
0.0
  9
$UCSORGLEFT
 10
0.0
 20
0.0
 30
0.0
  9
$UCSORGRIGHT
 10
0.0
 20
0.0
 30
0.0
  9
$UCSORGFRONT
 10
0.0
 20
0.0
 30
0.0
  9
$UCSORGBACK
 10
0.0
 20
0.0
 30
0.0
  9
$PUCSBASE
  2

  9
$PUCSNAME
  2

  9
$PUCSORG
 10
0.0
 20
0.0
 30
0.0
  9
$PUCSXDIR
 10
1.0
 20
0.0
 30
0.0
  9
$PUCSYDIR
 10
0.0
 20
1.0
 30
0.0
  9
$PUCSORTHOREF
  2

  9
$PUCSORTHOVIEW
 70
     0
  9
$PUCSORGTOP
 10
0.0
 20
0.0
 30
0.0
  9
$PUCSORGBOTTOM
 10
0.0
 20
0.0
 30
0.0
  9
$PUCSORGLEFT
 10
0.0
 20
0.0
 30
0.0
  9
$PUCSORGRIGHT
 10
0.0
 20
0.0
 30
0.0
  9
$PUCSORGFRONT
 10
0.0
 20
0.0
 30
0.0
  9
$PUCSORGBACK
 10
0.0
 20
0.0
 30
0.0
  9
$USERI1
 70
     0
  9
$USERI2
 70
     0
  9
$USERI3
 70
     0
  9
$USERI4
 70
     0
  9
$USERI5
 70
     0
  9
$USERR1
 40
0.0
  9
$USERR2
 40
0.0
  9
$USERR3
 40
0.0
  9
$USERR4
 40
0.0
  9
$USERR5
 40
0.0
  9
$WORLDVIEW
 70
     1
  9
$SHADEDGE
 70
     3
  9
$SHADEDIF
 70
    70
  9
$TILEMODE
 70
     1
  9
$MAXACTVP
 70
    64
  9
$PINSBASE
 10
0.0
 20
0.0
 30
0.0
  9
$PLIMCHECK
 70
     0
  9
$PEXTMIN
 10
0.0
 20
0.0
 30
0.0
  9
$PEXTMAX
 10
0.0
 20
0.0
 30
0.0
  9
$PLIMMIN
 10
0.0
 20
0.0
  9
$PLIMMAX
 10
12.0
 20
9.0
  9
$UNITMODE
 70
     0
  9
$VISRETAIN
 70
     1
  9
$PLINEGEN
 70
     0
  9
$PSLTSCALE
 70
     1
  9
$TREEDEPTH
 70
  3020
  9
$CMLSTYLE
  2
Standard
  9
$CMLJUST
 70
     0
  9
$CMLSCALE
 40
20.0
  9
$PROXYGRAPHICS
 70
     1
  9
$MEASUREMENT
 70
     1
  9
$CELWEIGHT
370
    -1
  9
$ENDCAPS
280
     0
  9
$JOINSTYLE
280
     0
  9
$LWDISPLAY
290
     0
  9
$INSUNITS
 70
     4
  9
$HYPERLINKBASE
  1

  9
$STYLESHEET
  1

  9
$XEDIT
290
     1
  9
$CEPSNTYPE
380
     0
  9
$PSTYLEMODE
290
     1
  9
$FINGERPRINTGUID
  2
{90462D31-D685-45AB-98C7-B299552AC70F}
  9
$VERSIONGUID
  2
{3452B070-C826-468C-9909-D0750AF3CE36}
  9
$EXTNAMES
290
     1
  9
$PSVPSCALE
 40
0.0
  9
$OLESTARTUP
290
     0
  0
ENDSEC
  0
SECTION
  2
CLASSES
  0
CLASS
  1
ACDBDICTIONARYWDFLT
  2
AcDbDictionaryWithDefault
  3
ObjectDBX Classes
 90
        0
280
     0
281
     0
  0
CLASS
  1
ACDBPLACEHOLDER
  2
AcDbPlaceHolder
  3
ObjectDBX Classes
 90
        0
280
     0
281
     0
  0
CLASS
  1
LAYOUT
  2
AcDbLayout
  3
ObjectDBX Classes
 90
        0
280
     0
281
     0
  0
CLASS
  1
DICTIONARYVAR
  2
AcDbDictionaryVar
  3
ObjectDBX Classes
 90
        0
280
     0
281
     0
  0
CLASS
  1
TABLESTYLE
  2
AcDbTableStyle
  3
ObjectDBX Classes
 90
     4095
280
     0
281
     0
  0
CLASS
  1
MATERIAL
  2
AcDbMaterial
  3
ObjectDBX Classes
 90
     1153
280
     0
281
     0
  0
CLASS
  1
VISUALSTYLE
  2
AcDbVisualStyle
  3
ObjectDBX Classes
 90
     4095
280
     0
281
     0
  0
CLASS
  1
SCALE
  2
AcDbScale
  3
ObjectDBX Classes
 90
     1153
280
     0
281
     0
  0
CLASS
  1
MLEADERSTYLE
  2
AcDbMLeaderStyle
  3
ACDB_MLEADERSTYLE_CLASS
 90
     4095
280
     0
281
     0
  0
CLASS
  1
CELLSTYLEMAP
  2
AcDbCellStyleMap
  3
ObjectDBX Classes
 90
     1152
280
     0
281
     0
  0
CLASS
  1
SORTENTSTABLE
  2
AcDbSortentsTable
  3
ObjectDBX Classes
 90
        0
280
     0
281
     0
  0
CLASS
  1
DIMASSOC
  2
AcDbDimAssoc
  3
"AcDbDimAssoc|Product Desc:     AcDim ARX App For Dimension|Company:          Autodesk, Inc.|WEB Address:      www.autodesk.com"
 90
        0
280
     0
281
     0
  0
CLASS
  1
IMAGE
  2
AcDbRasterImage
  3
ISM
 90
     2175
280
     0
281
     1
  0
CLASS
  1
IMAGEDEF_REACTOR
  2
AcDbRasterImageDefReactor
  3
ISM
 90
        1
280
     0
281
     0
  0
CLASS
  1
IMAGEDEF
  2
AcDbRasterImageDef
  3
ISM
 90
        0
280
     0
281
     0
  0
CLASS
  1
RASTERVARIABLES
  2
AcDbRasterVariables
  3
ISM
 90
        0
280
     0
281
     0
  0
ENDSEC
  0
SECTION
  2
TABLES
  0
TABLE
  2
VPORT
  5
8
330
0
100
AcDbSymbolTable
 70
     1
  0
VPORT
  5
EA
330
8
100
AcDbSymbolTableRecord
100
AcDbViewportTableRecord
  2
*Active
 70
     0
 10
0.0
 20
0.0
 11
1.0
 21
1.0
 12
-1807.05498016932
 22
-2791.906747637499
 13
0.0
 23
0.0
 14
10.0
 24
10.0
 15
10.0
 25
10.0
 16
0.0
 26
0.0
 36
1.0
 17
0.0
 27
0.0
 37
0.0
 40
54833.66051142056
 41
1.508771929824561
 42
50.0
 43
0.0
 44
0.0
 50
0.0
 51
0.0
 71
     0
 72
  1000
 73
     1
 74
     3
 75
     0
 76
     0
 77
     0
 78
     0
281
     0
 65
     1
110
0.0
120
0.0
130
0.0
111
1.0
121
0.0
131
0.0
112
0.0
122
1.0
132
0.0
 79
     0
146
0.0
  0
ENDTAB
  0
TABLE
  2
LTYPE
  5
5
330
0
100
AcDbSymbolTable
 70
     3
  0
LTYPE
  5
14
330
5
100
AcDbSymbolTableRecord
100
AcDbLinetypeTableRecord
  2
ByBlock
 70
     0
  3

 72
    65
 73
     0
 40
0.0
  0
LTYPE
  5
15
330
5
100
AcDbSymbolTableRecord
100
AcDbLinetypeTableRecord
  2
ByLayer
 70
     0
  3

 72
    65
 73
     0
 40
0.0
  0
LTYPE
  5
16
330
5
100
AcDbSymbolTableRecord
100
AcDbLinetypeTableRecord
  2
Continuous
 70
     0
  3
Solid line
 72
    65
 73
     0
 40
0.0
  0
LTYPE
  5
11B6
330
5
100
AcDbSymbolTableRecord
100
AcDbLinetypeTableRecord
  2
ACAD_ISO03W100
 70
     0
  3
ISO dash space __    __    __    __    __    __
 72
    65
 73
     2
 40
30.0
 49
12.0
 74
     0
 49
-18.0
 74
     0
  0
ENDTAB
  0
TABLE
  2
LAYER
  5
2
330
0
100
AcDbSymbolTable
 70
     2
  0
LAYER
  5
10
102
{ACAD_XDICTIONARY
360
13C
102
}
330
2
100
AcDbSymbolTableRecord
100
AcDbLayerTableRecord
  2
0
 70
     0
 62
     7
  6
Continuous
370
    -3
390
F
  0
LAYER
  5
317
330
2
100
AcDbSymbolTableRecord
100
AcDbLayerTableRecord
  2
Defpoints
 70
     0
 62
     7
  6
Continuous
290
     0
370
    -3
390
F
  0
ENDTAB
  0
TABLE
  2
STYLE
  5
3
330
0
100
AcDbSymbolTable
 70
     3
  0
STYLE
  5
11
330
3
100
AcDbSymbolTableRecord
100
AcDbTextStyleTableRecord
  2
Standard
 70
     0
 40
0.0
 41
1.0
 50
0.0
 71
     0
 42
2.5
  3
arial.ttf
  4

1001
ACAD
1000
Arial
1071
       34
  0
STYLE
  5
132
330
3
100
AcDbSymbolTableRecord
100
AcDbTextStyleTableRecord
  2
Annotative
 70
     0
 40
0.0
 41
1.0
 50
0.0
 71
     0
 42
2.5
  3
txt.shx
  4

1001
AcadAnnotative
1000
AnnotativeData
1002
{
1070
     1
1070
     1
1002
}
  0
STYLE
  5
11B5
330
3
100
AcDbSymbolTableRecord
100
AcDbTextStyleTableRecord
  2

 70
     1
 40
0.0
 41
1.0
 50
0.0
 71
     0
 42
2.5
  3
ltypeshp.shx
  4

  0
ENDTAB
  0
TABLE
  2
VIEW
  5
6
330
0
100
AcDbSymbolTable
 70
     0
  0
ENDTAB
  0
TABLE
  2
UCS
  5
7
330
0
100
AcDbSymbolTable
 70
     0
  0
ENDTAB
  0
TABLE
  2
APPID
  5
9
330
0
100
AcDbSymbolTable
 70
    10
  0
APPID
  5
12
330
9
100
AcDbSymbolTableRecord
100
AcDbRegAppTableRecord
  2
ACAD
 70
     0
  0
APPID
  5
9E
330
9
100
AcDbSymbolTableRecord
100
AcDbRegAppTableRecord
  2
ACAD_PSEXT
 70
     0
  0
APPID
  5
133
330
9
100
AcDbSymbolTableRecord
100
AcDbRegAppTableRecord
  2
AcadAnnoPO
 70
     0
  0
APPID
  5
134
330
9
100
AcDbSymbolTableRecord
100
AcDbRegAppTableRecord
  2
AcadAnnotative
 70
     0
  0
APPID
  5
135
330
9
100
AcDbSymbolTableRecord
100
AcDbRegAppTableRecord
  2
ACAD_DSTYLE_DIMJAG
 70
     0
  0
APPID
  5
136
330
9
100
AcDbSymbolTableRecord
100
AcDbRegAppTableRecord
  2
ACAD_DSTYLE_DIMTALN
 70
     0
  0
APPID
  5
165
330
9
100
AcDbSymbolTableRecord
100
AcDbRegAppTableRecord
  2
ACAD_MLEADERVER
 70
     0
  0
APPID
  5
1AF
330
9
100
AcDbSymbolTableRecord
100
AcDbRegAppTableRecord
  2
ACAD_EXEMPT_FROM_CAD_STANDARDS
 70
     0
  0
APPID
  5
B81
330
9
100
AcDbSymbolTableRecord
100
AcDbRegAppTableRecord
  2
ACAD_DSTYLE_DIMJOGGED_JOGANGLE_SYMBOL
 70
     0
  0
APPID
  5
1669
330
9
100
AcDbSymbolTableRecord
100
AcDbRegAppTableRecord
  2
ACAD_DSTYLE_DIMEXT_LENGTH
 70
     0
  0
ENDTAB
  0
TABLE
  2
DIMSTYLE
  5
A
330
0
100
AcDbSymbolTable
 70
     8
100
AcDbDimStyleTable
 71
     2
340
27
340
137
  0
DIMSTYLE
105
27
102
{ACAD_REACTORS
330
156A
330
1569
330
153F
330
151E
330
1540
102
}
330
A
100
AcDbSymbolTableRecord
100
AcDbDimStyleTableRecord
  2
ISO-25
 70
     0
 41
2.5
 42
0.625
 43
3.75
 44
1.25
 73
     0
 74
     0
 77
     1
 78
     8
140
2.5
141
2.5
143
0.03937007874016
147
0.625
171
     3
172
     1
271
     2
272
     2
274
     3
278
    44
283
     0
284
     8
340
11
  0
DIMSTYLE
105
137
330
A
100
AcDbSymbolTableRecord
100
AcDbDimStyleTableRecord
  2
Annotative
 70
     0
 40
0.0
 41
2.5
 42
0.625
 43
3.75
 44
1.25
 73
     0
 74
     0
 77
     1
 78
     8
140
2.5
141
2.5
143
0.03937007874016
147
0.625
171
     3
172
     1
271
     2
272
     2
274
     3
278
    44
283
     0
284
     8
340
11
1001
AcadAnnotative
1000
AnnotativeData
1002
{
1070
     1
1070
     1
1002
}
1001
ACAD_DSTYLE_DIMJAG
1070
   388
1040
1.5
1001
ACAD_DSTYLE_DIMTALN
1070
   392
1070
     0
  0
DIMSTYLE
105
B7F
330
A
100
AcDbSymbolTableRecord
100
AcDbDimStyleTableRecord
  2
coda-100
 70
     0
 41
2.5
 42
0.625
 43
5.0
 44
1.25
 73
     0
 74
     0
 77
     1
 78
     8
140
250.0
141
2.5
143
0.03937007874016
147
70.0
171
     3
172
     1
176
     4
177
     4
178
     1
271
     2
272
     2
274
     3
278
    44
283
     0
284
     8
340
11
341
338
342
338
372
    20
  0
DIMSTYLE
105
B80
330
A
100
AcDbSymbolTableRecord
100
AcDbDimStyleTableRecord
  2
coda-50
 70
     0
 40
50.0
 41
1.0
 42
1.0
 43
5.0
 44
1.25
 73
     0
 74
     0
 77
     1
 78
     8
140
2.0
141
1.0
143
0.03937007874016
147
0.5
171
     3
172
     1
176
     4
177
     4
178
     1
271
     2
272
     2
274
     3
278
    44
283
     0
284
     8
340
11
341
338
342
338
372
    20
1001
ACAD_DSTYLE_DIMJOGGED_JOGANGLE_SYMBOL
1070
   384
1040
0.7853981633974483
1001
ACAD_DSTYLE_DIMEXT_LENGTH
1070
   378
1040
1.25
  0
DIMSTYLE
105
132D
330
A
100
AcDbSymbolTableRecord
100
AcDbDimStyleTableRecord
  2
ISO-50
 70
     0
 41
2.5
 42
0.625
 43
3.75
 44
1.25
 73
     0
 74
     0
 77
     1
 78
     8
140
5.0
141
2.5
143
0.03937007874016
147
0.625
171
     3
172
     1
271
     2
272
     2
274
     3
278
    44
283
     0
284
     8
340
11
  0
DIMSTYLE
105
132E
330
A
100
AcDbSymbolTableRecord
100
AcDbDimStyleTableRecord
  2
Standard
 70
     0
340
11
  0
DIMSTYLE
105
132F
330
A
100
AcDbSymbolTableRecord
100
AcDbDimStyleTableRecord
  2
patch25
 70
     0
 40
50.0
 41
1.0
 42
1.0
 43
5.0
 44
1.25
 73
     0
 74
     0
 77
     1
 78
     8
140
1.0
141
1.0
143
0.03937007874016
147
0.5
171
     3
172
     1
176
     4
177
     4
178
     1
271
     2
272
     2
274
     3
278
    44
283
     0
284
     8
340
11
341
338
342
338
372
    20
  0
ENDTAB
  0
TABLE
  2
BLOCK_RECORD
  5
1
330
0
100
AcDbSymbolTable
 70
    67
  0
BLOCK_RECORD
  5
1F
102
{ACAD_XDICTIONARY
360
1CE
102
}
330
1
100
AcDbSymbolTableRecord
100
AcDbBlockTableRecord
  2
*Model_Space
340
22
  0
BLOCK_RECORD
  5
D2
330
1
100
AcDbSymbolTableRecord
100
AcDbBlockTableRecord
  2
*Paper_Space
340
D3
  0
BLOCK_RECORD
  5
D6
330
1
100
AcDbSymbolTableRecord
100
AcDbBlockTableRecord
  2
*Paper_Space0
340
D7
  0
BLOCK_RECORD
  5
318
330
1
100
AcDbSymbolTableRecord
100
AcDbBlockTableRecord
  2
*D1
340
0
  0
BLOCK_RECORD
  5
338
330
1
100
AcDbSymbolTableRecord
100
AcDbBlockTableRecord
  2
_ArchTick
340
0
102
{BLKREFS
331
724
331
725
331
72D
331
72E
331
76C
331
76D
331
7DF
331
7E0
331
7E8
331
7E9
331
80C
331
80D
331
815
331
816
331
81E
331
81F
331
827
331
828
331
854
331
855
331
866
331
867
331
86F
331
870
331
878
331
879
331
881
331
882
331
88A
331
88B
331
980
331
981
331
989
331
98A
331
A0C
331
A0D
331
A38
331
A39
331
A41
331
A42
331
A5C
331
A5D
331
A65
331
A66
331
A6E
331
A6F
331
A77
331
A78
331
D5C
331
D5D
331
D65
331
D66
331
D6E
331
D6F
331
D77
331
D78
331
F18
331
F19
331
F22
331
F23
331
F2B
331
F2C
331
F8A
331
F8B
331
F93
331
F94
331
FA6
331
FA7
331
FC2
331
FC3
331
FCC
331
FCD
331
1168
331
1169
331
1171
331
1172
331
12AC
331
12AD
331
12B5
331
12B6
331
12BE
331
12BF
331
12C7
331
12C8
331
12D0
331
12D1
331
12E2
331
12E3
331
12FB
331
12FC
331
1304
331
1305
331
130E
331
130F
331
1317
331
1318
331
13FF
331
1400
331
1423
331
1424
331
142C
331
142D
331
1435
331
1436
331
1446
331
1447
331
1459
331
145A
331
1465
331
1466
331
1471
331
1472
331
147D
331
147E
331
1489
331
148A
331
160D
331
160E
331
1616
331
1617
331
161F
331
1620
331
164C
331
164D
331
1655
331
1656
102
}
  0
BLOCK_RECORD
  5
3D8
330
1
100
AcDbSymbolTableRecord
100
AcDbBlockTableRecord
  2
*D3
340
0
  0
BLOCK_RECORD
  5
3F0
330
1
100
AcDbSymbolTableRecord
100
AcDbBlockTableRecord
  2
*D4
340
0
  0
BLOCK_RECORD
  5
408
330
1
100
AcDbSymbolTableRecord
100
AcDbBlockTableRecord
  2
*D5
340
0
  0
BLOCK_RECORD
  5
487
330
1
100
AcDbSymbolTableRecord
100
AcDbBlockTableRecord
  2
*D6
340
0
  0
BLOCK_RECORD
  5
4C9
330
1
100
AcDbSymbolTableRecord
100
AcDbBlockTableRecord
  2
*D7
340
0
  0
BLOCK_RECORD
  5
4EC
330
1
100
AcDbSymbolTableRecord
100
AcDbBlockTableRecord
  2
*D8
340
0
  0
BLOCK_RECORD
  5
560
330
1
100
AcDbSymbolTableRecord
100
AcDbBlockTableRecord
  2
*D9
340
0
  0
BLOCK_RECORD
  5
59A
330
1
100
AcDbSymbolTableRecord
100
AcDbBlockTableRecord
  2
*D10
340
0
  0
BLOCK_RECORD
  5
5B2
330
1
100
AcDbSymbolTableRecord
100
AcDbBlockTableRecord
  2
*D11
340
0
  0
BLOCK_RECORD
  5
5CB
330
1
100
AcDbSymbolTableRecord
100
AcDbBlockTableRecord
  2
*D12
340
0
  0
BLOCK_RECORD
  5
635
330
1
100
AcDbSymbolTableRecord
100
AcDbBlockTableRecord
  2
*D13
340
0
  0
BLOCK_RECORD
  5
64D
330
1
100
AcDbSymbolTableRecord
100
AcDbBlockTableRecord
  2
*D14
340
0
  0
BLOCK_RECORD
  5
663
330
1
100
AcDbSymbolTableRecord
100
AcDbBlockTableRecord
  2
*D15
340
0
  0
BLOCK_RECORD
  5
67B
330
1
100
AcDbSymbolTableRecord
100
AcDbBlockTableRecord
  2
*D16
340
0
  0
BLOCK_RECORD
  5
6EF
330
1
100
AcDbSymbolTableRecord
100
AcDbBlockTableRecord
  2
*D17
340
0
  0
BLOCK_RECORD
  5
773
330
1
100
AcDbSymbolTableRecord
100
AcDbBlockTableRecord
  2
*D18
340
0
  0
BLOCK_RECORD
  5
78B
330
1
100
AcDbSymbolTableRecord
100
AcDbBlockTableRecord
  2
*D19
340
0
  0
BLOCK_RECORD
  5
8BA
330
1
100
AcDbSymbolTableRecord
100
AcDbBlockTableRecord
  2
*D20
340
0
  0
BLOCK_RECORD
  5
8C7
330
1
100
AcDbSymbolTableRecord
100
AcDbBlockTableRecord
  2
*D21
340
0
  0
BLOCK_RECORD
  5
8D4
330
1
100
AcDbSymbolTableRecord
100
AcDbBlockTableRecord
  2
*D22
340
0
  0
BLOCK_RECORD
  5
8EC
330
1
100
AcDbSymbolTableRecord
100
AcDbBlockTableRecord
  2
*D23
340
0
  0
BLOCK_RECORD
  5
9A4
330
1
100
AcDbSymbolTableRecord
100
AcDbBlockTableRecord
  2
*D24
340
0
  0
BLOCK_RECORD
  5
9BA
330
1
100
AcDbSymbolTableRecord
100
AcDbBlockTableRecord
  2
*D25
340
0
  0
BLOCK_RECORD
  5
9D9
330
1
100
AcDbSymbolTableRecord
100
AcDbBlockTableRecord
  2
*D26
340
0
  0
BLOCK_RECORD
  5
A1D
330
1
100
AcDbSymbolTableRecord
100
AcDbBlockTableRecord
  2
*D27
340
0
  0
BLOCK_RECORD
  5
A29
330
1
100
AcDbSymbolTableRecord
100
AcDbBlockTableRecord
  2
*D28
340
0
  0
BLOCK_RECORD
  5
D05
330
1
100
AcDbSymbolTableRecord
100
AcDbBlockTableRecord
  2
*D29
340
0
  0
BLOCK_RECORD
  5
D11
330
1
100
AcDbSymbolTableRecord
100
AcDbBlockTableRecord
  2
*D30
340
0
  0
BLOCK_RECORD
  5
D1D
330
1
100
AcDbSymbolTableRecord
100
AcDbBlockTableRecord
  2
*D31
340
0
  0
BLOCK_RECORD
  5
D29
330
1
100
AcDbSymbolTableRecord
100
AcDbBlockTableRecord
  2
*D32
340
0
  0
BLOCK_RECORD
  5
DAA
330
1
100
AcDbSymbolTableRecord
100
AcDbBlockTableRecord
  2
*D33
340
0
  0
BLOCK_RECORD
  5
DC2
330
1
100
AcDbSymbolTableRecord
100
AcDbBlockTableRecord
  2
*D34
340
0
  0
BLOCK_RECORD
  5
DE3
330
1
100
AcDbSymbolTableRecord
100
AcDbBlockTableRecord
  2
*D35
340
0
  0
BLOCK_RECORD
  5
DFB
330
1
100
AcDbSymbolTableRecord
100
AcDbBlockTableRecord
  2
*D36
340
0
  0
BLOCK_RECORD
  5
E26
330
1
100
AcDbSymbolTableRecord
100
AcDbBlockTableRecord
  2
*D37
340
0
  0
BLOCK_RECORD
  5
E32
330
1
100
AcDbSymbolTableRecord
100
AcDbBlockTableRecord
  2
*D38
340
0
  0
BLOCK_RECORD
  5
E63
330
1
100
AcDbSymbolTableRecord
100
AcDbBlockTableRecord
  2
*D39
340
0
  0
BLOCK_RECORD
  5
E70
330
1
100
AcDbSymbolTableRecord
100
AcDbBlockTableRecord
  2
*D40
340
0
  0
BLOCK_RECORD
  5
E88
330
1
100
AcDbSymbolTableRecord
100
AcDbBlockTableRecord
  2
*D41
340
0
  0
BLOCK_RECORD
  5
EA0
330
1
100
AcDbSymbolTableRecord
100
AcDbBlockTableRecord
  2
*D42
340
0
  0
BLOCK_RECORD
  5
1056
330
1
100
AcDbSymbolTableRecord
100
AcDbBlockTableRecord
  2
*D43
340
0
  0
BLOCK_RECORD
  5
106E
330
1
100
AcDbSymbolTableRecord
100
AcDbBlockTableRecord
  2
*D44
340
0
  0
BLOCK_RECORD
  5
1086
330
1
100
AcDbSymbolTableRecord
100
AcDbBlockTableRecord
  2
*D45
340
0
  0
BLOCK_RECORD
  5
10F8
330
1
100
AcDbSymbolTableRecord
100
AcDbBlockTableRecord
  2
*D46
340
0
  0
BLOCK_RECORD
  5
1105
330
1
100
AcDbSymbolTableRecord
100
AcDbBlockTableRecord
  2
*D47
340
0
  0
BLOCK_RECORD
  5
11B9
330
1
100
AcDbSymbolTableRecord
100
AcDbBlockTableRecord
  2
*D48
340
0
  0
BLOCK_RECORD
  5
124E
330
1
100
AcDbSymbolTableRecord
100
AcDbBlockTableRecord
  2
*D49
340
0
  0
BLOCK_RECORD
  5
128A
330
1
100
AcDbSymbolTableRecord
100
AcDbBlockTableRecord
  2
*D50
340
0
  0
BLOCK_RECORD
  5
137B
330
1
100
AcDbSymbolTableRecord
100
AcDbBlockTableRecord
  2
*D51
340
0
  0
BLOCK_RECORD
  5
13A6
330
1
100
AcDbSymbolTableRecord
100
AcDbBlockTableRecord
  2
*D52
340
0
  0
BLOCK_RECORD
  5
13B3
330
1
100
AcDbSymbolTableRecord
100
AcDbBlockTableRecord
  2
*D53
340
0
  0
BLOCK_RECORD
  5
13DB
330
1
100
AcDbSymbolTableRecord
100
AcDbBlockTableRecord
  2
*D54
340
0
  0
BLOCK_RECORD
  5
1454
330
1
100
AcDbSymbolTableRecord
100
AcDbBlockTableRecord
  2
*D55
340
0
  0
BLOCK_RECORD
  5
1460
330
1
100
AcDbSymbolTableRecord
100
AcDbBlockTableRecord
  2
*D56
340
0
  0
BLOCK_RECORD
  5
146C
330
1
100
AcDbSymbolTableRecord
100
AcDbBlockTableRecord
  2
*D57
340
0
  0
BLOCK_RECORD
  5
1478
330
1
100
AcDbSymbolTableRecord
100
AcDbBlockTableRecord
  2
*D58
340
0
  0
BLOCK_RECORD
  5
1484
330
1
100
AcDbSymbolTableRecord
100
AcDbBlockTableRecord
  2
*D59
340
0
  0
BLOCK_RECORD
  5
156B
330
1
100
AcDbSymbolTableRecord
100
AcDbBlockTableRecord
  2
*D61
340
0
  0
BLOCK_RECORD
  5
1577
330
1
100
AcDbSymbolTableRecord
100
AcDbBlockTableRecord
  2
*D62
340
0
  0
BLOCK_RECORD
  5
1583
330
1
100
AcDbSymbolTableRecord
100
AcDbBlockTableRecord
  2
*D63
340
0
  0
BLOCK_RECORD
  5
158F
330
1
100
AcDbSymbolTableRecord
100
AcDbBlockTableRecord
  2
*D64
340
0
  0
BLOCK_RECORD
  5
159B
330
1
100
AcDbSymbolTableRecord
100
AcDbBlockTableRecord
  2
*D65
340
0
  0
ENDTAB
  0
ENDSEC
  0
SECTION
  2
BLOCKS
  0
BLOCK
  5
20
330
1F
100
AcDbEntity
  8
0
100
AcDbBlockBegin
  2
*Model_Space
 70
     0
 10
0.0
 20
0.0
 30
0.0
  3
*Model_Space
  1

  0
ENDBLK
  5
21
330
1F
100
AcDbEntity
  8
0
100
AcDbBlockEnd
  0
BLOCK
  5
D4
330
D2
100
AcDbEntity
 67
     1
  8
0
100
AcDbBlockBegin
  2
*Paper_Space
 70
     0
 10
0.0
 20
0.0
 30
0.0
  3
*Paper_Space
  1

  0
ENDBLK
  5
D5
330
D2
100
AcDbEntity
 67
     1
  8
0
100
AcDbBlockEnd
  0
BLOCK
  5
D8
330
D6
100
AcDbEntity
 67
     1
  8
0
100
AcDbBlockBegin
  2
*Paper_Space0
 70
     0
 10
0.0
 20
0.0
 30
0.0
  3
*Paper_Space0
  1

  0
ENDBLK
  5
D9
330
D6
100
AcDbEntity
 67
     1
  8
0
100
AcDbBlockEnd
  0
BLOCK
  5
319
330
318
100
AcDbEntity
  8
0
100
AcDbBlockBegin
  2
*D1
 70
     1
 10
0.0
 20
0.0
 30
0.0
  3
*D1
  1

  0
LINE
  5
7DC
330
318
100
AcDbEntity
  8
0
 62
     0
370
    -2
100
AcDbLine
 10
445.0529588410171
 20
10259.63568664314
 30
0.0
 11
445.0529588410172
 21
10621.64131878325
 31
0.0
  0
LINE
  5
7DD
330
318
100
AcDbEntity
  8
0
 62
     0
370
    -2
100
AcDbLine
 10
-1554.947041158983
 20
10259.63568664314
 30
0.0
 11
-1554.947041158983
 21
10621.64131878325
 31
0.0
  0
LINE
  5
7DE
330
318
100
AcDbEntity
  8
0
 62
     0
370
    -2
100
AcDbLine
 10
520.0529588410172
 20
10546.64131878324
 30
0.0
 11
-1629.947041158982
 21
10546.64131878324
 31
0.0
  0
INSERT
  5
7DF
330
318
100
AcDbEntity
  8
0
 62
     0
370
    -2
100
AcDbBlockReference
  2
_ArchTick
 10
445.0529588410171
 20
10546.64131878324
 30
0.0
 41
100.0
 42
100.0
 43
100.0
  0
INSERT
  5
7E0
330
318
100
AcDbEntity
  8
0
 62
     0
370
    -2
100
AcDbBlockReference
  2
_ArchTick
 10
-1554.947041158983
 20
10546.64131878324
 30
0.0
 41
100.0
 42
100.0
 43
100.0
 50
180.0
  0
MTEXT
  5
7E1
330
318
100
AcDbEntity
  8
0
 62
     0
100
AcDbMText
 10
-554.9470411589827
 20
10647.69861755542
 30
0.0
 40
100.0
 41
0.0
 71
     5
 72
     1
  1
~2000
 73
     1
 44
1.0
1001
ACAD
1000
MTEXTBEGIN
1070
    73
1070
     1
1070
    44
1040
1.0
1070
    74
1070
     0
1000
MTEXTEND
  0
POINT
  5
7E2
330
318
100
AcDbEntity
  8
Defpoints
 62
     0
100
AcDbPoint
 10
445.0529588410171
 20
10134.63568664314
 30
0.0
  0
POINT
  5
7E3
330
318
100
AcDbEntity
  8
Defpoints
 62
     0
100
AcDbPoint
 10
-1554.947041158983
 20
10134.63568664314
 30
0.0
  0
POINT
  5
7E4
330
318
100
AcDbEntity
  8
Defpoints
 62
     0
100
AcDbPoint
 10
-1554.947041158983
 20
10546.64131878324
 30
0.0
  0
ENDBLK
  5
31A
330
318
100
AcDbEntity
  8
0
100
AcDbBlockEnd
  0
BLOCK
  5
33A
330
338
100
AcDbEntity
  8
0
100
AcDbBlockBegin
  2
_ArchTick
 70
     0
 10
0.0
 20
0.0
 30
0.0
  3
_ArchTick
  1

  0
LWPOLYLINE
  5
339
330
338
100
AcDbEntity
  8
0
  6
ByBlock
 62
     0
100
AcDbPolyline
 90
        2
 70
     0
 43
0.15
 10
-0.5
 20
-0.5
 10
0.5
 20
0.5
  0
ENDBLK
  5
33B
330
338
100
AcDbEntity
  8
0
100
AcDbBlockEnd
  0
BLOCK
  5
3D9
330
3D8
100
AcDbEntity
  8
0
100
AcDbBlockBegin
  2
*D3
 70
     1
 10
0.0
 20
0.0
 30
0.0
  3
*D3
  1

  0
LINE
  5
863
330
3D8
100
AcDbEntity
  8
0
 62
     0
370
    -2
100
AcDbLine
 10
-3370.44541415204
 20
8380.251637439847
 30
0.0
 11
-3605.817622496845
 21
8380.251637439847
 31
0.0
  0
LINE
  5
864
330
3D8
100
AcDbEntity
  8
0
 62
     0
370
    -2
100
AcDbLine
 10
-3370.44541415204
 20
7830.251637439848
 30
0.0
 11
-3605.817622496845
 21
7830.251637439848
 31
0.0
  0
LINE
  5
865
330
3D8
100
AcDbEntity
  8
0
 62
     0
370
    -2
100
AcDbLine
 10
-3530.817622496845
 20
8455.251637439848
 30
0.0
 11
-3530.817622496845
 21
7755.251637439847
 31
0.0
  0
INSERT
  5
866
330
3D8
100
AcDbEntity
  8
0
 62
     0
370
    -2
100
AcDbBlockReference
  2
_ArchTick
 10
-3530.817622496845
 20
8380.251637439847
 30
0.0
 41
100.0
 42
100.0
 43
100.0
 50
90.0
  0
INSERT
  5
867
330
3D8
100
AcDbEntity
  8
0
 62
     0
370
    -2
100
AcDbBlockReference
  2
_ArchTick
 10
-3530.817622496845
 20
7830.251637439848
 30
0.0
 41
100.0
 42
100.0
 43
100.0
 50
270.0
  0
MTEXT
  5
868
330
3D8
100
AcDbEntity
  8
0
 62
     0
100
AcDbMText
 10
-3631.874921269016
 20
8105.251637439847
 30
0.0
 40
100.0
 41
0.0
 71
     5
 72
     1
  1
~550
 11
0.0000000000000001
 21
1.0
 31
0.0
 73
     1
 44
1.0
1001
ACAD
1000
MTEXTBEGIN
1070
    73
1070
     1
1070
    44
1040
1.0
1070
    74
1070
     0
1000
MTEXTEND
  0
POINT
  5
869
330
3D8
100
AcDbEntity
  8
Defpoints
 62
     0
100
AcDbPoint
 10
-3245.44541415204
 20
8380.251637439847
 30
0.0
  0
POINT
  5
86A
330
3D8
100
AcDbEntity
  8
Defpoints
 62
     0
100
AcDbPoint
 10
-3245.44541415204
 20
7830.251637439848
 30
0.0
  0
POINT
  5
86B
330
3D8
100
AcDbEntity
  8
Defpoints
 62
     0
100
AcDbPoint
 10
-3530.817622496845
 20
7830.251637439848
 30
0.0
  0
ENDBLK
  5
3DA
330
3D8
100
AcDbEntity
  8
0
100
AcDbBlockEnd
  0
BLOCK
  5
3F1
330
3F0
100
AcDbEntity
  8
0
100
AcDbBlockBegin
  2
*D4
 70
     1
 10
0.0
 20
0.0
 30
0.0
  3
*D4
  1

  0
LINE
  5
851
330
3F0
100
AcDbEntity
  8
0
 62
     0
370
    -2
100
AcDbLine
 10
-3245.44541415204
 20
8505.251637439846
 30
0.0
 11
-3245.44541415204
 21
8867.257269579949
 31
0.0
  0
LINE
  5
852
330
3F0
100
AcDbEntity
  8
0
 62
     0
370
    -2
100
AcDbLine
 10
-2245.44541415204
 20
8505.251637439846
 30
0.0
 11
-2245.44541415204
 21
8867.257269579949
 31
0.0
  0
LINE
  5
853
330
3F0
100
AcDbEntity
  8
0
 62
     0
370
    -2
100
AcDbLine
 10
-3320.44541415204
 20
8792.257269579948
 30
0.0
 11
-2170.44541415204
 21
8792.257269579948
 31
0.0
  0
INSERT
  5
854
330
3F0
100
AcDbEntity
  8
0
 62
     0
370
    -2
100
AcDbBlockReference
  2
_ArchTick
 10
-3245.44541415204
 20
8792.257269579948
 30
0.0
 41
100.0
 42
100.0
 43
100.0
 50
180.0
  0
INSERT
  5
855
330
3F0
100
AcDbEntity
  8
0
 62
     0
370
    -2
100
AcDbBlockReference
  2
_ArchTick
 10
-2245.44541415204
 20
8792.257269579948
 30
0.0
 41
100.0
 42
100.0
 43
100.0
  0
MTEXT
  5
856
330
3F0
100
AcDbEntity
  8
0
 62
     0
100
AcDbMText
 10
-2745.44541415204
 20
8893.314568352117
 30
0.0
 40
100.0
 41
0.0
 71
     5
 72
     1
  1
~1000
 73
     1
 44
1.0
1001
ACAD
1000
MTEXTBEGIN
1070
    73
1070
     1
1070
    44
1040
1.0
1070
    74
1070
     0
1000
MTEXTEND
  0
POINT
  5
857
330
3F0
100
AcDbEntity
  8
Defpoints
 62
     0
100
AcDbPoint
 10
-3245.44541415204
 20
8380.251637439846
 30
0.0
  0
POINT
  5
858
330
3F0
100
AcDbEntity
  8
Defpoints
 62
     0
100
AcDbPoint
 10
-2245.44541415204
 20
8380.251637439846
 30
0.0
  0
POINT
  5
859
330
3F0
100
AcDbEntity
  8
Defpoints
 62
     0
100
AcDbPoint
 10
-2245.44541415204
 20
8792.257269579948
 30
0.0
  0
ENDBLK
  5
3F2
330
3F0
100
AcDbEntity
  8
0
100
AcDbBlockEnd
  0
BLOCK
  5
409
330
408
100
AcDbEntity
  8
0
100
AcDbBlockBegin
  2
*D5
 70
     1
 10
0.0
 20
0.0
 30
0.0
  3
*D5
  1

  0
LINE
  5
7E5
330
408
100
AcDbEntity
  8
0
 62
     0
370
    -2
100
AcDbLine
 10
-1679.947041158983
 20
9134.635686643145
 30
0.0
 11
-1915.319249503788
 21
9134.635686643145
 31
0.0
  0
LINE
  5
7E6
330
408
100
AcDbEntity
  8
0
 62
     0
370
    -2
100
AcDbLine
 10
-1679.947041158983
 20
10134.63568664314
 30
0.0
 11
-1915.319249503787
 21
10134.63568664314
 31
0.0
  0
LINE
  5
7E7
330
408
100
AcDbEntity
  8
0
 62
     0
370
    -2
100
AcDbLine
 10
-1840.319249503788
 20
9059.635686643146
 30
0.0
 11
-1840.319249503787
 21
10209.63568664314
 31
0.0
  0
INSERT
  5
7E8
330
408
100
AcDbEntity
  8
0
 62
     0
370
    -2
100
AcDbBlockReference
  2
_ArchTick
 10
-1840.319249503788
 20
9134.635686643145
 30
0.0
 41
100.0
 42
100.0
 43
100.0
 50
270.0
  0
INSERT
  5
7E9
330
408
100
AcDbEntity
  8
0
 62
     0
370
    -2
100
AcDbBlockReference
  2
_ArchTick
 10
-1840.319249503787
 20
10134.63568664314
 30
0.0
 41
100.0
 42
100.0
 43
100.0
 50
90.0
  0
MTEXT
  5
7EA
330
408
100
AcDbEntity
  8
0
 62
     0
100
AcDbMText
 10
-1941.376548275958
 20
9634.635686643145
 30
0.0
 40
100.0
 41
0.0
 71
     5
 72
     1
  1
~1000
 11
0.0000000000000001
 21
1.0
 31
0.0
 73
     1
 44
1.0
1001
ACAD
1000
MTEXTBEGIN
1070
    73
1070
     1
1070
    44
1040
1.0
1070
    74
1070
     0
1000
MTEXTEND
  0
POINT
  5
7EB
330
408
100
AcDbEntity
  8
Defpoints
 62
     0
100
AcDbPoint
 10
-1554.947041158982
 20
9134.635686643145
 30
0.0
  0
POINT
  5
7EC
330
408
100
AcDbEntity
  8
Defpoints
 62
     0
100
AcDbPoint
 10
-1554.947041158982
 20
10134.63568664314
 30
0.0
  0
POINT
  5
7ED
330
408
100
AcDbEntity
  8
Defpoints
 62
     0
100
AcDbPoint
 10
-1840.319249503787
 20
10134.63568664314
 30
0.0
  0
ENDBLK
  5
40A
330
408
100
AcDbEntity
  8
0
100
AcDbBlockEnd
  0
BLOCK
  5
488
330
487
100
AcDbEntity
  8
0
100
AcDbBlockBegin
  2
*D6
 70
     1
 10
0.0
 20
0.0
 30
0.0
  3
*D6
  1

  0
LINE
  5
86C
330
487
100
AcDbEntity
  8
0
 62
     0
370
    -2
100
AcDbLine
 10
-5922.693356915702
 20
8405.251637439844
 30
0.0
 11
-5922.693356915702
 21
8817.257269579949
 31
0.0
  0
LINE
  5
86D
330
487
100
AcDbEntity
  8
0
 62
     0
370
    -2
100
AcDbLine
 10
-5582.693356915703
 20
8405.251637439844
 30
0.0
 11
-5582.693356915703
 21
8817.257269579949
 31
0.0
  0
LINE
  5
86E
330
487
100
AcDbEntity
  8
0
 62
     0
370
    -2
100
AcDbLine
 10
-5997.693356915703
 20
8742.257269579949
 30
0.0
 11
-5507.693356915702
 21
8742.257269579949
 31
0.0
  0
INSERT
  5
86F
330
487
100
AcDbEntity
  8
0
 62
     0
370
    -2
100
AcDbBlockReference
  2
_ArchTick
 10
-5922.693356915702
 20
8742.257269579949
 30
0.0
 41
100.0
 42
100.0
 43
100.0
 50
180.0
  0
INSERT
  5
870
330
487
100
AcDbEntity
  8
0
 62
     0
370
    -2
100
AcDbBlockReference
  2
_ArchTick
 10
-5582.693356915703
 20
8742.257269579949
 30
0.0
 41
100.0
 42
100.0
 43
100.0
  0
MTEXT
  5
871
330
487
100
AcDbEntity
  8
0
 62
     0
100
AcDbMText
 10
-5790.193356915703
 20
8843.348674764122
 30
0.0
 40
100.0
 41
0.0
 71
     5
 72
     1
  1
~330
 73
     1
 44
1.0
1001
ACAD
1000
MTEXTBEGIN
1070
    73
1070
     1
1070
    44
1040
1.0
1070
    74
1070
     0
1000
MTEXTEND
  0
POINT
  5
872
330
487
100
AcDbEntity
  8
Defpoints
 62
     0
100
AcDbPoint
 10
-5922.693356915702
 20
8280.251637439844
 30
0.0
  0
POINT
  5
873
330
487
100
AcDbEntity
  8
Defpoints
 62
     0
100
AcDbPoint
 10
-5582.693356915703
 20
8280.251637439844
 30
0.0
  0
POINT
  5
874
330
487
100
AcDbEntity
  8
Defpoints
 62
     0
100
AcDbPoint
 10
-5582.693356915703
 20
8742.257269579949
 30
0.0
  0
ENDBLK
  5
489
330
487
100
AcDbEntity
  8
0
100
AcDbBlockEnd
  0
BLOCK
  5
4CA
330
4C9
100
AcDbEntity
  8
0
100
AcDbBlockBegin
  2
*D7
 70
     1
 10
0.0
 20
0.0
 30
0.0
  3
*D7
  1

  0
LINE
  5
875
330
4C9
100
AcDbEntity
  8
0
 62
     0
370
    -2
100
AcDbLine
 10
-6047.693356915702
 20
8280.251637439844
 30
0.0
 11
-6308.213082075464
 21
8280.251637439844
 31
0.0
  0
LINE
  5
876
330
4C9
100
AcDbEntity
  8
0
 62
     0
370
    -2
100
AcDbLine
 10
-6047.693356915702
 20
7830.251637439847
 30
0.0
 11
-6308.213082075464
 21
7830.251637439848
 31
0.0
  0
LINE
  5
877
330
4C9
100
AcDbEntity
  8
0
 62
     0
370
    -2
100
AcDbLine
 10
-6233.213082075465
 20
8355.251637439845
 30
0.0
 11
-6233.213082075465
 21
7755.251637439847
 31
0.0
  0
INSERT
  5
878
330
4C9
100
AcDbEntity
  8
0
 62
     0
370
    -2
100
AcDbBlockReference
  2
_ArchTick
 10
-6233.213082075465
 20
8280.251637439844
 30
0.0
 41
100.0
 42
100.0
 43
100.0
 50
90.0
  0
INSERT
  5
879
330
4C9
100
AcDbEntity
  8
0
 62
     0
370
    -2
100
AcDbBlockReference
  2
_ArchTick
 10
-6233.213082075465
 20
7830.251637439848
 30
0.0
 41
100.0
 42
100.0
 43
100.0
 50
270.0
  0
MTEXT
  5
87A
330
4C9
100
AcDbEntity
  8
0
 62
     0
100
AcDbMText
 10
-6334.270380847634
 20
8055.251637439845
 30
0.0
 40
100.0
 41
0.0
 71
     5
 72
     1
  1
~450
 11
0.0000000000000001
 21
1.0
 31
0.0
 73
     1
 44
1.0
1001
ACAD
1000
MTEXTBEGIN
1070
    73
1070
     1
1070
    44
1040
1.0
1070
    74
1070
     0
1000
MTEXTEND
  0
POINT
  5
87B
330
4C9
100
AcDbEntity
  8
Defpoints
 62
     0
100
AcDbPoint
 10
-5922.693356915702
 20
8280.251637439844
 30
0.0
  0
POINT
  5
87C
330
4C9
100
AcDbEntity
  8
Defpoints
 62
     0
100
AcDbPoint
 10
-5922.693356915702
 20
7830.251637439847
 30
0.0
  0
POINT
  5
87D
330
4C9
100
AcDbEntity
  8
Defpoints
 62
     0
100
AcDbPoint
 10
-6233.213082075465
 20
7830.251637439848
 30
0.0
  0
ENDBLK
  5
4CB
330
4C9
100
AcDbEntity
  8
0
100
AcDbBlockEnd
  0
BLOCK
  5
4ED
330
4EC
100
AcDbEntity
  8
0
100
AcDbBlockBegin
  2
*D8
 70
     1
 10
0.0
 20
0.0
 30
0.0
  3
*D8
  1

  0
LINE
  5
87E
330
4EC
100
AcDbEntity
  8
0
 62
     0
370
    -2
100
AcDbLine
 10
-5047.87092380801
 20
8130.251637439846
 30
0.0
 11
-5308.390648967771
 21
8130.251637439846
 31
0.0
  0
LINE
  5
87F
330
4EC
100
AcDbEntity
  8
0
 62
     0
370
    -2
100
AcDbLine
 10
-5047.87092380801
 20
7830.251637439847
 30
0.0
 11
-5308.390648967771
 21
7830.251637439847
 31
0.0
  0
LINE
  5
880
330
4EC
100
AcDbEntity
  8
0
 62
     0
370
    -2
100
AcDbLine
 10
-5233.390648967771
 20
8205.251637439848
 30
0.0
 11
-5233.390648967771
 21
7755.251637439847
 31
0.0
  0
INSERT
  5
881
330
4EC
100
AcDbEntity
  8
0
 62
     0
370
    -2
100
AcDbBlockReference
  2
_ArchTick
 10
-5233.390648967771
 20
8130.251637439846
 30
0.0
 41
100.0
 42
100.0
 43
100.0
 50
90.0
  0
INSERT
  5
882
330
4EC
100
AcDbEntity
  8
0
 62
     0
370
    -2
100
AcDbBlockReference
  2
_ArchTick
 10
-5233.390648967771
 20
7830.251637439847
 30
0.0
 41
100.0
 42
100.0
 43
100.0
 50
270.0
  0
MTEXT
  5
883
330
4EC
100
AcDbEntity
  8
0
 62
     0
100
AcDbMText
 10
-5334.482054151947
 20
7980.251637439845
 30
0.0
 40
100.0
 41
0.0
 71
     5
 72
     1
  1
~300
 11
0.0000000000000001
 21
1.0
 31
0.0
 73
     1
 44
1.0
1001
ACAD
1000
MTEXTBEGIN
1070
    73
1070
     1
1070
    44
1040
1.0
1070
    74
1070
     0
1000
MTEXTEND
  0
POINT
  5
884
330
4EC
100
AcDbEntity
  8
Defpoints
 62
     0
100
AcDbPoint
 10
-4922.87092380801
 20
8130.251637439846
 30
0.0
  0
POINT
  5
885
330
4EC
100
AcDbEntity
  8
Defpoints
 62
     0
100
AcDbPoint
 10
-4922.87092380801
 20
7830.251637439847
 30
0.0
  0
POINT
  5
886
330
4EC
100
AcDbEntity
  8
Defpoints
 62
     0
100
AcDbPoint
 10
-5233.390648967771
 20
7830.251637439847
 30
0.0
  0
ENDBLK
  5
4EE
330
4EC
100
AcDbEntity
  8
0
100
AcDbBlockEnd
  0
BLOCK
  5
561
330
560
100
AcDbEntity
  8
0
100
AcDbBlockBegin
  2
*D9
 70
     1
 10
0.0
 20
0.0
 30
0.0
  3
*D9
  1

  0
LINE
  5
887
330
560
100
AcDbEntity
  8
0
 62
     0
370
    -2
100
AcDbLine
 10
-4922.87092380801
 20
8405.251637439844
 30
0.0
 11
-4922.87092380801
 21
8817.257269579949
 31
0.0
  0
LINE
  5
888
330
560
100
AcDbEntity
  8
0
 62
     0
370
    -2
100
AcDbLine
 10
-4582.87092380801
 20
8405.251637439844
 30
0.0
 11
-4582.87092380801
 21
8817.257269579949
 31
0.0
  0
LINE
  5
889
330
560
100
AcDbEntity
  8
0
 62
     0
370
    -2
100
AcDbLine
 10
-4997.87092380801
 20
8742.257269579949
 30
0.0
 11
-4507.87092380801
 21
8742.257269579949
 31
0.0
  0
INSERT
  5
88A
330
560
100
AcDbEntity
  8
0
 62
     0
370
    -2
100
AcDbBlockReference
  2
_ArchTick
 10
-4922.87092380801
 20
8742.257269579949
 30
0.0
 41
100.0
 42
100.0
 43
100.0
 50
180.0
  0
INSERT
  5
88B
330
560
100
AcDbEntity
  8
0
 62
     0
370
    -2
100
AcDbBlockReference
  2
_ArchTick
 10
-4582.87092380801
 20
8742.257269579949
 30
0.0
 41
100.0
 42
100.0
 43
100.0
  0
MTEXT
  5
88C
330
560
100
AcDbEntity
  8
0
 62
     0
100
AcDbMText
 10
-4790.37092380801
 20
8843.348674764122
 30
0.0
 40
100.0
 41
0.0
 71
     5
 72
     1
  1
~330
 73
     1
 44
1.0
1001
ACAD
1000
MTEXTBEGIN
1070
    73
1070
     1
1070
    44
1040
1.0
1070
    74
1070
     0
1000
MTEXTEND
  0
POINT
  5
88D
330
560
100
AcDbEntity
  8
Defpoints
 62
     0
100
AcDbPoint
 10
-4922.87092380801
 20
8280.251637439844
 30
0.0
  0
POINT
  5
88E
330
560
100
AcDbEntity
  8
Defpoints
 62
     0
100
AcDbPoint
 10
-4582.87092380801
 20
8280.251637439844
 30
0.0
  0
POINT
  5
88F
330
560
100
AcDbEntity
  8
Defpoints
 62
     0
100
AcDbPoint
 10
-4582.87092380801
 20
8742.257269579949
 30
0.0
  0
ENDBLK
  5
562
330
560
100
AcDbEntity
  8
0
100
AcDbBlockEnd
  0
BLOCK
  5
59B
330
59A
100
AcDbEntity
  8
0
100
AcDbBlockBegin
  2
*D10
 70
     1
 10
0.0
 20
0.0
 30
0.0
  3
*D10
  1

  0
LINE
  5
812
330
59A
100
AcDbEntity
  8
0
 62
     0
370
    -2
100
AcDbLine
 10
11717.54428143672
 20
9251.977174971504
 30
0.0
 11
11717.54428143672
 21
9517.434692265487
 31
0.0
  0
LINE
  5
813
330
59A
100
AcDbEntity
  8
0
 62
     0
370
    -2
100
AcDbLine
 10
15217.54428143672
 20
9251.977174971504
 30
0.0
 11
15217.54428143672
 21
9517.434692265487
 31
0.0
  0
LINE
  5
814
330
59A
100
AcDbEntity
  8
0
 62
     0
370
    -2
100
AcDbLine
 10
11642.54428143672
 20
9442.434692265486
 30
0.0
 11
15292.54428143672
 21
9442.434692265486
 31
0.0
  0
INSERT
  5
815
330
59A
100
AcDbEntity
  8
0
 62
     0
370
    -2
100
AcDbBlockReference
  2
_ArchTick
 10
11717.54428143672
 20
9442.434692265486
 30
0.0
 41
100.0
 42
100.0
 43
100.0
 50
180.0
  0
INSERT
  5
816
330
59A
100
AcDbEntity
  8
0
 62
     0
370
    -2
100
AcDbBlockReference
  2
_ArchTick
 10
15217.54428143672
 20
9442.434692265486
 30
0.0
 41
100.0
 42
100.0
 43
100.0
  0
MTEXT
  5
817
330
59A
100
AcDbEntity
  8
0
 62
     0
100
AcDbMText
 10
13467.54428143672
 20
9543.52609744966
 30
0.0
 40
100.0
 41
0.0
 71
     5
 72
     1
  1
~3500
 73
     1
 44
1.0
1001
ACAD
1000
MTEXTBEGIN
1070
    73
1070
     1
1070
    44
1040
1.0
1070
    74
1070
     0
1000
MTEXTEND
  0
POINT
  5
818
330
59A
100
AcDbEntity
  8
Defpoints
 62
     0
100
AcDbPoint
 10
11717.54428143672
 20
9126.977174971504
 30
0.0
  0
POINT
  5
819
330
59A
100
AcDbEntity
  8
Defpoints
 62
     0
100
AcDbPoint
 10
15217.54428143672
 20
9126.977174971504
 30
0.0
  0
POINT
  5
81A
330
59A
100
AcDbEntity
  8
Defpoints
 62
     0
100
AcDbPoint
 10
15217.54428143672
 20
9442.434692265486
 30
0.0
  0
ENDBLK
  5
59C
330
59A
100
AcDbEntity
  8
0
100
AcDbBlockEnd
  0
BLOCK
  5
5B3
330
5B2
100
AcDbEntity
  8
0
100
AcDbBlockBegin
  2
*D11
 70
     1
 10
0.0
 20
0.0
 30
0.0
  3
*D11
  1

  0
LINE
  5
81B
330
5B2
100
AcDbEntity
  8
0
 62
     0
370
    -2
100
AcDbLine
 10
11592.54428143672
 20
9126.977174971504
 30
0.0
 11
11321.30566034663
 21
9126.977174971504
 31
0.0
  0
LINE
  5
81C
330
5B2
100
AcDbEntity
  8
0
 62
     0
370
    -2
100
AcDbLine
 10
11592.54428143672
 20
8396.977174971501
 30
0.0
 11
11321.30566034663
 21
8396.977174971501
 31
0.0
  0
LINE
  5
81D
330
5B2
100
AcDbEntity
  8
0
 62
     0
370
    -2
100
AcDbLine
 10
11396.30566034663
 20
9201.977174971503
 30
0.0
 11
11396.30566034663
 21
8321.977174971502
 31
0.0
  0
INSERT
  5
81E
330
5B2
100
AcDbEntity
  8
0
 62
     0
370
    -2
100
AcDbBlockReference
  2
_ArchTick
 10
11396.30566034663
 20
9126.977174971504
 30
0.0
 41
100.0
 42
100.0
 43
100.0
 50
90.0
  0
INSERT
  5
81F
330
5B2
100
AcDbEntity
  8
0
 62
     0
370
    -2
100
AcDbBlockReference
  2
_ArchTick
 10
11396.30566034663
 20
8396.977174971501
 30
0.0
 41
100.0
 42
100.0
 43
100.0
 50
270.0
  0
MTEXT
  5
820
330
5B2
100
AcDbEntity
  8
0
 62
     0
100
AcDbMText
 10
11295.24836157445
 20
8761.977174971503
 30
0.0
 40
100.0
 41
0.0
 71
     5
 72
     1
  1
~750
 11
0.0000000000000001
 21
1.0
 31
0.0
 73
     1
 44
1.0
1001
ACAD
1000
MTEXTBEGIN
1070
    73
1070
     1
1070
    44
1040
1.0
1070
    74
1070
     0
1000
MTEXTEND
  0
POINT
  5
821
330
5B2
100
AcDbEntity
  8
Defpoints
 62
     0
100
AcDbPoint
 10
11717.54428143672
 20
9126.977174971504
 30
0.0
  0
POINT
  5
822
330
5B2
100
AcDbEntity
  8
Defpoints
 62
     0
100
AcDbPoint
 10
11717.54428143672
 20
8396.977174971501
 30
0.0
  0
POINT
  5
823
330
5B2
100
AcDbEntity
  8
Defpoints
 62
     0
100
AcDbPoint
 10
11396.30566034663
 20
8396.977174971501
 30
0.0
  0
ENDBLK
  5
5B4
330
5B2
100
AcDbEntity
  8
0
100
AcDbBlockEnd
  0
BLOCK
  5
5CC
330
5CB
100
AcDbEntity
  8
0
100
AcDbBlockBegin
  2
*D12
 70
     1
 10
0.0
 20
0.0
 30
0.0
  3
*D12
  1

  0
LINE
  5
824
330
5CB
100
AcDbEntity
  8
0
 62
     0
370
    -2
100
AcDbLine
 10
10151.08990195818
 20
7563.985404009521
 30
0.0
 11
9859.8359951458
 21
7563.985404009521
 31
0.0
  0
LINE
  5
825
330
5CB
100
AcDbEntity
  8
0
 62
     0
370
    -2
100
AcDbLine
 10
10151.08990195818
 20
6763.985404009521
 30
0.0
 11
9859.8359951458
 21
6763.985404009521
 31
0.0
  0
LINE
  5
826
330
5CB
100
AcDbEntity
  8
0
 62
     0
370
    -2
100
AcDbLine
 10
9934.835995145801
 20
7638.985404009521
 30
0.0
 11
9934.835995145801
 21
6688.985404009521
 31
0.0
  0
INSERT
  5
827
330
5CB
100
AcDbEntity
  8
0
 62
     0
370
    -2
100
AcDbBlockReference
  2
_ArchTick
 10
9934.835995145801
 20
7563.985404009521
 30
0.0
 41
100.0
 42
100.0
 43
100.0
 50
90.0
  0
INSERT
  5
828
330
5CB
100
AcDbEntity
  8
0
 62
     0
370
    -2
100
AcDbBlockReference
  2
_ArchTick
 10
9934.835995145801
 20
6763.985404009521
 30
0.0
 41
100.0
 42
100.0
 43
100.0
 50
270.0
  0
MTEXT
  5
829
330
5CB
100
AcDbEntity
  8
0
 62
     0
100
AcDbMText
 10
9833.778696373629
 20
7163.985404009522
 30
0.0
 40
100.0
 41
0.0
 71
     5
 72
     1
  1
~800
 11
0.0000000000000001
 21
1.0
 31
0.0
 73
     1
 44
1.0
1001
ACAD
1000
MTEXTBEGIN
1070
    73
1070
     1
1070
    44
1040
1.0
1070
    74
1070
     0
1000
MTEXTEND
  0
POINT
  5
82A
330
5CB
100
AcDbEntity
  8
Defpoints
 62
     0
100
AcDbPoint
 10
10276.08990195818
 20
7563.98540400952
 30
0.0
  0
POINT
  5
82B
330
5CB
100
AcDbEntity
  8
Defpoints
 62
     0
100
AcDbPoint
 10
10276.08990195818
 20
6763.98540400952
 30
0.0
  0
POINT
  5
82C
330
5CB
100
AcDbEntity
  8
Defpoints
 62
     0
100
AcDbPoint
 10
9934.835995145801
 20
6763.985404009521
 30
0.0
  0
ENDBLK
  5
5CD
330
5CB
100
AcDbEntity
  8
0
100
AcDbBlockEnd
  0
BLOCK
  5
636
330
635
100
AcDbEntity
  8
0
100
AcDbBlockBegin
  2
*D13
 70
     1
 10
0.0
 20
0.0
 30
0.0
  3
*D13
  1

  0
LINE
  5
721
330
635
100
AcDbEntity
  8
0
 62
     0
370
    -2
100
AcDbLine
 10
6334.168828431005
 20
2223.351926525506
 30
0.0
 11
6334.168828431005
 21
2466.32351072668
 31
0.0
  0
LINE
  5
722
330
635
100
AcDbEntity
  8
0
 62
     0
370
    -2
100
AcDbLine
 10
8334.168828431003
 20
2223.351926525506
 30
0.0
 11
8334.168828431003
 21
2466.32351072668
 31
0.0
  0
LINE
  5
723
330
635
100
AcDbEntity
  8
0
 62
     0
370
    -2
100
AcDbLine
 10
6259.168828431005
 20
2391.323510726679
 30
0.0
 11
8409.168828431004
 21
2391.323510726679
 31
0.0
  0
INSERT
  5
724
330
635
100
AcDbEntity
  8
0
 62
     0
370
    -2
100
AcDbBlockReference
  2
_ArchTick
 10
6334.168828431005
 20
2391.323510726679
 30
0.0
 41
100.0
 42
100.0
 43
100.0
 50
180.0
  0
INSERT
  5
725
330
635
100
AcDbEntity
  8
0
 62
     0
370
    -2
100
AcDbBlockReference
  2
_ArchTick
 10
8334.168828431003
 20
2391.323510726679
 30
0.0
 41
100.0
 42
100.0
 43
100.0
  0
MTEXT
  5
726
330
635
100
AcDbEntity
  8
0
 62
     0
100
AcDbMText
 10
7334.168828431003
 20
2492.380809498849
 30
0.0
 40
100.0
 41
0.0
 71
     5
 72
     1
  1
~2000
 73
     1
 44
1.0
1001
ACAD
1000
MTEXTBEGIN
1070
    73
1070
     1
1070
    44
1040
1.0
1070
    74
1070
     0
1000
MTEXTEND
  0
POINT
  5
727
330
635
100
AcDbEntity
  8
Defpoints
 62
     0
100
AcDbPoint
 10
6334.168828431005
 20
2098.351926525506
 30
0.0
  0
POINT
  5
728
330
635
100
AcDbEntity
  8
Defpoints
 62
     0
100
AcDbPoint
 10
8334.168828431003
 20
2098.351926525506
 30
0.0
  0
POINT
  5
729
330
635
100
AcDbEntity
  8
Defpoints
 62
     0
100
AcDbPoint
 10
8334.168828431003
 20
2391.323510726679
 30
0.0
  0
ENDBLK
  5
637
330
635
100
AcDbEntity
  8
0
100
AcDbBlockEnd
  0
BLOCK
  5
64E
330
64D
100
AcDbEntity
  8
0
100
AcDbBlockBegin
  2
*D14
 70
     1
 10
0.0
 20
0.0
 30
0.0
  3
*D14
  1

  0
LINE
  5
72A
330
64D
100
AcDbEntity
  8
0
 62
     0
370
    -2
100
AcDbLine
 10
6209.168828431005
 20
1298.351926525505
 30
0.0
 11
5939.948036554829
 21
1298.351926525505
 31
0.0
  0
LINE
  5
72B
330
64D
100
AcDbEntity
  8
0
 62
     0
370
    -2
100
AcDbLine
 10
6209.168828431005
 20
2098.351926525506
 30
0.0
 11
5939.94803655483
 21
2098.351926525506
 31
0.0
  0
LINE
  5
72C
330
64D
100
AcDbEntity
  8
0
 62
     0
370
    -2
100
AcDbLine
 10
6014.948036554829
 20
1223.351926525505
 30
0.0
 11
6014.94803655483
 21
2173.351926525505
 31
0.0
  0
INSERT
  5
72D
330
64D
100
AcDbEntity
  8
0
 62
     0
370
    -2
100
AcDbBlockReference
  2
_ArchTick
 10
6014.948036554829
 20
1298.351926525505
 30
0.0
 41
100.0
 42
100.0
 43
100.0
 50
270.0
  0
INSERT
  5
72E
330
64D
100
AcDbEntity
  8
0
 62
     0
370
    -2
100
AcDbBlockReference
  2
_ArchTick
 10
6014.94803655483
 20
2098.351926525506
 30
0.0
 41
100.0
 42
100.0
 43
100.0
 50
90.0
  0
MTEXT
  5
72F
330
64D
100
AcDbEntity
  8
0
 62
     0
100
AcDbMText
 10
5913.89073778266
 20
1698.351926525506
 30
0.0
 40
100.0
 41
0.0
 71
     5
 72
     1
  1
~800
 11
0.0000000000000001
 21
1.0
 31
0.0
 73
     1
 44
1.0
1001
ACAD
1000
MTEXTBEGIN
1070
    73
1070
     1
1070
    44
1040
1.0
1070
    74
1070
     0
1000
MTEXTEND
  0
POINT
  5
730
330
64D
100
AcDbEntity
  8
Defpoints
 62
     0
100
AcDbPoint
 10
6334.168828431005
 20
1298.351926525505
 30
0.0
  0
POINT
  5
731
330
64D
100
AcDbEntity
  8
Defpoints
 62
     0
100
AcDbPoint
 10
6334.168828431005
 20
2098.351926525506
 30
0.0
  0
POINT
  5
732
330
64D
100
AcDbEntity
  8
Defpoints
 62
     0
100
AcDbPoint
 10
6014.94803655483
 20
2098.351926525506
 30
0.0
  0
ENDBLK
  5
64F
330
64D
100
AcDbEntity
  8
0
100
AcDbBlockEnd
  0
BLOCK
  5
664
330
663
100
AcDbEntity
  8
0
100
AcDbBlockBegin
  2
*D15
 70
     1
 10
0.0
 20
0.0
 30
0.0
  3
*D15
  1

  0
LINE
  5
1443
330
663
100
AcDbEntity
  8
0
 62
     0
370
    -2
100
AcDbLine
 10
3383.109868546952
 20
10955.25163743984
 30
0.0
 11
3383.109868546952
 21
11555.82006942284
 31
0.0
  0
LINE
  5
1444
330
663
100
AcDbEntity
  8
0
 62
     0
370
    -2
100
AcDbLine
 10
7383.109868546951
 20
10955.25163743984
 30
0.0
 11
7383.109868546951
 21
11555.82006942284
 31
0.0
  0
LINE
  5
1445
330
663
100
AcDbEntity
  8
0
 62
     0
370
    -2
100
AcDbLine
 10
3308.109868546952
 20
11480.82006942284
 30
0.0
 11
7458.109868546952
 21
11480.82006942284
 31
0.0
  0
INSERT
  5
1446
330
663
100
AcDbEntity
  8
0
 62
     0
370
    -2
100
AcDbBlockReference
  2
_ArchTick
 10
3383.109868546952
 20
11480.82006942284
 30
0.0
 41
100.0
 42
100.0
 43
100.0
 50
180.0
  0
INSERT
  5
1447
330
663
100
AcDbEntity
  8
0
 62
     0
370
    -2
100
AcDbBlockReference
  2
_ArchTick
 10
7383.109868546951
 20
11480.82006942284
 30
0.0
 41
100.0
 42
100.0
 43
100.0
  0
MTEXT
  5
1448
330
663
100
AcDbEntity
  8
0
 62
     0
100
AcDbMText
 10
5383.109868546951
 20
11581.87736819501
 30
0.0
 40
100.0
 41
0.0
 71
     5
 72
     1
  1
~4000
 73
     1
 44
1.0
1001
ACAD
1000
MTEXTBEGIN
1070
    73
1070
     1
1070
    44
1040
1.0
1070
    74
1070
     0
1000
MTEXTEND
  0
POINT
  5
1449
330
663
100
AcDbEntity
  8
Defpoints
 62
     0
100
AcDbPoint
 10
3383.109868546952
 20
10830.25163743984
 30
0.0
  0
POINT
  5
144A
330
663
100
AcDbEntity
  8
Defpoints
 62
     0
100
AcDbPoint
 10
7383.109868546951
 20
10830.25163743984
 30
0.0
  0
POINT
  5
144B
330
663
100
AcDbEntity
  8
Defpoints
 62
     0
100
AcDbPoint
 10
7383.109868546951
 20
11480.82006942284
 30
0.0
  0
ENDBLK
  5
665
330
663
100
AcDbEntity
  8
0
100
AcDbBlockEnd
  0
BLOCK
  5
67C
330
67B
100
AcDbEntity
  8
0
100
AcDbBlockBegin
  2
*D16
 70
     1
 10
0.0
 20
0.0
 30
0.0
  3
*D16
  1

  0
LINE
  5
809
330
67B
100
AcDbEntity
  8
0
 62
     0
370
    -2
100
AcDbLine
 10
3258.109868546952
 20
10830.25163743984
 30
0.0
 11
2697.190808436489
 21
10830.25163743984
 31
0.0
  0
LINE
  5
80A
330
67B
100
AcDbEntity
  8
0
 62
     0
370
    -2
100
AcDbLine
 10
3258.109868546951
 20
7830.251637439845
 30
0.0
 11
2697.190808436489
 21
7830.251637439845
 31
0.0
  0
LINE
  5
80B
330
67B
100
AcDbEntity
  8
0
 62
     0
370
    -2
100
AcDbLine
 10
2772.190808436489
 20
10905.25163743984
 30
0.0
 11
2772.190808436489
 21
7755.251637439845
 31
0.0
  0
INSERT
  5
80C
330
67B
100
AcDbEntity
  8
0
 62
     0
370
    -2
100
AcDbBlockReference
  2
_ArchTick
 10
2772.190808436489
 20
10830.25163743984
 30
0.0
 41
100.0
 42
100.0
 43
100.0
 50
90.0
  0
INSERT
  5
80D
330
67B
100
AcDbEntity
  8
0
 62
     0
370
    -2
100
AcDbBlockReference
  2
_ArchTick
 10
2772.190808436489
 20
7830.251637439845
 30
0.0
 41
100.0
 42
100.0
 43
100.0
 50
270.0
  0
MTEXT
  5
80E
330
67B
100
AcDbEntity
  8
0
 62
     0
100
AcDbMText
 10
2671.099403252313
 20
9330.251637439845
 30
0.0
 40
100.0
 41
0.0
 71
     5
 72
     1
  1
~3000
 11
0.0000000000000001
 21
1.0
 31
0.0
 73
     1
 44
1.0
1001
ACAD
1000
MTEXTBEGIN
1070
    73
1070
     1
1070
    44
1040
1.0
1070
    74
1070
     0
1000
MTEXTEND
  0
POINT
  5
80F
330
67B
100
AcDbEntity
  8
Defpoints
 62
     0
100
AcDbPoint
 10
3383.109868546952
 20
10830.25163743984
 30
0.0
  0
POINT
  5
810
330
67B
100
AcDbEntity
  8
Defpoints
 62
     0
100
AcDbPoint
 10
3383.109868546951
 20
7830.251637439845
 30
0.0
  0
POINT
  5
811
330
67B
100
AcDbEntity
  8
Defpoints
 62
     0
100
AcDbPoint
 10
2772.190808436489
 20
7830.251637439845
 30
0.0
  0
ENDBLK
  5
67D
330
67B
100
AcDbEntity
  8
0
100
AcDbBlockEnd
  0
BLOCK
  5
6F0
330
6EF
100
AcDbEntity
  8
0
100
AcDbBlockBegin
  2
*D17
 70
     1
 10
0.0
 20
0.0
 30
0.0
  3
*D17
  1

  0
LINE
  5
769
330
6EF
100
AcDbEntity
  8
0
 62
     0
370
    -2
100
AcDbLine
 10
5140.959559217288
 20
0.0000000000000931
 30
0.0
 11
4871.738767341113
 21
0.0000000000001693
 31
0.0
  0
LINE
  5
76A
330
6EF
100
AcDbEntity
  8
0
 62
     0
370
    -2
100
AcDbLine
 10
5140.959559217288
 20
550.0
 30
0.0
 11
4871.738767341113
 21
550.0
 31
0.0
  0
LINE
  5
76B
330
6EF
100
AcDbEntity
  8
0
 62
     0
370
    -2
100
AcDbLine
 10
4946.738767341113
 20
-74.99999999999984
 30
0.0
 11
4946.738767341113
 21
625.0
 31
0.0
  0
INSERT
  5
76C
330
6EF
100
AcDbEntity
  8
0
 62
     0
370
    -2
100
AcDbBlockReference
  2
_ArchTick
 10
4946.738767341113
 20
0.0000000000001481
 30
0.0
 41
100.0
 42
100.0
 43
100.0
 50
270.0
  0
INSERT
  5
76D
330
6EF
100
AcDbEntity
  8
0
 62
     0
370
    -2
100
AcDbBlockReference
  2
_ArchTick
 10
4946.738767341113
 20
550.0
 30
0.0
 41
100.0
 42
100.0
 43
100.0
 50
90.0
  0
MTEXT
  5
76E
330
6EF
100
AcDbEntity
  8
0
 62
     0
100
AcDbMText
 10
4845.681468568944
 20
275.0000000000009
 30
0.0
 40
100.0
 41
0.0
 71
     5
 72
     1
  1
~550
 11
0.0000000000000001
 21
1.0
 31
0.0
 73
     1
 44
1.0
1001
ACAD
1000
MTEXTBEGIN
1070
    73
1070
     1
1070
    44
1040
1.0
1070
    74
1070
     0
1000
MTEXTEND
  0
POINT
  5
76F
330
6EF
100
AcDbEntity
  8
Defpoints
 62
     0
100
AcDbPoint
 10
5265.959559217288
 20
0.0000000000000577
 30
0.0
  0
POINT
  5
770
330
6EF
100
AcDbEntity
  8
Defpoints
 62
     0
100
AcDbPoint
 10
5265.959559217288
 20
550.0
 30
0.0
  0
POINT
  5
771
330
6EF
100
AcDbEntity
  8
Defpoints
 62
     0
100
AcDbPoint
 10
4946.738767341113
 20
550.0
 30
0.0
  0
ENDBLK
  5
6F1
330
6EF
100
AcDbEntity
  8
0
100
AcDbBlockEnd
  0
BLOCK
  5
774
330
773
100
AcDbEntity
  8
0
100
AcDbBlockBegin
  2
*D18
 70
     1
 10
0.0
 20
0.0
 30
0.0
  3
*D18
  1

  0
LINE
  5
12F8
330
773
100
AcDbEntity
  8
0
 62
     0
370
    -2
100
AcDbLine
 10
10960.26811686644
 20
3823.351926525505
 30
0.0
 11
10960.26811686644
 21
4456.588666311765
 31
0.0
  0
LINE
  5
12F9
330
773
100
AcDbEntity
  8
0
 62
     0
370
    -2
100
AcDbLine
 10
15960.26811686644
 20
3823.351926525505
 30
0.0
 11
15960.26811686644
 21
4456.588666311765
 31
0.0
  0
LINE
  5
12FA
330
773
100
AcDbEntity
  8
0
 62
     0
370
    -2
100
AcDbLine
 10
10885.26811686644
 20
4381.588666311765
 30
0.0
 11
16035.26811686644
 21
4381.588666311765
 31
0.0
  0
INSERT
  5
12FB
330
773
100
AcDbEntity
  8
0
 62
     0
370
    -2
100
AcDbBlockReference
  2
_ArchTick
 10
10960.26811686644
 20
4381.588666311765
 30
0.0
 41
100.0
 42
100.0
 43
100.0
 50
180.0
  0
INSERT
  5
12FC
330
773
100
AcDbEntity
  8
0
 62
     0
370
    -2
100
AcDbBlockReference
  2
_ArchTick
 10
15960.26811686644
 20
4381.588666311765
 30
0.0
 41
100.0
 42
100.0
 43
100.0
  0
MTEXT
  5
12FD
330
773
100
AcDbEntity
  8
0
 62
     0
100
AcDbMText
 10
13460.26811686644
 20
4482.645965083935
 30
0.0
 40
100.0
 41
0.0
 71
     5
 72
     1
  1
~5000
 73
     1
 44
1.0
1001
ACAD
1000
MTEXTBEGIN
1070
    73
1070
     1
1070
    44
1040
1.0
1070
    74
1070
     0
1000
MTEXTEND
  0
POINT
  5
12FE
330
773
100
AcDbEntity
  8
Defpoints
 62
     0
100
AcDbPoint
 10
10960.26811686644
 20
3698.351926525505
 30
0.0
  0
POINT
  5
12FF
330
773
100
AcDbEntity
  8
Defpoints
 62
     0
100
AcDbPoint
 10
15960.26811686644
 20
3698.351926525505
 30
0.0
  0
POINT
  5
1300
330
773
100
AcDbEntity
  8
Defpoints
 62
     0
100
AcDbPoint
 10
15960.26811686644
 20
4381.588666311765
 30
0.0
  0
ENDBLK
  5
775
330
773
100
AcDbEntity
  8
0
100
AcDbBlockEnd
  0
BLOCK
  5
78C
330
78B
100
AcDbEntity
  8
0
100
AcDbBlockBegin
  2
*D19
 70
     1
 10
0.0
 20
0.0
 30
0.0
  3
*D19
  1

  0
LINE
  5
1301
330
78B
100
AcDbEntity
  8
0
 62
     0
370
    -2
100
AcDbLine
 10
10835.26811686644
 20
3698.351926525505
 30
0.0
 11
10264.57505113351
 21
3698.351926525505
 31
0.0
  0
LINE
  5
1302
330
78B
100
AcDbEntity
  8
0
 62
     0
370
    -2
100
AcDbLine
 10
10835.26811686644
 20
-301.648073474495
 30
0.0
 11
10264.57505113351
 21
-301.6480734744948
 31
0.0
  0
LINE
  5
1303
330
78B
100
AcDbEntity
  8
0
 62
     0
370
    -2
100
AcDbLine
 10
10339.57505113352
 20
3773.351926525505
 30
0.0
 11
10339.57505113352
 21
-376.6480734744948
 31
0.0
  0
INSERT
  5
1304
330
78B
100
AcDbEntity
  8
0
 62
     0
370
    -2
100
AcDbBlockReference
  2
_ArchTick
 10
10339.57505113352
 20
3698.351926525505
 30
0.0
 41
100.0
 42
100.0
 43
100.0
 50
90.0
  0
INSERT
  5
1305
330
78B
100
AcDbEntity
  8
0
 62
     0
370
    -2
100
AcDbBlockReference
  2
_ArchTick
 10
10339.57505113352
 20
-301.6480734744948
 30
0.0
 41
100.0
 42
100.0
 43
100.0
 50
270.0
  0
MTEXT
  5
1306
330
78B
100
AcDbEntity
  8
0
 62
     0
100
AcDbMText
 10
10238.51775236134
 20
1698.351926525506
 30
0.0
 40
100.0
 41
0.0
 71
     5
 72
     1
  1
~4000
 11
0.0000000000000001
 21
1.0
 31
0.0
 73
     1
 44
1.0
1001
ACAD
1000
MTEXTBEGIN
1070
    73
1070
     1
1070
    44
1040
1.0
1070
    74
1070
     0
1000
MTEXTEND
  0
POINT
  5
1307
330
78B
100
AcDbEntity
  8
Defpoints
 62
     0
100
AcDbPoint
 10
10960.26811686644
 20
3698.351926525505
 30
0.0
  0
POINT
  5
1308
330
78B
100
AcDbEntity
  8
Defpoints
 62
     0
100
AcDbPoint
 10
10960.26811686644
 20
-301.6480734744951
 30
0.0
  0
POINT
  5
1309
330
78B
100
AcDbEntity
  8
Defpoints
 62
     0
100
AcDbPoint
 10
10339.57505113352
 20
-301.6480734744948
 30
0.0
  0
ENDBLK
  5
78D
330
78B
100
AcDbEntity
  8
0
100
AcDbBlockEnd
  0
BLOCK
  5
8BB
330
8BA
100
AcDbEntity
  8
0
100
AcDbBlockBegin
  2
*D20
 70
     1
 10
0.0
 20
0.0
 30
0.0
  3
*D20
  1

  0
LINE
  5
97D
330
8BA
100
AcDbEntity
  8
0
 62
     0
370
    -2
100
AcDbLine
 10
-139.5987877901575
 20
17835.63705289064
 30
0.0
 11
-139.5987877901575
 21
18105.44711299433
 31
0.0
  0
LINE
  5
97E
330
8BA
100
AcDbEntity
  8
0
 62
     0
370
    -2
100
AcDbLine
 10
760.4012122098429
 20
17835.63705289063
 30
0.0
 11
760.4012122098429
 21
18105.44711299433
 31
0.0
  0
LINE
  5
97F
330
8BA
100
AcDbEntity
  8
0
 62
     0
370
    -2
100
AcDbLine
 10
-214.5987877901575
 20
18030.44711299433
 30
0.0
 11
835.401212209843
 21
18030.44711299433
 31
0.0
  0
INSERT
  5
980
330
8BA
100
AcDbEntity
  8
0
 62
     0
370
    -2
100
AcDbBlockReference
  2
_ArchTick
 10
-139.5987877901575
 20
18030.44711299433
 30
0.0
 41
100.0
 42
100.0
 43
100.0
 50
180.0
  0
INSERT
  5
981
330
8BA
100
AcDbEntity
  8
0
 62
     0
370
    -2
100
AcDbBlockReference
  2
_ArchTick
 10
760.4012122098429
 20
18030.44711299433
 30
0.0
 41
100.0
 42
100.0
 43
100.0
  0
MTEXT
  5
982
330
8BA
100
AcDbEntity
  8
0
 62
     0
100
AcDbMText
 10
310.4012122098427
 20
18131.5044117665
 30
0.0
 40
100.0
 41
0.0
 71
     5
 72
     1
  1
~900
 73
     1
 44
1.0
1001
ACAD
1000
MTEXTBEGIN
1070
    73
1070
     1
1070
    44
1040
1.0
1070
    74
1070
     0
1000
MTEXTEND
  0
POINT
  5
983
330
8BA
100
AcDbEntity
  8
Defpoints
 62
     0
100
AcDbPoint
 10
-139.5987877901575
 20
17710.63705289064
 30
0.0
  0
POINT
  5
984
330
8BA
100
AcDbEntity
  8
Defpoints
 62
     0
100
AcDbPoint
 10
760.4012122098429
 20
17710.63705289063
 30
0.0
  0
POINT
  5
985
330
8BA
100
AcDbEntity
  8
Defpoints
 62
     0
100
AcDbPoint
 10
760.4012122098429
 20
18030.44711299433
 30
0.0
  0
ENDBLK
  5
8BC
330
8BA
100
AcDbEntity
  8
0
100
AcDbBlockEnd
  0
BLOCK
  5
8C8
330
8C7
100
AcDbEntity
  8
0
100
AcDbBlockBegin
  2
*D21
 70
     1
 10
0.0
 20
0.0
 30
0.0
  3
*D21
  1

  0
LINE
  5
986
330
8C7
100
AcDbEntity
  8
0
 62
     0
370
    -2
100
AcDbLine
 10
-264.5987877901575
 20
17710.63705289063
 30
0.0
 11
-556.3646747348391
 21
17710.63705289063
 31
0.0
  0
LINE
  5
987
330
8C7
100
AcDbEntity
  8
0
 62
     0
370
    -2
100
AcDbLine
 10
-264.5987877901571
 20
16810.63705289063
 30
0.0
 11
-556.3646747348393
 21
16810.63705289063
 31
0.0
  0
LINE
  5
988
330
8C7
100
AcDbEntity
  8
0
 62
     0
370
    -2
100
AcDbLine
 10
-481.3646747348392
 20
17785.63705289063
 30
0.0
 11
-481.3646747348394
 21
16735.63705289063
 31
0.0
  0
INSERT
  5
989
330
8C7
100
AcDbEntity
  8
0
 62
     0
370
    -2
100
AcDbBlockReference
  2
_ArchTick
 10
-481.3646747348392
 20
17710.63705289063
 30
0.0
 41
100.0
 42
100.0
 43
100.0
 50
90.0
  0
INSERT
  5
98A
330
8C7
100
AcDbEntity
  8
0
 62
     0
370
    -2
100
AcDbBlockReference
  2
_ArchTick
 10
-481.3646747348393
 20
16810.63705289063
 30
0.0
 41
100.0
 42
100.0
 43
100.0
 50
270.0
  0
MTEXT
  5
98B
330
8C7
100
AcDbEntity
  8
0
 62
     0
100
AcDbMText
 10
-582.4219735070112
 20
17260.63705289063
 30
0.0
 40
100.0
 41
0.0
 71
     5
 72
     1
  1
~900
 11
0.0000000000000001
 21
1.0
 31
0.0
 73
     1
 44
1.0
1001
ACAD
1000
MTEXTBEGIN
1070
    73
1070
     1
1070
    44
1040
1.0
1070
    74
1070
     0
1000
MTEXTEND
  0
POINT
  5
98C
330
8C7
100
AcDbEntity
  8
Defpoints
 62
     0
100
AcDbPoint
 10
-139.5987877901575
 20
17710.63705289063
 30
0.0
  0
POINT
  5
98D
330
8C7
100
AcDbEntity
  8
Defpoints
 62
     0
100
AcDbPoint
 10
-139.5987877901571
 20
16810.63705289063
 30
0.0
  0
POINT
  5
98E
330
8C7
100
AcDbEntity
  8
Defpoints
 62
     0
100
AcDbPoint
 10
-481.3646747348393
 20
16810.63705289063
 30
0.0
  0
ENDBLK
  5
8C9
330
8C7
100
AcDbEntity
  8
0
100
AcDbBlockEnd
  0
BLOCK
  5
8D5
330
8D4
100
AcDbEntity
  8
0
100
AcDbBlockBegin
  2
*D22
 70
     1
 10
0.0
 20
0.0
 30
0.0
  3
*D22
  1

  0
LINE
  5
A09
330
8D4
100
AcDbEntity
  8
0
 62
     0
370
    -2
100
AcDbLine
 10
-264.5987877901575
 20
16275.31551691307
 30
0.0
 11
-555.9480080681732
 21
16275.31551691307
 31
0.0
  0
LINE
  5
A0A
330
8D4
100
AcDbEntity
  8
0
 62
     0
370
    -2
100
AcDbLine
 10
-264.5987877901575
 20
15675.31551691307
 30
0.0
 11
-555.9480080681732
 21
15675.31551691307
 31
0.0
  0
LINE
  5
A0B
330
8D4
100
AcDbEntity
  8
0
 62
     0
370
    -2
100
AcDbLine
 10
-480.9480080681731
 20
16350.31551691307
 30
0.0
 11
-480.9480080681733
 21
15600.31551691307
 31
0.0
  0
INSERT
  5
A0C
330
8D4
100
AcDbEntity
  8
0
 62
     0
370
    -2
100
AcDbBlockReference
  2
_ArchTick
 10
-480.9480080681731
 20
16275.31551691307
 30
0.0
 41
100.0
 42
100.0
 43
100.0
 50
90.0
  0
INSERT
  5
A0D
330
8D4
100
AcDbEntity
  8
0
 62
     0
370
    -2
100
AcDbBlockReference
  2
_ArchTick
 10
-480.9480080681733
 20
15675.31551691307
 30
0.0
 41
100.0
 42
100.0
 43
100.0
 50
270.0
  0
MTEXT
  5
A0E
330
8D4
100
AcDbEntity
  8
0
 62
     0
100
AcDbMText
 10
-582.0053068403449
 20
15975.31551691307
 30
0.0
 40
100.0
 41
0.0
 71
     5
 72
     1
  1
~600
 11
0.0000000000000001
 21
1.0
 31
0.0
 73
     1
 44
1.0
1001
ACAD
1000
MTEXTBEGIN
1070
    73
1070
     1
1070
    44
1040
1.0
1070
    74
1070
     0
1000
MTEXTEND
  0
POINT
  5
A0F
330
8D4
100
AcDbEntity
  8
Defpoints
 62
     0
100
AcDbPoint
 10
-139.5987877901575
 20
16275.31551691307
 30
0.0
  0
POINT
  5
A10
330
8D4
100
AcDbEntity
  8
Defpoints
 62
     0
100
AcDbPoint
 10
-139.5987877901575
 20
15675.31551691307
 30
0.0
  0
POINT
  5
A11
330
8D4
100
AcDbEntity
  8
Defpoints
 62
     0
100
AcDbPoint
 10
-480.9480080681733
 20
15675.31551691307
 30
0.0
  0
ENDBLK
  5
8D6
330
8D4
100
AcDbEntity
  8
0
100
AcDbBlockEnd
  0
BLOCK
  5
8ED
330
8EC
100
AcDbEntity
  8
0
100
AcDbBlockBegin
  2
*D23
 70
     1
 10
0.0
 20
0.0
 30
0.0
  3
*D23
  1

  0
LINE
  5
A59
330
8EC
100
AcDbEntity
  8
0
 62
     0
370
    -2
100
AcDbLine
 10
7487.685482524779
 20
17835.63705289064
 30
0.0
 11
7487.685482524779
 21
18105.44711299433
 31
0.0
  0
LINE
  5
A5A
330
8EC
100
AcDbEntity
  8
0
 62
     0
370
    -2
100
AcDbLine
 10
8387.685482524778
 20
17835.63705289063
 30
0.0
 11
8387.685482524778
 21
18105.44711299433
 31
0.0
  0
LINE
  5
A5B
330
8EC
100
AcDbEntity
  8
0
 62
     0
370
    -2
100
AcDbLine
 10
7412.685482524778
 20
18030.44711299433
 30
0.0
 11
8462.685482524779
 21
18030.44711299433
 31
0.0
  0
INSERT
  5
A5C
330
8EC
100
AcDbEntity
  8
0
 62
     0
370
    -2
100
AcDbBlockReference
  2
_ArchTick
 10
7487.685482524779
 20
18030.44711299433
 30
0.0
 41
100.0
 42
100.0
 43
100.0
 50
180.0
  0
INSERT
  5
A5D
330
8EC
100
AcDbEntity
  8
0
 62
     0
370
    -2
100
AcDbBlockReference
  2
_ArchTick
 10
8387.685482524778
 20
18030.44711299433
 30
0.0
 41
100.0
 42
100.0
 43
100.0
  0
MTEXT
  5
A5E
330
8EC
100
AcDbEntity
  8
0
 62
     0
100
AcDbMText
 10
7937.685482524779
 20
18131.5044117665
 30
0.0
 40
100.0
 41
0.0
 71
     5
 72
     1
  1
~900
 73
     1
 44
1.0
1001
ACAD
1000
MTEXTBEGIN
1070
    73
1070
     1
1070
    44
1040
1.0
1070
    74
1070
     0
1000
MTEXTEND
  0
POINT
  5
A5F
330
8EC
100
AcDbEntity
  8
Defpoints
 62
     0
100
AcDbPoint
 10
7487.685482524779
 20
17710.63705289064
 30
0.0
  0
POINT
  5
A60
330
8EC
100
AcDbEntity
  8
Defpoints
 62
     0
100
AcDbPoint
 10
8387.685482524778
 20
17710.63705289063
 30
0.0
  0
POINT
  5
A61
330
8EC
100
AcDbEntity
  8
Defpoints
 62
     0
100
AcDbPoint
 10
8387.685482524778
 20
18030.44711299433
 30
0.0
  0
ENDBLK
  5
8EE
330
8EC
100
AcDbEntity
  8
0
100
AcDbBlockEnd
  0
BLOCK
  5
9A5
330
9A4
100
AcDbEntity
  8
0
100
AcDbBlockBegin
  2
*D24
 70
     1
 10
0.0
 20
0.0
 30
0.0
  3
*D24
  1

  0
LINE
  5
A62
330
9A4
100
AcDbEntity
  8
0
 62
     0
370
    -2
100
AcDbLine
 10
7362.685482524779
 20
16275.31551691307
 30
0.0
 11
7071.336262246763
 21
16275.31551691307
 31
0.0
  0
LINE
  5
A63
330
9A4
100
AcDbEntity
  8
0
 62
     0
370
    -2
100
AcDbLine
 10
7362.685482524779
 20
15675.31551691307
 30
0.0
 11
7071.336262246763
 21
15675.31551691307
 31
0.0
  0
LINE
  5
A64
330
9A4
100
AcDbEntity
  8
0
 62
     0
370
    -2
100
AcDbLine
 10
7146.336262246762
 20
16350.31551691307
 30
0.0
 11
7146.336262246762
 21
15600.31551691307
 31
0.0
  0
INSERT
  5
A65
330
9A4
100
AcDbEntity
  8
0
 62
     0
370
    -2
100
AcDbBlockReference
  2
_ArchTick
 10
7146.336262246762
 20
16275.31551691307
 30
0.0
 41
100.0
 42
100.0
 43
100.0
 50
90.0
  0
INSERT
  5
A66
330
9A4
100
AcDbEntity
  8
0
 62
     0
370
    -2
100
AcDbBlockReference
  2
_ArchTick
 10
7146.336262246762
 20
15675.31551691307
 30
0.0
 41
100.0
 42
100.0
 43
100.0
 50
270.0
  0
MTEXT
  5
A67
330
9A4
100
AcDbEntity
  8
0
 62
     0
100
AcDbMText
 10
7045.278963474591
 20
15975.31551691307
 30
0.0
 40
100.0
 41
0.0
 71
     5
 72
     1
  1
~600
 11
0.0000000000000001
 21
1.0
 31
0.0
 73
     1
 44
1.0
1001
ACAD
1000
MTEXTBEGIN
1070
    73
1070
     1
1070
    44
1040
1.0
1070
    74
1070
     0
1000
MTEXTEND
  0
POINT
  5
A68
330
9A4
100
AcDbEntity
  8
Defpoints
 62
     0
100
AcDbPoint
 10
7487.685482524779
 20
16275.31551691307
 30
0.0
  0
POINT
  5
A69
330
9A4
100
AcDbEntity
  8
Defpoints
 62
     0
100
AcDbPoint
 10
7487.685482524779
 20
15675.31551691307
 30
0.0
  0
POINT
  5
A6A
330
9A4
100
AcDbEntity
  8
Defpoints
 62
     0
100
AcDbPoint
 10
7146.336262246762
 20
15675.31551691307
 30
0.0
  0
ENDBLK
  5
9A6
330
9A4
100
AcDbEntity
  8
0
100
AcDbBlockEnd
  0
BLOCK
  5
9BB
330
9BA
100
AcDbEntity
  8
0
100
AcDbBlockBegin
  2
*D25
 70
     1
 10
0.0
 20
0.0
 30
0.0
  3
*D25
  1

  0
LINE
  5
A6B
330
9BA
100
AcDbEntity
  8
0
 62
     0
370
    -2
100
AcDbLine
 10
2362.628504714179
 20
18885.63705289063
 30
0.0
 11
2362.628504714179
 21
19155.44711299433
 31
0.0
  0
LINE
  5
A6C
330
9BA
100
AcDbEntity
  8
0
 62
     0
370
    -2
100
AcDbLine
 10
5362.628504714179
 20
18885.63705289063
 30
0.0
 11
5362.628504714179
 21
19155.44711299433
 31
0.0
  0
LINE
  5
A6D
330
9BA
100
AcDbEntity
  8
0
 62
     0
370
    -2
100
AcDbLine
 10
2287.628504714179
 20
19080.44711299433
 30
0.0
 11
5437.628504714179
 21
19080.44711299433
 31
0.0
  0
INSERT
  5
A6E
330
9BA
100
AcDbEntity
  8
0
 62
     0
370
    -2
100
AcDbBlockReference
  2
_ArchTick
 10
2362.628504714179
 20
19080.44711299433
 30
0.0
 41
100.0
 42
100.0
 43
100.0
 50
180.0
  0
INSERT
  5
A6F
330
9BA
100
AcDbEntity
  8
0
 62
     0
370
    -2
100
AcDbBlockReference
  2
_ArchTick
 10
5362.628504714179
 20
19080.44711299433
 30
0.0
 41
100.0
 42
100.0
 43
100.0
  0
MTEXT
  5
A70
330
9BA
100
AcDbEntity
  8
0
 62
     0
100
AcDbMText
 10
3862.628504714179
 20
19181.5385181785
 30
0.0
 40
100.0
 41
0.0
 71
     5
 72
     1
  1
~3000
 73
     1
 44
1.0
1001
ACAD
1000
MTEXTBEGIN
1070
    73
1070
     1
1070
    44
1040
1.0
1070
    74
1070
     0
1000
MTEXTEND
  0
POINT
  5
A71
330
9BA
100
AcDbEntity
  8
Defpoints
 62
     0
100
AcDbPoint
 10
2362.628504714179
 20
18760.63705289063
 30
0.0
  0
POINT
  5
A72
330
9BA
100
AcDbEntity
  8
Defpoints
 62
     0
100
AcDbPoint
 10
5362.628504714179
 20
18760.63705289063
 30
0.0
  0
POINT
  5
A73
330
9BA
100
AcDbEntity
  8
Defpoints
 62
     0
100
AcDbPoint
 10
5362.628504714179
 20
19080.44711299433
 30
0.0
  0
ENDBLK
  5
9BC
330
9BA
100
AcDbEntity
  8
0
100
AcDbBlockEnd
  0
BLOCK
  5
9DA
330
9D9
100
AcDbEntity
  8
0
100
AcDbBlockBegin
  2
*D26
 70
     1
 10
0.0
 20
0.0
 30
0.0
  3
*D26
  1

  0
LINE
  5
A74
330
9D9
100
AcDbEntity
  8
0
 62
     0
370
    -2
100
AcDbLine
 10
2237.628504714179
 20
18760.63705289063
 30
0.0
 11
1946.279284436164
 21
18760.63705289063
 31
0.0
  0
LINE
  5
A75
330
9D9
100
AcDbEntity
  8
0
 62
     0
370
    -2
100
AcDbLine
 10
2237.628504714179
 20
15760.63705289063
 30
0.0
 11
1946.279284436163
 21
15760.63705289063
 31
0.0
  0
LINE
  5
A76
330
9D9
100
AcDbEntity
  8
0
 62
     0
370
    -2
100
AcDbLine
 10
2021.279284436164
 20
18835.63705289063
 30
0.0
 11
2021.279284436163
 21
15685.63705289063
 31
0.0
  0
INSERT
  5
A77
330
9D9
100
AcDbEntity
  8
0
 62
     0
370
    -2
100
AcDbBlockReference
  2
_ArchTick
 10
2021.279284436164
 20
18760.63705289063
 30
0.0
 41
100.0
 42
100.0
 43
100.0
 50
90.0
  0
INSERT
  5
A78
330
9D9
100
AcDbEntity
  8
0
 62
     0
370
    -2
100
AcDbBlockReference
  2
_ArchTick
 10
2021.279284436163
 20
15760.63705289063
 30
0.0
 41
100.0
 42
100.0
 43
100.0
 50
270.0
  0
MTEXT
  5
A79
330
9D9
100
AcDbEntity
  8
0
 62
     0
100
AcDbMText
 10
1920.187879251986
 20
17260.63705289063
 30
0.0
 40
100.0
 41
0.0
 71
     5
 72
     1
  1
~3000
 11
0.0000000000000001
 21
1.0
 31
0.0
 73
     1
 44
1.0
1001
ACAD
1000
MTEXTBEGIN
1070
    73
1070
     1
1070
    44
1040
1.0
1070
    74
1070
     0
1000
MTEXTEND
  0
POINT
  5
A7A
330
9D9
100
AcDbEntity
  8
Defpoints
 62
     0
100
AcDbPoint
 10
2362.628504714179
 20
18760.63705289063
 30
0.0
  0
POINT
  5
A7B
330
9D9
100
AcDbEntity
  8
Defpoints
 62
     0
100
AcDbPoint
 10
2362.628504714179
 20
15760.63705289063
 30
0.0
  0
POINT
  5
A7C
330
9D9
100
AcDbEntity
  8
Defpoints
 62
     0
100
AcDbPoint
 10
2021.279284436163
 20
15760.63705289063
 30
0.0
  0
ENDBLK
  5
9DB
330
9D9
100
AcDbEntity
  8
0
100
AcDbBlockEnd
  0
BLOCK
  5
A1E
330
A1D
100
AcDbEntity
  8
0
100
AcDbBlockBegin
  2
*D27
 70
     1
 10
0.0
 20
0.0
 30
0.0
  3
*D27
  1

  0
LINE
  5
A35
330
A1D
100
AcDbEntity
  8
0
 62
     0
370
    -2
100
AcDbLine
 10
10183.86355840696
 20
18885.63705289063
 30
0.0
 11
10183.86355840696
 21
19155.44711299433
 31
0.0
  0
LINE
  5
A36
330
A1D
100
AcDbEntity
  8
0
 62
     0
370
    -2
100
AcDbLine
 10
13183.86355840696
 20
18885.63705289063
 30
0.0
 11
13183.86355840696
 21
19155.44711299433
 31
0.0
  0
LINE
  5
A37
330
A1D
100
AcDbEntity
  8
0
 62
     0
370
    -2
100
AcDbLine
 10
10108.86355840696
 20
19080.44711299433
 30
0.0
 11
13258.86355840696
 21
19080.44711299433
 31
0.0
  0
INSERT
  5
A38
330
A1D
100
AcDbEntity
  8
0
 62
     0
370
    -2
100
AcDbBlockReference
  2
_ArchTick
 10
10183.86355840696
 20
19080.44711299433
 30
0.0
 41
100.0
 42
100.0
 43
100.0
 50
180.0
  0
INSERT
  5
A39
330
A1D
100
AcDbEntity
  8
0
 62
     0
370
    -2
100
AcDbBlockReference
  2
_ArchTick
 10
13183.86355840696
 20
19080.44711299433
 30
0.0
 41
100.0
 42
100.0
 43
100.0
  0
MTEXT
  5
A3A
330
A1D
100
AcDbEntity
  8
0
 62
     0
100
AcDbMText
 10
11683.86355840696
 20
19181.5385181785
 30
0.0
 40
100.0
 41
0.0
 71
     5
 72
     1
  1
~3000
 73
     1
 44
1.0
1001
ACAD
1000
MTEXTBEGIN
1070
    73
1070
     1
1070
    44
1040
1.0
1070
    74
1070
     0
1000
MTEXTEND
  0
POINT
  5
A3B
330
A1D
100
AcDbEntity
  8
Defpoints
 62
     0
100
AcDbPoint
 10
10183.86355840696
 20
18760.63705289063
 30
0.0
  0
POINT
  5
A3C
330
A1D
100
AcDbEntity
  8
Defpoints
 62
     0
100
AcDbPoint
 10
13183.86355840696
 20
18760.63705289063
 30
0.0
  0
POINT
  5
A3D
330
A1D
100
AcDbEntity
  8
Defpoints
 62
     0
100
AcDbPoint
 10
13183.86355840696
 20
19080.44711299433
 30
0.0
  0
ENDBLK
  5
A1F
330
A1D
100
AcDbEntity
  8
0
100
AcDbBlockEnd
  0
BLOCK
  5
A2A
330
A29
100
AcDbEntity
  8
0
100
AcDbBlockBegin
  2
*D28
 70
     1
 10
0.0
 20
0.0
 30
0.0
  3
*D28
  1

  0
LINE
  5
A3E
330
A29
100
AcDbEntity
  8
0
 62
     0
370
    -2
100
AcDbLine
 10
10058.86355840696
 20
18760.63705289063
 30
0.0
 11
9767.514338128947
 21
18760.63705289063
 31
0.0
  0
LINE
  5
A3F
330
A29
100
AcDbEntity
  8
0
 62
     0
370
    -2
100
AcDbLine
 10
10058.86355840696
 20
15760.63705289063
 30
0.0
 11
9767.514338128947
 21
15760.63705289063
 31
0.0
  0
LINE
  5
A40
330
A29
100
AcDbEntity
  8
0
 62
     0
370
    -2
100
AcDbLine
 10
9842.514338128948
 20
18835.63705289063
 30
0.0
 11
9842.514338128948
 21
15685.63705289063
 31
0.0
  0
INSERT
  5
A41
330
A29
100
AcDbEntity
  8
0
 62
     0
370
    -2
100
AcDbBlockReference
  2
_ArchTick
 10
9842.514338128948
 20
18760.63705289063
 30
0.0
 41
100.0
 42
100.0
 43
100.0
 50
90.0
  0
INSERT
  5
A42
330
A29
100
AcDbEntity
  8
0
 62
     0
370
    -2
100
AcDbBlockReference
  2
_ArchTick
 10
9842.514338128948
 20
15760.63705289063
 30
0.0
 41
100.0
 42
100.0
 43
100.0
 50
270.0
  0
MTEXT
  5
A43
330
A29
100
AcDbEntity
  8
0
 62
     0
100
AcDbMText
 10
9741.422932944772
 20
17260.63705289063
 30
0.0
 40
100.0
 41
0.0
 71
     5
 72
     1
  1
~3000
 11
0.0000000000000001
 21
1.0
 31
0.0
 73
     1
 44
1.0
1001
ACAD
1000
MTEXTBEGIN
1070
    73
1070
     1
1070
    44
1040
1.0
1070
    74
1070
     0
1000
MTEXTEND
  0
POINT
  5
A44
330
A29
100
AcDbEntity
  8
Defpoints
 62
     0
100
AcDbPoint
 10
10183.86355840696
 20
18760.63705289063
 30
0.0
  0
POINT
  5
A45
330
A29
100
AcDbEntity
  8
Defpoints
 62
     0
100
AcDbPoint
 10
10183.86355840696
 20
15760.63705289063
 30
0.0
  0
POINT
  5
A46
330
A29
100
AcDbEntity
  8
Defpoints
 62
     0
100
AcDbPoint
 10
9842.514338128948
 20
15760.63705289063
 30
0.0
  0
ENDBLK
  5
A2B
330
A29
100
AcDbEntity
  8
0
100
AcDbBlockEnd
  0
BLOCK
  5
D06
330
D05
100
AcDbEntity
  8
0
100
AcDbBlockBegin
  2
*D29
 70
     1
 10
0.0
 20
0.0
 30
0.0
  3
*D29
  1

  0
LINE
  5
D6B
330
D05
100
AcDbEntity
  8
0
 62
     0
370
    -2
100
AcDbLine
 10
23845.44700505966
 20
3419.678566540484
 30
0.0
 11
24225.41510756707
 21
3419.678566540484
 31
0.0
  0
LINE
  5
D6C
330
D05
100
AcDbEntity
  8
0
 62
     0
370
    -2
100
AcDbLine
 10
23845.44700505966
 20
2419.678566540484
 30
0.0
 11
24225.41510756707
 21
2419.678566540484
 31
0.0
  0
LINE
  5
D6D
330
D05
100
AcDbEntity
  8
0
 62
     0
370
    -2
100
AcDbLine
 10
24150.41510756707
 20
3494.678566540484
 30
0.0
 11
24150.41510756707
 21
2344.678566540484
 31
0.0
  0
INSERT
  5
D6E
330
D05
100
AcDbEntity
  8
0
 62
     0
370
    -2
100
AcDbBlockReference
  2
_ArchTick
 10
24150.41510756707
 20
3419.678566540484
 30
0.0
 41
100.0
 42
100.0
 43
100.0
 50
90.0
  0
INSERT
  5
D6F
330
D05
100
AcDbEntity
  8
0
 62
     0
370
    -2
100
AcDbBlockReference
  2
_ArchTick
 10
24150.41510756707
 20
2419.678566540484
 30
0.0
 41
100.0
 42
100.0
 43
100.0
 50
270.0
  0
MTEXT
  5
D70
330
D05
100
AcDbEntity
  8
0
 62
     0
100
AcDbMText
 10
24049.3578087949
 20
2919.678566540488
 30
0.0
 40
100.0
 41
0.0
 71
     5
 72
     1
  1
1000
 11
0.0000000000000001
 21
1.0
 31
0.0
 73
     1
 44
1.0
1001
ACAD
1000
MTEXTBEGIN
1070
    73
1070
     1
1070
    44
1040
1.0
1070
    74
1070
     0
1000
MTEXTEND
  0
POINT
  5
D71
330
D05
100
AcDbEntity
  8
Defpoints
 62
     0
100
AcDbPoint
 10
23720.44700505966
 20
3419.678566540484
 30
0.0
  0
POINT
  5
D72
330
D05
100
AcDbEntity
  8
Defpoints
 62
     0
100
AcDbPoint
 10
23720.44700505966
 20
2419.678566540484
 30
0.0
  0
POINT
  5
D73
330
D05
100
AcDbEntity
  8
Defpoints
 62
     0
100
AcDbPoint
 10
24150.41510756707
 20
2419.678566540484
 30
0.0
  0
ENDBLK
  5
D07
330
D05
100
AcDbEntity
  8
0
100
AcDbBlockEnd
  0
BLOCK
  5
D12
330
D11
100
AcDbEntity
  8
0
100
AcDbBlockBegin
  2
*D30
 70
     1
 10
0.0
 20
0.0
 30
0.0
  3
*D30
  1

  0
LINE
  5
D74
330
D11
100
AcDbEntity
  8
0
 62
     0
370
    -2
100
AcDbLine
 10
21353.28749711587
 20
1940.112451238732
 30
0.0
 11
21353.28749711587
 21
1916.174640138662
 31
0.0
  0
LINE
  5
D75
330
D11
100
AcDbEntity
  8
0
 62
     0
370
    -2
100
AcDbLine
 10
23353.28749711587
 20
1940.112451238732
 30
0.0
 11
23353.28749711587
 21
1916.174640138662
 31
0.0
  0
LINE
  5
D76
330
D11
100
AcDbEntity
  8
0
 62
     0
370
    -2
100
AcDbLine
 10
21278.28749711587
 20
1991.174640138662
 30
0.0
 11
23428.28749711587
 21
1991.174640138662
 31
0.0
  0
INSERT
  5
D77
330
D11
100
AcDbEntity
  8
0
 62
     0
370
    -2
100
AcDbBlockReference
  2
_ArchTick
 10
21353.28749711587
 20
1991.174640138662
 30
0.0
 41
100.0
 42
100.0
 43
100.0
 50
180.0
  0
INSERT
  5
D78
330
D11
100
AcDbEntity
  8
0
 62
     0
370
    -2
100
AcDbBlockReference
  2
_ArchTick
 10
23353.28749711587
 20
1991.174640138662
 30
0.0
 41
100.0
 42
100.0
 43
100.0
  0
MTEXT
  5
D79
330
D11
100
AcDbEntity
  8
0
 62
     0
100
AcDbMText
 10
22353.28749711587
 20
2092.231938910832
 30
0.0
 40
100.0
 41
0.0
 71
     5
 72
     1
  1
ca:2000
 73
     1
 44
1.0
1001
ACAD
1000
MTEXTBEGIN
1070
    73
1070
     1
1070
    44
1040
1.0
1070
    74
1070
     0
1000
MTEXTEND
  0
POINT
  5
D7A
330
D11
100
AcDbEntity
  8
Defpoints
 62
     0
100
AcDbPoint
 10
21353.28749711587
 20
2065.112451238732
 30
0.0
  0
POINT
  5
D7B
330
D11
100
AcDbEntity
  8
Defpoints
 62
     0
100
AcDbPoint
 10
23353.28749711587
 20
2065.112451238732
 30
0.0
  0
POINT
  5
D7C
330
D11
100
AcDbEntity
  8
Defpoints
 62
     0
100
AcDbPoint
 10
23353.28749711587
 20
1991.174640138662
 30
0.0
  0
ENDBLK
  5
D13
330
D11
100
AcDbEntity
  8
0
100
AcDbBlockEnd
  0
BLOCK
  5
D1E
330
D1D
100
AcDbEntity
  8
0
100
AcDbBlockBegin
  2
*D31
 70
     1
 10
0.0
 20
0.0
 30
0.0
  3
*D31
  1

  0
LINE
  5
D59
330
D1D
100
AcDbEntity
  8
0
 62
     0
370
    -2
100
AcDbLine
 10
20138.76276166973
 20
9417.698581367146
 30
0.0
 11
20138.76276166973
 21
10288.49626532008
 31
0.0
  0
LINE
  5
D5A
330
D1D
100
AcDbEntity
  8
0
 62
     0
370
    -2
100
AcDbLine
 10
24138.76276166973
 20
9417.698581367146
 30
0.0
 11
24138.76276166973
 21
10288.49626532008
 31
0.0
  0
LINE
  5
D5B
330
D1D
100
AcDbEntity
  8
0
 62
     0
370
    -2
100
AcDbLine
 10
20063.76276166973
 20
10213.49626532008
 30
0.0
 11
24213.76276166973
 21
10213.49626532008
 31
0.0
  0
INSERT
  5
D5C
330
D1D
100
AcDbEntity
  8
0
 62
     0
370
    -2
100
AcDbBlockReference
  2
_ArchTick
 10
20138.76276166973
 20
10213.49626532008
 30
0.0
 41
100.0
 42
100.0
 43
100.0
 50
180.0
  0
INSERT
  5
D5D
330
D1D
100
AcDbEntity
  8
0
 62
     0
370
    -2
100
AcDbBlockReference
  2
_ArchTick
 10
24138.76276166973
 20
10213.49626532008
 30
0.0
 41
100.0
 42
100.0
 43
100.0
  0
MTEXT
  5
D5E
330
D1D
100
AcDbEntity
  8
0
 62
     0
100
AcDbMText
 10
22138.76276166973
 20
10314.55356409225
 30
0.0
 40
100.0
 41
0.0
 71
     5
 72
     1
  1
4000
 73
     1
 44
1.0
1001
ACAD
1000
MTEXTBEGIN
1070
    73
1070
     1
1070
    44
1040
1.0
1070
    74
1070
     0
1000
MTEXTEND
  0
POINT
  5
D5F
330
D1D
100
AcDbEntity
  8
Defpoints
 62
     0
100
AcDbPoint
 10
20138.76276166973
 20
9292.698581367146
 30
0.0
  0
POINT
  5
D60
330
D1D
100
AcDbEntity
  8
Defpoints
 62
     0
100
AcDbPoint
 10
24138.76276166973
 20
9292.698581367146
 30
0.0
  0
POINT
  5
D61
330
D1D
100
AcDbEntity
  8
Defpoints
 62
     0
100
AcDbPoint
 10
24138.76276166973
 20
10213.49626532008
 30
0.0
  0
ENDBLK
  5
D1F
330
D1D
100
AcDbEntity
  8
0
100
AcDbBlockEnd
  0
BLOCK
  5
D2A
330
D29
100
AcDbEntity
  8
0
100
AcDbBlockBegin
  2
*D32
 70
     1
 10
0.0
 20
0.0
 30
0.0
  3
*D32
  1

  0
LINE
  5
D62
330
D29
100
AcDbEntity
  8
0
 62
     0
370
    -2
100
AcDbLine
 10
24263.76276166973
 20
9292.698581367146
 30
0.0
 11
25379.80243420063
 21
9292.698581367146
 31
0.0
  0
LINE
  5
D63
330
D29
100
AcDbEntity
  8
0
 62
     0
370
    -2
100
AcDbLine
 10
24263.76276166973
 20
4292.698581367143
 30
0.0
 11
25379.80243420062
 21
4292.698581367143
 31
0.0
  0
LINE
  5
D64
330
D29
100
AcDbEntity
  8
0
 62
     0
370
    -2
100
AcDbLine
 10
25304.80243420063
 20
9367.698581367145
 30
0.0
 11
25304.80243420063
 21
4217.698581367144
 31
0.0
  0
INSERT
  5
D65
330
D29
100
AcDbEntity
  8
0
 62
     0
370
    -2
100
AcDbBlockReference
  2
_ArchTick
 10
25304.80243420063
 20
9292.698581367146
 30
0.0
 41
100.0
 42
100.0
 43
100.0
 50
90.0
  0
INSERT
  5
D66
330
D29
100
AcDbEntity
  8
0
 62
     0
370
    -2
100
AcDbBlockReference
  2
_ArchTick
 10
25304.80243420063
 20
4292.698581367143
 30
0.0
 41
100.0
 42
100.0
 43
100.0
 50
270.0
  0
MTEXT
  5
D67
330
D29
100
AcDbEntity
  8
0
 62
     0
100
AcDbMText
 10
25203.74513542846
 20
6792.698581367147
 30
0.0
 40
100.0
 41
0.0
 71
     5
 72
     1
  1
5000
 11
0.0000000000000001
 21
1.0
 31
0.0
 73
     1
 44
1.0
1001
ACAD
1000
MTEXTBEGIN
1070
    73
1070
     1
1070
    44
1040
1.0
1070
    74
1070
     0
1000
MTEXTEND
  0
POINT
  5
D68
330
D29
100
AcDbEntity
  8
Defpoints
 62
     0
100
AcDbPoint
 10
24138.76276166973
 20
9292.698581367146
 30
0.0
  0
POINT
  5
D69
330
D29
100
AcDbEntity
  8
Defpoints
 62
     0
100
AcDbPoint
 10
24138.76276166973
 20
4292.698581367143
 30
0.0
  0
POINT
  5
D6A
330
D29
100
AcDbEntity
  8
Defpoints
 62
     0
100
AcDbPoint
 10
25304.80243420063
 20
4292.698581367143
 30
0.0
  0
ENDBLK
  5
D2B
330
D29
100
AcDbEntity
  8
0
100
AcDbBlockEnd
  0
BLOCK
  5
DAB
330
DAA
100
AcDbEntity
  8
0
100
AcDbBlockBegin
  2
*D33
 70
     1
 10
0.0
 20
0.0
 30
0.0
  3
*D33
  1

  0
LINE
  5
130B
330
DAA
100
AcDbEntity
  8
0
 62
     0
370
    -2
100
AcDbLine
 10
18500.18086458112
 20
19040.47396376223
 30
0.0
 11
18500.18086458112
 21
19500.6528827279
 31
0.0
  0
LINE
  5
130C
330
DAA
100
AcDbEntity
  8
0
 62
     0
370
    -2
100
AcDbLine
 10
21000.18086458113
 20
19040.47396376223
 30
0.0
 11
21000.18086458113
 21
19500.6528827279
 31
0.0
  0
LINE
  5
130D
330
DAA
100
AcDbEntity
  8
0
 62
     0
370
    -2
100
AcDbLine
 10
18425.18086458112
 20
19425.65288272789
 30
0.0
 11
21075.18086458112
 21
19425.65288272789
 31
0.0
  0
INSERT
  5
130E
330
DAA
100
AcDbEntity
  8
0
 62
     0
370
    -2
100
AcDbBlockReference
  2
_ArchTick
 10
18500.18086458112
 20
19425.65288272789
 30
0.0
 41
100.0
 42
100.0
 43
100.0
 50
180.0
  0
INSERT
  5
130F
330
DAA
100
AcDbEntity
  8
0
 62
     0
370
    -2
100
AcDbBlockReference
  2
_ArchTick
 10
21000.18086458113
 20
19425.65288272789
 30
0.0
 41
100.0
 42
100.0
 43
100.0
  0
MTEXT
  5
1310
330
DAA
100
AcDbEntity
  8
0
 62
     0
100
AcDbMText
 10
19750.18086458112
 20
19526.71018150006
 30
0.0
 40
100.0
 41
0.0
 71
     5
 72
     1
  1
2500
 73
     1
 44
1.0
1001
ACAD
1000
MTEXTBEGIN
1070
    73
1070
     1
1070
    44
1040
1.0
1070
    74
1070
     0
1000
MTEXTEND
  0
POINT
  5
1311
330
DAA
100
AcDbEntity
  8
Defpoints
 62
     0
100
AcDbPoint
 10
18500.18086458112
 20
18915.47396376223
 30
0.0
  0
POINT
  5
1312
330
DAA
100
AcDbEntity
  8
Defpoints
 62
     0
100
AcDbPoint
 10
21000.18086458113
 20
18915.47396376223
 30
0.0
  0
POINT
  5
1313
330
DAA
100
AcDbEntity
  8
Defpoints
 62
     0
100
AcDbPoint
 10
21000.18086458113
 20
19425.65288272789
 30
0.0
  0
ENDBLK
  5
DAC
330
DAA
100
AcDbEntity
  8
0
100
AcDbBlockEnd
  0
BLOCK
  5
DC3
330
DC2
100
AcDbEntity
  8
0
100
AcDbBlockBegin
  2
*D34
 70
     1
 10
0.0
 20
0.0
 30
0.0
  3
*D34
  1

  0
LINE
  5
1314
330
DC2
100
AcDbEntity
  8
0
 62
     0
370
    -2
100
AcDbLine
 10
18375.18086458112
 20
18915.47396376223
 30
0.0
 11
17920.29556578726
 21
18915.47396376223
 31
0.0
  0
LINE
  5
1315
330
DC2
100
AcDbEntity
  8
0
 62
     0
370
    -2
100
AcDbLine
 10
18375.18086458112
 20
16415.47396376223
 30
0.0
 11
17920.29556578726
 21
16415.47396376223
 31
0.0
  0
LINE
  5
1316
330
DC2
100
AcDbEntity
  8
0
 62
     0
370
    -2
100
AcDbLine
 10
17995.29556578726
 20
18990.47396376223
 30
0.0
 11
17995.29556578726
 21
16340.47396376223
 31
0.0
  0
INSERT
  5
1317
330
DC2
100
AcDbEntity
  8
0
 62
     0
370
    -2
100
AcDbBlockReference
  2
_ArchTick
 10
17995.29556578726
 20
18915.47396376223
 30
0.0
 41
100.0
 42
100.0
 43
100.0
 50
90.0
  0
INSERT
  5
1318
330
DC2
100
AcDbEntity
  8
0
 62
     0
370
    -2
100
AcDbBlockReference
  2
_ArchTick
 10
17995.29556578726
 20
16415.47396376223
 30
0.0
 41
100.0
 42
100.0
 43
100.0
 50
270.0
  0
MTEXT
  5
1319
330
DC2
100
AcDbEntity
  8
0
 62
     0
100
AcDbMText
 10
17894.23826701509
 20
17665.47396376223
 30
0.0
 40
100.0
 41
0.0
 71
     5
 72
     1
  1
2500
 11
0.0000000000000001
 21
1.0
 31
0.0
 73
     1
 44
1.0
1001
ACAD
1000
MTEXTBEGIN
1070
    73
1070
     1
1070
    44
1040
1.0
1070
    74
1070
     0
1000
MTEXTEND
  0
POINT
  5
131A
330
DC2
100
AcDbEntity
  8
Defpoints
 62
     0
100
AcDbPoint
 10
18500.18086458112
 20
18915.47396376223
 30
0.0
  0
POINT
  5
131B
330
DC2
100
AcDbEntity
  8
Defpoints
 62
     0
100
AcDbPoint
 10
18500.18086458112
 20
16415.47396376223
 30
0.0
  0
POINT
  5
131C
330
DC2
100
AcDbEntity
  8
Defpoints
 62
     0
100
AcDbPoint
 10
17995.29556578726
 20
16415.47396376223
 30
0.0
  0
ENDBLK
  5
DC4
330
DC2
100
AcDbEntity
  8
0
100
AcDbBlockEnd
  0
BLOCK
  5
DE4
330
DE3
100
AcDbEntity
  8
0
100
AcDbBlockBegin
  2
*D35
 70
     1
 10
0.0
 20
0.0
 30
0.0
  3
*D35
  1

  0
LINE
  5
F1E
330
DE3
100
AcDbEntity
  8
0
 62
     0
370
    -2
100
AcDbLine
 10
18627.82345942226
 20
15168.74872352314
 30
0.0
 11
18559.8202218253
 21
15168.74872352314
 31
0.0
  0
LINE
  5
F1F
330
DE3
100
AcDbEntity
  8
0
 62
     0
370
    -2
100
AcDbLine
 10
18627.82345942226
 20
14868.74872352314
 30
0.0
 11
18559.8202218253
 21
14868.74872352314
 31
0.0
  0
LINE
  5
F20
330
DE3
100
AcDbEntity
  8
0
 62
     0
370
    -2
100
AcDbLine
 10
18634.8202218253
 20
15243.74872352314
 30
0.0
 11
18634.8202218253
 21
14868.74872352314
 31
0.0
  0
LINE
  5
F21
330
DE3
100
AcDbEntity
  8
0
 62
     0
370
    -2
100
AcDbLine
 10
18634.8202218253
 20
14868.74872352314
 30
0.0
 11
18634.8202218253
 21
14366.70233880281
 31
0.0
  0
INSERT
  5
F22
330
DE3
100
AcDbEntity
  8
0
 62
     0
370
    -2
100
AcDbBlockReference
  2
_ArchTick
 10
18634.8202218253
 20
15168.74872352314
 30
0.0
 41
100.0
 42
100.0
 43
100.0
 50
90.0
  0
INSERT
  5
F23
330
DE3
100
AcDbEntity
  8
0
 62
     0
370
    -2
100
AcDbBlockReference
  2
_ArchTick
 10
18634.8202218253
 20
14868.74872352314
 30
0.0
 41
100.0
 42
100.0
 43
100.0
 50
270.0
  0
MTEXT
  5
F24
330
DE3
100
AcDbEntity
  8
0
 62
     0
100
AcDbMText
 10
18533.72881664112
 20
14567.72553116297
 30
0.0
 40
100.0
 41
0.0
 71
     5
 72
     1
  1
~300
 11
0.0000000000000001
 21
1.0
 31
0.0
 73
     1
 44
1.0
1001
ACAD
1000
MTEXTBEGIN
1070
    73
1070
     1
1070
    44
1040
1.0
1070
    74
1070
     0
1000
MTEXTEND
  0
POINT
  5
F25
330
DE3
100
AcDbEntity
  8
Defpoints
 62
     0
100
AcDbPoint
 10
18752.82345942226
 20
15168.74872352314
 30
0.0
  0
POINT
  5
F26
330
DE3
100
AcDbEntity
  8
Defpoints
 62
     0
100
AcDbPoint
 10
18752.82345942226
 20
14868.74872352314
 30
0.0
  0
POINT
  5
F27
330
DE3
100
AcDbEntity
  8
Defpoints
 62
     0
100
AcDbPoint
 10
18634.8202218253
 20
14868.74872352314
 30
0.0
  0
ENDBLK
  5
DE5
330
DE3
100
AcDbEntity
  8
0
100
AcDbBlockEnd
  0
BLOCK
  5
DFC
330
DFB
100
AcDbEntity
  8
0
100
AcDbBlockBegin
  2
*D36
 70
     1
 10
0.0
 20
0.0
 30
0.0
  3
*D36
  1

  0
LINE
  5
F15
330
DFB
100
AcDbEntity
  8
0
 62
     0
370
    -2
100
AcDbLine
 10
18752.82345942226
 20
15293.74872352314
 30
0.0
 11
18752.82345942226
 21
15396.61047840265
 31
0.0
  0
LINE
  5
F16
330
DFB
100
AcDbEntity
  8
0
 62
     0
370
    -2
100
AcDbLine
 10
19252.82345942226
 20
15293.74872352314
 30
0.0
 11
19252.82345942226
 21
15396.61047840265
 31
0.0
  0
LINE
  5
F17
330
DFB
100
AcDbEntity
  8
0
 62
     0
370
    -2
100
AcDbLine
 10
18677.82345942226
 20
15321.61047840265
 30
0.0
 11
19327.82345942226
 21
15321.61047840265
 31
0.0
  0
INSERT
  5
F18
330
DFB
100
AcDbEntity
  8
0
 62
     0
370
    -2
100
AcDbBlockReference
  2
_ArchTick
 10
18752.82345942226
 20
15321.61047840265
 30
0.0
 41
100.0
 42
100.0
 43
100.0
 50
180.0
  0
INSERT
  5
F19
330
DFB
100
AcDbEntity
  8
0
 62
     0
370
    -2
100
AcDbBlockReference
  2
_ArchTick
 10
19252.82345942226
 20
15321.61047840265
 30
0.0
 41
100.0
 42
100.0
 43
100.0
  0
MTEXT
  5
F1A
330
DFB
100
AcDbEntity
  8
0
 62
     0
100
AcDbMText
 10
19002.82345942226
 20
15422.66777717482
 30
0.0
 40
100.0
 41
0.0
 71
     5
 72
     1
  1
~500
 73
     1
 44
1.0
1001
ACAD
1000
MTEXTBEGIN
1070
    73
1070
     1
1070
    44
1040
1.0
1070
    74
1070
     0
1000
MTEXTEND
  0
POINT
  5
F1B
330
DFB
100
AcDbEntity
  8
Defpoints
 62
     0
100
AcDbPoint
 10
18752.82345942226
 20
15168.74872352314
 30
0.0
  0
POINT
  5
F1C
330
DFB
100
AcDbEntity
  8
Defpoints
 62
     0
100
AcDbPoint
 10
19252.82345942226
 20
15168.74872352314
 30
0.0
  0
POINT
  5
F1D
330
DFB
100
AcDbEntity
  8
Defpoints
 62
     0
100
AcDbPoint
 10
19252.82345942226
 20
15321.61047840265
 30
0.0
  0
ENDBLK
  5
DFD
330
DFB
100
AcDbEntity
  8
0
100
AcDbBlockEnd
  0
BLOCK
  5
E27
330
E26
100
AcDbEntity
  8
0
100
AcDbBlockBegin
  2
*D37
 70
     1
 10
0.0
 20
0.0
 30
0.0
  3
*D37
  1

  0
LINE
  5
F86
330
E26
100
AcDbEntity
  8
0
 62
     0
370
    -2
100
AcDbLine
 10
20229.2823445722
 20
15168.74872352313
 30
0.0
 11
20161.27910697523
 21
15168.74872352313
 31
0.0
  0
LINE
  5
F87
330
E26
100
AcDbEntity
  8
0
 62
     0
370
    -2
100
AcDbLine
 10
20229.2823445722
 20
14868.74872352314
 30
0.0
 11
20161.27910697523
 21
14868.74872352314
 31
0.0
  0
LINE
  5
F88
330
E26
100
AcDbEntity
  8
0
 62
     0
370
    -2
100
AcDbLine
 10
20236.27910697523
 20
15243.74872352313
 30
0.0
 11
20236.27910697523
 21
14868.74872352314
 31
0.0
  0
LINE
  5
F89
330
E26
100
AcDbEntity
  8
0
 62
     0
370
    -2
100
AcDbLine
 10
20236.27910697523
 20
14868.74872352314
 30
0.0
 11
20236.27910697523
 21
14366.7023388028
 31
0.0
  0
INSERT
  5
F8A
330
E26
100
AcDbEntity
  8
0
 62
     0
370
    -2
100
AcDbBlockReference
  2
_ArchTick
 10
20236.27910697523
 20
15168.74872352313
 30
0.0
 41
100.0
 42
100.0
 43
100.0
 50
90.0
  0
INSERT
  5
F8B
330
E26
100
AcDbEntity
  8
0
 62
     0
370
    -2
100
AcDbBlockReference
  2
_ArchTick
 10
20236.27910697523
 20
14868.74872352314
 30
0.0
 41
100.0
 42
100.0
 43
100.0
 50
270.0
  0
MTEXT
  5
F8C
330
E26
100
AcDbEntity
  8
0
 62
     0
100
AcDbMText
 10
20135.18770179105
 20
14567.72553116297
 30
0.0
 40
100.0
 41
0.0
 71
     5
 72
     1
  1
~300
 11
0.0000000000000001
 21
1.0
 31
0.0
 73
     1
 44
1.0
1001
ACAD
1000
MTEXTBEGIN
1070
    73
1070
     1
1070
    44
1040
1.0
1070
    74
1070
     0
1000
MTEXTEND
  0
POINT
  5
F8D
330
E26
100
AcDbEntity
  8
Defpoints
 62
     0
100
AcDbPoint
 10
20354.28234457219
 20
15168.74872352313
 30
0.0
  0
POINT
  5
F8E
330
E26
100
AcDbEntity
  8
Defpoints
 62
     0
100
AcDbPoint
 10
20354.28234457219
 20
14868.74872352314
 30
0.0
  0
POINT
  5
F8F
330
E26
100
AcDbEntity
  8
Defpoints
 62
     0
100
AcDbPoint
 10
20236.27910697523
 20
14868.74872352314
 30
0.0
  0
ENDBLK
  5
E28
330
E26
100
AcDbEntity
  8
0
100
AcDbBlockEnd
  0
BLOCK
  5
E33
330
E32
100
AcDbEntity
  8
0
100
AcDbBlockBegin
  2
*D38
 70
     1
 10
0.0
 20
0.0
 30
0.0
  3
*D38
  1

  0
LINE
  5
F90
330
E32
100
AcDbEntity
  8
0
 62
     0
370
    -2
100
AcDbLine
 10
20354.28234457219
 20
15293.74872352313
 30
0.0
 11
20354.28234457219
 21
15396.61047840265
 31
0.0
  0
LINE
  5
F91
330
E32
100
AcDbEntity
  8
0
 62
     0
370
    -2
100
AcDbLine
 10
20854.2823445722
 20
15293.74872352314
 30
0.0
 11
20854.2823445722
 21
15396.61047840265
 31
0.0
  0
LINE
  5
F92
330
E32
100
AcDbEntity
  8
0
 62
     0
370
    -2
100
AcDbLine
 10
20279.2823445722
 20
15321.61047840265
 30
0.0
 11
20929.28234457219
 21
15321.61047840265
 31
0.0
  0
INSERT
  5
F93
330
E32
100
AcDbEntity
  8
0
 62
     0
370
    -2
100
AcDbBlockReference
  2
_ArchTick
 10
20354.28234457219
 20
15321.61047840265
 30
0.0
 41
100.0
 42
100.0
 43
100.0
 50
180.0
  0
INSERT
  5
F94
330
E32
100
AcDbEntity
  8
0
 62
     0
370
    -2
100
AcDbBlockReference
  2
_ArchTick
 10
20854.2823445722
 20
15321.61047840265
 30
0.0
 41
100.0
 42
100.0
 43
100.0
  0
MTEXT
  5
F95
330
E32
100
AcDbEntity
  8
0
 62
     0
100
AcDbMText
 10
20604.2823445722
 20
15422.66777717482
 30
0.0
 40
100.0
 41
0.0
 71
     5
 72
     1
  1
~500
 73
     1
 44
1.0
1001
ACAD
1000
MTEXTBEGIN
1070
    73
1070
     1
1070
    44
1040
1.0
1070
    74
1070
     0
1000
MTEXTEND
  0
POINT
  5
F96
330
E32
100
AcDbEntity
  8
Defpoints
 62
     0
100
AcDbPoint
 10
20354.28234457219
 20
15168.74872352313
 30
0.0
  0
POINT
  5
F97
330
E32
100
AcDbEntity
  8
Defpoints
 62
     0
100
AcDbPoint
 10
20854.2823445722
 20
15168.74872352314
 30
0.0
  0
POINT
  5
F98
330
E32
100
AcDbEntity
  8
Defpoints
 62
     0
100
AcDbPoint
 10
20854.2823445722
 20
15321.61047840265
 30
0.0
  0
ENDBLK
  5
E34
330
E32
100
AcDbEntity
  8
0
100
AcDbBlockEnd
  0
BLOCK
  5
E64
330
E63
100
AcDbEntity
  8
0
100
AcDbBlockBegin
  2
*D39
 70
     1
 10
0.0
 20
0.0
 30
0.0
  3
*D39
  1

  0
LINE
  5
FC8
330
E63
100
AcDbEntity
  8
0
 62
     0
370
    -2
100
AcDbLine
 10
22064.97386711057
 20
15294.37372352314
 30
0.0
 11
22064.97386711057
 21
15396.19381173598
 31
0.0
  0
LINE
  5
FC9
330
E63
100
AcDbEntity
  8
0
 62
     0
370
    -2
100
AcDbLine
 10
22267.50582742638
 20
15294.37372352314
 30
0.0
 11
22267.50582742638
 21
15396.19381173598
 31
0.0
  0
LINE
  5
FCA
330
E63
100
AcDbEntity
  8
0
 62
     0
370
    -2
100
AcDbLine
 10
21989.97386711057
 20
15321.19381173598
 30
0.0
 11
22267.50582742638
 21
15321.19381173598
 31
0.0
  0
LINE
  5
FCB
330
E63
100
AcDbEntity
  8
0
 62
     0
370
    -2
100
AcDbLine
 10
22267.50582742638
 20
15321.19381173598
 30
0.0
 11
22767.84689154643
 21
15321.19381173598
 31
0.0
  0
INSERT
  5
FCC
330
E63
100
AcDbEntity
  8
0
 62
     0
370
    -2
100
AcDbBlockReference
  2
_ArchTick
 10
22064.97386711057
 20
15321.19381173598
 30
0.0
 41
100.0
 42
100.0
 43
100.0
 50
180.0
  0
INSERT
  5
FCD
330
E63
100
AcDbEntity
  8
0
 62
     0
370
    -2
100
AcDbBlockReference
  2
_ArchTick
 10
22267.50582742638
 20
15321.19381173598
 30
0.0
 41
100.0
 42
100.0
 43
100.0
  0
MTEXT
  5
FCE
330
E63
100
AcDbEntity
  8
0
 62
     0
100
AcDbMText
 10
22567.67635948641
 20
15422.28521692016
 30
0.0
 40
100.0
 41
0.0
 71
     5
 72
     1
  1
<300
 73
     1
 44
1.0
1001
ACAD
1000
MTEXTBEGIN
1070
    73
1070
     1
1070
    44
1040
1.0
1070
    74
1070
     0
1000
MTEXTEND
  0
POINT
  5
FCF
330
E63
100
AcDbEntity
  8
Defpoints
 62
     0
100
AcDbPoint
 10
22064.97386711057
 20
15169.37372352314
 30
0.0
  0
POINT
  5
FD0
330
E63
100
AcDbEntity
  8
Defpoints
 62
     0
100
AcDbPoint
 10
22267.50582742638
 20
15169.37372352314
 30
0.0
  0
POINT
  5
FD1
330
E63
100
AcDbEntity
  8
Defpoints
 62
     0
100
AcDbPoint
 10
22267.50582742638
 20
15321.19381173598
 30
0.0
  0
ENDBLK
  5
E65
330
E63
100
AcDbEntity
  8
0
100
AcDbBlockEnd
  0
BLOCK
  5
E71
330
E70
100
AcDbEntity
  8
0
100
AcDbBlockBegin
  2
*D40
 70
     1
 10
0.0
 20
0.0
 30
0.0
  3
*D40
  1

  0
LINE
  5
F28
330
E70
100
AcDbEntity
  8
0
 62
     0
370
    -2
100
AcDbLine
 10
19815.27513530699
 20
14543.77939505373
 30
0.0
 11
19943.82094007762
 21
14543.77939505373
 31
0.0
  0
LINE
  5
F29
330
E70
100
AcDbEntity
  8
0
 62
     0
370
    -2
100
AcDbLine
 10
19815.27513530699
 20
14034.18406682594
 30
0.0
 11
19943.82094007762
 21
14034.18406682594
 31
0.0
  0
LINE
  5
F2A
330
E70
100
AcDbEntity
  8
0
 62
     0
370
    -2
100
AcDbLine
 10
19868.82094007762
 20
14618.77939505373
 30
0.0
 11
19868.82094007762
 21
13959.18406682594
 31
0.0
  0
INSERT
  5
F2B
330
E70
100
AcDbEntity
  8
0
 62
     0
370
    -2
100
AcDbBlockReference
  2
_ArchTick
 10
19868.82094007762
 20
14543.77939505373
 30
0.0
 41
100.0
 42
100.0
 43
100.0
 50
90.0
  0
INSERT
  5
F2C
330
E70
100
AcDbEntity
  8
0
 62
     0
370
    -2
100
AcDbBlockReference
  2
_ArchTick
 10
19868.82094007762
 20
14034.18406682594
 30
0.0
 41
100.0
 42
100.0
 43
100.0
 50
270.0
  0
MTEXT
  5
F2D
330
E70
100
AcDbEntity
  8
0
 62
     0
100
AcDbMText
 10
19767.76364130545
 20
14288.98173093983
 30
0.0
 40
100.0
 41
0.0
 71
     5
 72
     1
  1
<500
 11
0.0000000000000001
 21
1.0
 31
0.0
 73
     1
 44
1.0
1001
ACAD
1000
MTEXTBEGIN
1070
    73
1070
     1
1070
    44
1040
1.0
1070
    74
1070
     0
1000
MTEXTEND
  0
POINT
  5
F2E
330
E70
100
AcDbEntity
  8
Defpoints
 62
     0
100
AcDbPoint
 10
19690.27513530699
 20
14543.77939505373
 30
0.0
  0
POINT
  5
F2F
330
E70
100
AcDbEntity
  8
Defpoints
 62
     0
100
AcDbPoint
 10
19690.27513530699
 20
14034.18406682594
 30
0.0
  0
POINT
  5
F30
330
E70
100
AcDbEntity
  8
Defpoints
 62
     0
100
AcDbPoint
 10
19868.82094007762
 20
14034.18406682594
 30
0.0
  0
ENDBLK
  5
E72
330
E70
100
AcDbEntity
  8
0
100
AcDbBlockEnd
  0
BLOCK
  5
E89
330
E88
100
AcDbEntity
  8
0
100
AcDbBlockBegin
  2
*D41
 70
     1
 10
0.0
 20
0.0
 30
0.0
  3
*D41
  1

  0
LINE
  5
FA3
330
E88
100
AcDbEntity
  8
0
 62
     0
370
    -2
100
AcDbLine
 10
21425.63106639773
 20
14543.77939505373
 30
0.0
 11
21644.78087135157
 21
14543.77939505373
 31
0.0
  0
LINE
  5
FA4
330
E88
100
AcDbEntity
  8
0
 62
     0
370
    -2
100
AcDbLine
 10
21425.63106639773
 20
14043.77939505373
 30
0.0
 11
21644.78087135157
 21
14043.77939505373
 31
0.0
  0
LINE
  5
FA5
330
E88
100
AcDbEntity
  8
0
 62
     0
370
    -2
100
AcDbLine
 10
21569.78087135157
 20
14618.77939505373
 30
0.0
 11
21569.78087135157
 21
13968.77939505373
 31
0.0
  0
INSERT
  5
FA6
330
E88
100
AcDbEntity
  8
0
 62
     0
370
    -2
100
AcDbBlockReference
  2
_ArchTick
 10
21569.78087135157
 20
14543.77939505373
 30
0.0
 41
100.0
 42
100.0
 43
100.0
 50
90.0
  0
INSERT
  5
FA7
330
E88
100
AcDbEntity
  8
0
 62
     0
370
    -2
100
AcDbBlockReference
  2
_ArchTick
 10
21569.78087135157
 20
14043.77939505373
 30
0.0
 41
100.0
 42
100.0
 43
100.0
 50
270.0
  0
MTEXT
  5
FA8
330
E88
100
AcDbEntity
  8
0
 62
     0
100
AcDbMText
 10
21468.7235725794
 20
14293.77939505373
 30
0.0
 40
100.0
 41
0.0
 71
     5
 72
     1
  1
<500
 11
0.0000000000000001
 21
1.0
 31
0.0
 73
     1
 44
1.0
1001
ACAD
1000
MTEXTBEGIN
1070
    73
1070
     1
1070
    44
1040
1.0
1070
    74
1070
     0
1000
MTEXTEND
  0
POINT
  5
FA9
330
E88
100
AcDbEntity
  8
Defpoints
 62
     0
100
AcDbPoint
 10
21300.63106639772
 20
14543.77939505373
 30
0.0
  0
POINT
  5
FAA
330
E88
100
AcDbEntity
  8
Defpoints
 62
     0
100
AcDbPoint
 10
21300.63106639772
 20
14043.77939505373
 30
0.0
  0
POINT
  5
FAB
330
E88
100
AcDbEntity
  8
Defpoints
 62
     0
100
AcDbPoint
 10
21569.78087135157
 20
14043.77939505373
 30
0.0
  0
ENDBLK
  5
E8A
330
E88
100
AcDbEntity
  8
0
100
AcDbBlockEnd
  0
BLOCK
  5
EA1
330
EA0
100
AcDbEntity
  8
0
100
AcDbBlockBegin
  2
*D42
 70
     1
 10
0.0
 20
0.0
 30
0.0
  3
*D42
  1

  0
LINE
  5
FBF
330
EA0
100
AcDbEntity
  8
0
 62
     0
370
    -2
100
AcDbLine
 10
22724.68422514892
 20
14446.23366304302
 30
0.0
 11
23038.40787603246
 21
14446.23366304302
 31
0.0
  0
LINE
  5
FC0
330
EA0
100
AcDbEntity
  8
0
 62
     0
370
    -2
100
AcDbLine
 10
22724.68422514892
 20
14043.77939505373
 30
0.0
 11
23038.40787603246
 21
14043.77939505373
 31
0.0
  0
LINE
  5
FC1
330
EA0
100
AcDbEntity
  8
0
 62
     0
370
    -2
100
AcDbLine
 10
22963.40787603246
 20
14521.23366304302
 30
0.0
 11
22963.40787603246
 21
13968.77939505373
 31
0.0
  0
INSERT
  5
FC2
330
EA0
100
AcDbEntity
  8
0
 62
     0
370
    -2
100
AcDbBlockReference
  2
_ArchTick
 10
22963.40787603246
 20
14446.23366304302
 30
0.0
 41
100.0
 42
100.0
 43
100.0
 50
90.0
  0
INSERT
  5
FC3
330
EA0
100
AcDbEntity
  8
0
 62
     0
370
    -2
100
AcDbBlockReference
  2
_ArchTick
 10
22963.40787603246
 20
14043.77939505373
 30
0.0
 41
100.0
 42
100.0
 43
100.0
 50
270.0
  0
MTEXT
  5
FC4
330
EA0
100
AcDbEntity
  8
0
 62
     0
100
AcDbMText
 10
22862.35057726029
 20
14245.00652904838
 30
0.0
 40
100.0
 41
0.0
 71
     5
 72
     1
  1
<500
 11
0.0000000000000001
 21
1.0
 31
0.0
 73
     1
 44
1.0
1001
ACAD
1000
MTEXTBEGIN
1070
    73
1070
     1
1070
    44
1040
1.0
1070
    74
1070
     0
1000
MTEXTEND
  0
POINT
  5
FC5
330
EA0
100
AcDbEntity
  8
Defpoints
 62
     0
100
AcDbPoint
 10
22599.68422514892
 20
14446.23366304302
 30
0.0
  0
POINT
  5
FC6
330
EA0
100
AcDbEntity
  8
Defpoints
 62
     0
100
AcDbPoint
 10
22599.68422514892
 20
14043.77939505373
 30
0.0
  0
POINT
  5
FC7
330
EA0
100
AcDbEntity
  8
Defpoints
 62
     0
100
AcDbPoint
 10
22963.40787603246
 20
14043.77939505373
 30
0.0
  0
ENDBLK
  5
EA2
330
EA0
100
AcDbEntity
  8
0
100
AcDbBlockEnd
  0
BLOCK
  5
1057
330
1056
100
AcDbEntity
  8
0
100
AcDbBlockBegin
  2
*D43
 70
     1
 10
0.0
 20
0.0
 30
0.0
  3
*D43
  1

  0
LINE
  5
12DF
330
1056
100
AcDbEntity
  8
0
 62
     0
370
    -2
100
AcDbLine
 10
26764.73039200492
 20
13193.5500004576
 30
0.0
 11
26454.90971736345
 21
13193.5500004576
 31
0.0
  0
LINE
  5
12E0
330
1056
100
AcDbEntity
  8
0
 62
     0
370
    -2
100
AcDbLine
 10
26764.73039200492
 20
14143.5500004576
 30
0.0
 11
26454.90971736345
 21
14143.5500004576
 31
0.0
  0
LINE
  5
12E1
330
1056
100
AcDbEntity
  8
0
 62
     0
370
    -2
100
AcDbLine
 10
26529.90971736345
 20
13118.5500004576
 30
0.0
 11
26529.90971736345
 21
14218.5500004576
 31
0.0
  0
INSERT
  5
12E2
330
1056
100
AcDbEntity
  8
0
 62
     0
370
    -2
100
AcDbBlockReference
  2
_ArchTick
 10
26529.90971736345
 20
13193.5500004576
 30
0.0
 41
100.0
 42
100.0
 43
100.0
 50
270.0
  0
INSERT
  5
12E3
330
1056
100
AcDbEntity
  8
0
 62
     0
370
    -2
100
AcDbBlockReference
  2
_ArchTick
 10
26529.90971736345
 20
14143.5500004576
 30
0.0
 41
100.0
 42
100.0
 43
100.0
 50
90.0
  0
MTEXT
  5
12E4
330
1056
100
AcDbEntity
  8
0
 62
     0
100
AcDbMText
 10
26428.85241859128
 20
13668.55000045761
 30
0.0
 40
100.0
 41
0.0
 71
     5
 72
     1
  1
<950
 11
0.0000000000000001
 21
1.0
 31
0.0
 73
     1
 44
1.0
1001
ACAD
1000
MTEXTBEGIN
1070
    73
1070
     1
1070
    44
1040
1.0
1070
    74
1070
     0
1000
MTEXTEND
  0
POINT
  5
12E5
330
1056
100
AcDbEntity
  8
Defpoints
 62
     0
100
AcDbPoint
 10
26889.73039200492
 20
13193.5500004576
 30
0.0
  0
POINT
  5
12E6
330
1056
100
AcDbEntity
  8
Defpoints
 62
     0
100
AcDbPoint
 10
26889.73039200492
 20
14143.5500004576
 30
0.0
  0
POINT
  5
12E7
330
1056
100
AcDbEntity
  8
Defpoints
 62
     0
100
AcDbPoint
 10
26529.90971736345
 20
14143.5500004576
 30
0.0
  0
ENDBLK
  5
1058
330
1056
100
AcDbEntity
  8
0
100
AcDbBlockEnd
  0
BLOCK
  5
106F
330
106E
100
AcDbEntity
  8
0
100
AcDbBlockBegin
  2
*D44
 70
     1
 10
0.0
 20
0.0
 30
0.0
  3
*D44
  1

  0
LINE
  5
12CD
330
106E
100
AcDbEntity
  8
0
 62
     0
370
    -2
100
AcDbLine
 10
26764.73039200492
 20
15123.81155896555
 30
0.0
 11
26454.90971736345
 21
15123.81155896555
 31
0.0
  0
LINE
  5
12CE
330
106E
100
AcDbEntity
  8
0
 62
     0
370
    -2
100
AcDbLine
 10
26764.73039200492
 20
20123.81155896555
 30
0.0
 11
26454.90971736345
 21
20123.81155896555
 31
0.0
  0
LINE
  5
12CF
330
106E
100
AcDbEntity
  8
0
 62
     0
370
    -2
100
AcDbLine
 10
26529.90971736345
 20
15048.81155896555
 30
0.0
 11
26529.90971736345
 21
20198.81155896555
 31
0.0
  0
INSERT
  5
12D0
330
106E
100
AcDbEntity
  8
0
 62
     0
370
    -2
100
AcDbBlockReference
  2
_ArchTick
 10
26529.90971736345
 20
15123.81155896555
 30
0.0
 41
100.0
 42
100.0
 43
100.0
 50
270.0
  0
INSERT
  5
12D1
330
106E
100
AcDbEntity
  8
0
 62
     0
370
    -2
100
AcDbBlockReference
  2
_ArchTick
 10
26529.90971736345
 20
20123.81155896555
 30
0.0
 41
100.0
 42
100.0
 43
100.0
 50
90.0
  0
MTEXT
  5
12D2
330
106E
100
AcDbEntity
  8
0
 62
     0
100
AcDbMText
 10
26428.85241859128
 20
17623.81155896556
 30
0.0
 40
100.0
 41
0.0
 71
     5
 72
     1
  1
~5000
 11
0.0000000000000001
 21
1.0
 31
0.0
 73
     1
 44
1.0
1001
ACAD
1000
MTEXTBEGIN
1070
    73
1070
     1
1070
    44
1040
1.0
1070
    74
1070
     0
1000
MTEXTEND
  0
POINT
  5
12D3
330
106E
100
AcDbEntity
  8
Defpoints
 62
     0
100
AcDbPoint
 10
26889.73039200492
 20
15123.81155896555
 30
0.0
  0
POINT
  5
12D4
330
106E
100
AcDbEntity
  8
Defpoints
 62
     0
100
AcDbPoint
 10
26889.73039200492
 20
20123.81155896555
 30
0.0
  0
POINT
  5
12D5
330
106E
100
AcDbEntity
  8
Defpoints
 62
     0
100
AcDbPoint
 10
26529.90971736345
 20
20123.81155896555
 30
0.0
  0
ENDBLK
  5
1070
330
106E
100
AcDbEntity
  8
0
100
AcDbBlockEnd
  0
BLOCK
  5
1087
330
1086
100
AcDbEntity
  8
0
100
AcDbBlockBegin
  2
*D45
 70
     1
 10
0.0
 20
0.0
 30
0.0
  3
*D45
  1

  0
LINE
  5
12C4
330
1086
100
AcDbEntity
  8
0
 62
     0
370
    -2
100
AcDbLine
 10
31889.73039200492
 20
20245.99084643368
 30
0.0
 11
31889.73039200492
 21
20590.71133158199
 31
0.0
  0
LINE
  5
12C5
330
1086
100
AcDbEntity
  8
0
 62
     0
370
    -2
100
AcDbLine
 10
26889.73039200492
 20
20245.99084643368
 30
0.0
 11
26889.73039200492
 21
20590.71133158199
 31
0.0
  0
LINE
  5
12C6
330
1086
100
AcDbEntity
  8
0
 62
     0
370
    -2
100
AcDbLine
 10
31964.73039200492
 20
20515.71133158199
 30
0.0
 11
26814.73039200492
 21
20515.71133158199
 31
0.0
  0
INSERT
  5
12C7
330
1086
100
AcDbEntity
  8
0
 62
     0
370
    -2
100
AcDbBlockReference
  2
_ArchTick
 10
31889.73039200492
 20
20515.71133158199
 30
0.0
 41
100.0
 42
100.0
 43
100.0
  0
INSERT
  5
12C8
330
1086
100
AcDbEntity
  8
0
 62
     0
370
    -2
100
AcDbBlockReference
  2
_ArchTick
 10
26889.73039200492
 20
20515.71133158199
 30
0.0
 41
100.0
 42
100.0
 43
100.0
 50
180.0
  0
MTEXT
  5
12C9
330
1086
100
AcDbEntity
  8
0
 62
     0
100
AcDbMText
 10
29389.73039200492
 20
20616.76863035416
 30
0.0
 40
100.0
 41
0.0
 71
     5
 72
     1
  1
~5000
 73
     1
 44
1.0
1001
ACAD
1000
MTEXTBEGIN
1070
    73
1070
     1
1070
    44
1040
1.0
1070
    74
1070
     0
1000
MTEXTEND
  0
POINT
  5
12CA
330
1086
100
AcDbEntity
  8
Defpoints
 62
     0
100
AcDbPoint
 10
31889.73039200492
 20
20120.99084643368
 30
0.0
  0
POINT
  5
12CB
330
1086
100
AcDbEntity
  8
Defpoints
 62
     0
100
AcDbPoint
 10
26889.73039200492
 20
20120.99084643368
 30
0.0
  0
POINT
  5
12CC
330
1086
100
AcDbEntity
  8
Defpoints
 62
     0
100
AcDbPoint
 10
26889.73039200492
 20
20515.71133158199
 30
0.0
  0
ENDBLK
  5
1088
330
1086
100
AcDbEntity
  8
0
100
AcDbBlockEnd
  0
BLOCK
  5
10F9
330
10F8
100
AcDbEntity
  8
0
100
AcDbBlockBegin
  2
*D46
 70
     1
 10
0.0
 20
0.0
 30
0.0
  3
*D46
  1

  0
LINE
  5
1165
330
10F8
100
AcDbEntity
  8
0
 62
     0
370
    -2
100
AcDbLine
 10
32011.07293041089
 20
15441.60201534248
 30
0.0
 11
32391.42911074392
 21
15441.60201534248
 31
0.0
  0
LINE
  5
1166
330
10F8
100
AcDbEntity
  8
0
 62
     0
370
    -2
100
AcDbLine
 10
32011.07293041089
 20
16941.60201534247
 30
0.0
 11
32391.42911074392
 21
16941.60201534247
 31
0.0
  0
LINE
  5
1167
330
10F8
100
AcDbEntity
  8
0
 62
     0
370
    -2
100
AcDbLine
 10
32316.42911074392
 20
15366.60201534248
 30
0.0
 11
32316.42911074392
 21
17016.60201534247
 31
0.0
  0
INSERT
  5
1168
330
10F8
100
AcDbEntity
  8
0
 62
     0
370
    -2
100
AcDbBlockReference
  2
_ArchTick
 10
32316.42911074392
 20
15441.60201534248
 30
0.0
 41
100.0
 42
100.0
 43
100.0
 50
270.0
  0
INSERT
  5
1169
330
10F8
100
AcDbEntity
  8
0
 62
     0
370
    -2
100
AcDbBlockReference
  2
_ArchTick
 10
32316.42911074392
 20
16941.60201534247
 30
0.0
 41
100.0
 42
100.0
 43
100.0
 50
90.0
  0
MTEXT
  5
116A
330
10F8
100
AcDbEntity
  8
0
 62
     0
100
AcDbMText
 10
32215.37181197175
 20
16191.60201534248
 30
0.0
 40
100.0
 41
0.0
 71
     5
 72
     1
  1
1500
 11
0.0000000000000001
 21
1.0
 31
0.0
 73
     1
 44
1.0
1001
ACAD
1000
MTEXTBEGIN
1070
    73
1070
     1
1070
    44
1040
1.0
1070
    74
1070
     0
1000
MTEXTEND
  0
POINT
  5
116B
330
10F8
100
AcDbEntity
  8
Defpoints
 62
     0
100
AcDbPoint
 10
31886.07293041089
 20
15441.60201534248
 30
0.0
  0
POINT
  5
116C
330
10F8
100
AcDbEntity
  8
Defpoints
 62
     0
100
AcDbPoint
 10
31886.07293041089
 20
16941.60201534247
 30
0.0
  0
POINT
  5
116D
330
10F8
100
AcDbEntity
  8
Defpoints
 62
     0
100
AcDbPoint
 10
32316.42911074392
 20
16941.60201534247
 30
0.0
  0
ENDBLK
  5
10FA
330
10F8
100
AcDbEntity
  8
0
100
AcDbBlockEnd
  0
BLOCK
  5
1106
330
1105
100
AcDbEntity
  8
0
100
AcDbBlockBegin
  2
*D47
 70
     1
 10
0.0
 20
0.0
 30
0.0
  3
*D47
  1

  0
LINE
  5
116E
330
1105
100
AcDbEntity
  8
0
 62
     0
370
    -2
100
AcDbLine
 10
31889.73039200492
 20
15016.60201534248
 30
0.0
 11
31889.73039200492
 21
14690.97502724841
 31
0.0
  0
LINE
  5
116F
330
1105
100
AcDbEntity
  8
0
 62
     0
370
    -2
100
AcDbLine
 10
30889.73039200492
 20
15016.60201534248
 30
0.0
 11
30889.73039200492
 21
14690.97502724841
 31
0.0
  0
LINE
  5
1170
330
1105
100
AcDbEntity
  8
0
 62
     0
370
    -2
100
AcDbLine
 10
31964.73039200492
 20
14765.97502724841
 30
0.0
 11
30814.73039200492
 21
14765.97502724841
 31
0.0
  0
INSERT
  5
1171
330
1105
100
AcDbEntity
  8
0
 62
     0
370
    -2
100
AcDbBlockReference
  2
_ArchTick
 10
31889.73039200492
 20
14765.97502724841
 30
0.0
 41
100.0
 42
100.0
 43
100.0
  0
INSERT
  5
1172
330
1105
100
AcDbEntity
  8
0
 62
     0
370
    -2
100
AcDbBlockReference
  2
_ArchTick
 10
30889.73039200492
 20
14765.97502724841
 30
0.0
 41
100.0
 42
100.0
 43
100.0
 50
180.0
  0
MTEXT
  5
1173
330
1105
100
AcDbEntity
  8
0
 62
     0
100
AcDbMText
 10
31389.73039200492
 20
14867.03232602058
 30
0.0
 40
100.0
 41
0.0
 71
     5
 72
     1
  1
1000
 73
     1
 44
1.0
1001
ACAD
1000
MTEXTBEGIN
1070
    73
1070
     1
1070
    44
1040
1.0
1070
    74
1070
     0
1000
MTEXTEND
  0
POINT
  5
1174
330
1105
100
AcDbEntity
  8
Defpoints
 62
     0
100
AcDbPoint
 10
31889.73039200492
 20
15141.60201534248
 30
0.0
  0
POINT
  5
1175
330
1105
100
AcDbEntity
  8
Defpoints
 62
     0
100
AcDbPoint
 10
30889.73039200492
 20
15141.60201534248
 30
0.0
  0
POINT
  5
1176
330
1105
100
AcDbEntity
  8
Defpoints
 62
     0
100
AcDbPoint
 10
30889.73039200492
 20
14765.97502724841
 30
0.0
  0
ENDBLK
  5
1107
330
1105
100
AcDbEntity
  8
0
100
AcDbBlockEnd
  0
BLOCK
  5
11BA
330
11B9
100
AcDbEntity
  8
0
100
AcDbBlockBegin
  2
*D48
 70
     1
 10
0.0
 20
0.0
 30
0.0
  3
*D48
  1

  0
LINE
  5
12A9
330
11B9
100
AcDbEntity
  8
0
 62
     0
370
    -2
100
AcDbLine
 10
38444.64751932081
 20
7082.842979976105
 30
0.0
 11
38444.64751932081
 21
6490.573762677946
 31
0.0
  0
LINE
  5
12AA
330
11B9
100
AcDbEntity
  8
0
 62
     0
370
    -2
100
AcDbLine
 10
34944.64751932082
 20
7082.842979976106
 30
0.0
 11
34944.64751932082
 21
6490.573762677946
 31
0.0
  0
LINE
  5
12AB
330
11B9
100
AcDbEntity
  8
0
 62
     0
370
    -2
100
AcDbLine
 10
38519.64751932081
 20
6565.573762677946
 30
0.0
 11
34869.64751932082
 21
6565.573762677946
 31
0.0
  0
INSERT
  5
12AC
330
11B9
100
AcDbEntity
  8
0
 62
     0
370
    -2
100
AcDbBlockReference
  2
_ArchTick
 10
38444.64751932081
 20
6565.573762677946
 30
0.0
 41
100.0
 42
100.0
 43
100.0
  0
INSERT
  5
12AD
330
11B9
100
AcDbEntity
  8
0
 62
     0
370
    -2
100
AcDbBlockReference
  2
_ArchTick
 10
34944.64751932082
 20
6565.573762677946
 30
0.0
 41
100.0
 42
100.0
 43
100.0
 50
180.0
  0
MTEXT
  5
12AE
330
11B9
100
AcDbEntity
  8
0
 62
     0
100
AcDbMText
 10
36694.64751932082
 20
6666.66516786212
 30
0.0
 40
100.0
 41
0.0
 71
     5
 72
     1
  1
3500
 73
     1
 44
1.0
1001
ACAD
1000
MTEXTBEGIN
1070
    73
1070
     1
1070
    44
1040
1.0
1070
    74
1070
     0
1000
MTEXTEND
  0
POINT
  5
12AF
330
11B9
100
AcDbEntity
  8
Defpoints
 62
     0
100
AcDbPoint
 10
38444.64751932081
 20
7207.842979976105
 30
0.0
  0
POINT
  5
12B0
330
11B9
100
AcDbEntity
  8
Defpoints
 62
     0
100
AcDbPoint
 10
34944.64751932082
 20
7207.842979976106
 30
0.0
  0
POINT
  5
12B1
330
11B9
100
AcDbEntity
  8
Defpoints
 62
     0
100
AcDbPoint
 10
34944.64751932082
 20
6565.573762677946
 30
0.0
  0
ENDBLK
  5
11BB
330
11B9
100
AcDbEntity
  8
0
100
AcDbBlockEnd
  0
BLOCK
  5
124F
330
124E
100
AcDbEntity
  8
0
100
AcDbBlockBegin
  2
*D49
 70
     1
 10
0.0
 20
0.0
 30
0.0
  3
*D49
  1

  0
LINE
  5
12B2
330
124E
100
AcDbEntity
  8
0
 62
     0
370
    -2
100
AcDbLine
 10
34819.64751932082
 20
11022.10170675188
 30
0.0
 11
34081.19872461153
 21
11022.10170675188
 31
0.0
  0
LINE
  5
12B3
330
124E
100
AcDbEntity
  8
0
 62
     0
370
    -2
100
AcDbLine
 10
34819.64751932082
 20
7693.403899718858
 30
0.0
 11
34081.19872461153
 21
7693.403899718859
 31
0.0
  0
LINE
  5
12B4
330
124E
100
AcDbEntity
  8
0
 62
     0
370
    -2
100
AcDbLine
 10
34156.19872461153
 20
11097.10170675188
 30
0.0
 11
34156.19872461153
 21
7618.40389971886
 31
0.0
  0
INSERT
  5
12B5
330
124E
100
AcDbEntity
  8
0
 62
     0
370
    -2
100
AcDbBlockReference
  2
_ArchTick
 10
34156.19872461153
 20
11022.10170675188
 30
0.0
 41
100.0
 42
100.0
 43
100.0
 50
90.0
  0
INSERT
  5
12B6
330
124E
100
AcDbEntity
  8
0
 62
     0
370
    -2
100
AcDbBlockReference
  2
_ArchTick
 10
34156.19872461153
 20
7693.403899718859
 30
0.0
 41
100.0
 42
100.0
 43
100.0
 50
270.0
  0
MTEXT
  5
12B7
330
124E
100
AcDbEntity
  8
0
 62
     0
100
AcDbMText
 10
34046.10322665791
 20
9357.752803235376
 30
0.0
 40
100.0
 41
0.0
 71
     5
 72
     1
  1
3328,7
 11
0.0000000000000001
 21
1.0
 31
0.0
 73
     1
 44
1.0
1001
ACAD
1000
MTEXTBEGIN
1070
    73
1070
     1
1070
    44
1040
1.0
1070
    74
1070
     0
1000
MTEXTEND
  0
POINT
  5
12B8
330
124E
100
AcDbEntity
  8
Defpoints
 62
     0
100
AcDbPoint
 10
34944.64751932082
 20
11022.10170675188
 30
0.0
  0
POINT
  5
12B9
330
124E
100
AcDbEntity
  8
Defpoints
 62
     0
100
AcDbPoint
 10
34944.64751932082
 20
7693.403899718858
 30
0.0
  0
POINT
  5
12BA
330
124E
100
AcDbEntity
  8
Defpoints
 62
     0
100
AcDbPoint
 10
34156.19872461153
 20
7693.403899718859
 30
0.0
  0
ENDBLK
  5
1250
330
124E
100
AcDbEntity
  8
0
100
AcDbBlockEnd
  0
BLOCK
  5
128B
330
128A
100
AcDbEntity
  8
0
100
AcDbBlockBegin
  2
*D50
 70
     1
 10
0.0
 20
0.0
 30
0.0
  3
*D50
  1

  0
LINE
  5
12BB
330
128A
100
AcDbEntity
  8
0
 62
     0
370
    -2
100
AcDbLine
 10
34819.6475193197
 20
2825.385120608567
 30
0.0
 11
33903.40724729383
 21
2825.385120608567
 31
0.0
  0
LINE
  5
12BC
330
128A
100
AcDbEntity
  8
0
 62
     0
370
    -2
100
AcDbLine
 10
34819.6475193197
 20
5825.385120608568
 30
0.0
 11
33903.40724729383
 21
5825.385120608569
 31
0.0
  0
LINE
  5
12BD
330
128A
100
AcDbEntity
  8
0
 62
     0
370
    -2
100
AcDbLine
 10
33978.40724729383
 20
2750.385120608568
 30
0.0
 11
33978.40724729383
 21
5900.385120608568
 31
0.0
  0
INSERT
  5
12BE
330
128A
100
AcDbEntity
  8
0
 62
     0
370
    -2
100
AcDbBlockReference
  2
_ArchTick
 10
33978.40724729383
 20
2825.385120608567
 30
0.0
 41
100.0
 42
100.0
 43
100.0
 50
270.0
  0
INSERT
  5
12BF
330
128A
100
AcDbEntity
  8
0
 62
     0
370
    -2
100
AcDbBlockReference
  2
_ArchTick
 10
33978.40724729383
 20
5825.385120608569
 30
0.0
 41
100.0
 42
100.0
 43
100.0
 50
90.0
  0
MTEXT
  5
12C0
330
128A
100
AcDbEntity
  8
0
 62
     0
100
AcDbMText
 10
33877.31584210965
 20
4325.385120608574
 30
0.0
 40
100.0
 41
0.0
 71
     5
 72
     1
  1
3000
 11
0.0000000000000001
 21
1.0
 31
0.0
 73
     1
 44
1.0
1001
ACAD
1000
MTEXTBEGIN
1070
    73
1070
     1
1070
    44
1040
1.0
1070
    74
1070
     0
1000
MTEXTEND
  0
POINT
  5
12C1
330
128A
100
AcDbEntity
  8
Defpoints
 62
     0
100
AcDbPoint
 10
34944.64751931971
 20
2825.385120608567
 30
0.0
  0
POINT
  5
12C2
330
128A
100
AcDbEntity
  8
Defpoints
 62
     0
100
AcDbPoint
 10
34944.64751931971
 20
5825.385120608568
 30
0.0
  0
POINT
  5
12C3
330
128A
100
AcDbEntity
  8
Defpoints
 62
     0
100
AcDbPoint
 10
33978.40724729383
 20
5825.385120608569
 30
0.0
  0
ENDBLK
  5
128C
330
128A
100
AcDbEntity
  8
0
100
AcDbBlockEnd
  0
BLOCK
  5
137C
330
137B
100
AcDbEntity
  8
0
100
AcDbBlockBegin
  2
*D51
 70
     1
 10
0.0
 20
0.0
 30
0.0
  3
*D51
  1

  0
LINE
  5
13FC
330
137B
100
AcDbEntity
  8
0
 62
     0
370
    -2
100
AcDbLine
 10
35193.57479376794
 20
17280.1015727099
 30
0.0
 11
35047.44933835187
 21
17280.1015727099
 31
0.0
  0
LINE
  5
13FD
330
137B
100
AcDbEntity
  8
0
 62
     0
370
    -2
100
AcDbLine
 10
35193.57479376794
 20
16780.1015727099
 30
0.0
 11
35047.44933835187
 21
16780.1015727099
 31
0.0
  0
LINE
  5
13FE
330
137B
100
AcDbEntity
  8
0
 62
     0
370
    -2
100
AcDbLine
 10
35122.44933835187
 20
17355.1015727099
 30
0.0
 11
35122.44933835187
 21
16705.1015727099
 31
0.0
  0
INSERT
  5
13FF
330
137B
100
AcDbEntity
  8
0
 62
     0
370
    -2
100
AcDbBlockReference
  2
_ArchTick
 10
35122.44933835187
 20
17280.1015727099
 30
0.0
 41
100.0
 42
100.0
 43
100.0
 50
90.0
  0
INSERT
  5
1400
330
137B
100
AcDbEntity
  8
0
 62
     0
370
    -2
100
AcDbBlockReference
  2
_ArchTick
 10
35122.44933835187
 20
16780.1015727099
 30
0.0
 41
100.0
 42
100.0
 43
100.0
 50
270.0
  0
MTEXT
  5
1401
330
137B
100
AcDbEntity
  8
0
 62
     0
100
AcDbMText
 10
35021.3920395797
 20
17030.1015727099
 30
0.0
 40
100.0
 41
0.0
 71
     5
 72
     1
  1
500
 11
0.0000000000000001
 21
1.0
 31
0.0
 73
     1
 44
1.0
1001
ACAD
1000
MTEXTBEGIN
1070
    73
1070
     1
1070
    44
1040
1.0
1070
    74
1070
     0
1000
MTEXTEND
  0
POINT
  5
1402
330
137B
100
AcDbEntity
  8
Defpoints
 62
     0
100
AcDbPoint
 10
35318.57479376794
 20
17280.1015727099
 30
0.0
  0
POINT
  5
1403
330
137B
100
AcDbEntity
  8
Defpoints
 62
     0
100
AcDbPoint
 10
35318.57479376794
 20
16780.1015727099
 30
0.0
  0
POINT
  5
1404
330
137B
100
AcDbEntity
  8
Defpoints
 62
     0
100
AcDbPoint
 10
35122.44933835187
 20
16780.1015727099
 30
0.0
  0
ENDBLK
  5
137D
330
137B
100
AcDbEntity
  8
0
100
AcDbBlockEnd
  0
BLOCK
  5
13A7
330
13A6
100
AcDbEntity
  8
0
100
AcDbBlockBegin
  2
*D52
 70
     1
 10
0.0
 20
0.0
 30
0.0
  3
*D52
  1

  0
LINE
  5
1420
330
13A6
100
AcDbEntity
  8
0
 62
     0
370
    -2
100
AcDbLine
 10
39318.57479376794
 20
18376.71981823828
 30
0.0
 11
39318.57479376794
 21
18029.15805073536
 31
0.0
  0
LINE
  5
1421
330
13A6
100
AcDbEntity
  8
0
 62
     0
370
    -2
100
AcDbLine
 10
35318.57479376794
 20
18376.71981823828
 30
0.0
 11
35318.57479376794
 21
18029.15805073536
 31
0.0
  0
LINE
  5
1422
330
13A6
100
AcDbEntity
  8
0
 62
     0
370
    -2
100
AcDbLine
 10
39393.57479376795
 20
18104.15805073536
 30
0.0
 11
35243.57479376794
 21
18104.15805073536
 31
0.0
  0
INSERT
  5
1423
330
13A6
100
AcDbEntity
  8
0
 62
     0
370
    -2
100
AcDbBlockReference
  2
_ArchTick
 10
39318.57479376794
 20
18104.15805073536
 30
0.0
 41
100.0
 42
100.0
 43
100.0
  0
INSERT
  5
1424
330
13A6
100
AcDbEntity
  8
0
 62
     0
370
    -2
100
AcDbBlockReference
  2
_ArchTick
 10
35318.57479376794
 20
18104.15805073536
 30
0.0
 41
100.0
 42
100.0
 43
100.0
 50
180.0
  0
MTEXT
  5
1425
330
13A6
100
AcDbEntity
  8
0
 62
     0
100
AcDbMText
 10
37318.57479376794
 20
18205.21534950753
 30
0.0
 40
100.0
 41
0.0
 71
     5
 72
     1
  1
4000
 73
     1
 44
1.0
1001
ACAD
1000
MTEXTBEGIN
1070
    73
1070
     1
1070
    44
1040
1.0
1070
    74
1070
     0
1000
MTEXTEND
  0
POINT
  5
1426
330
13A6
100
AcDbEntity
  8
Defpoints
 62
     0
100
AcDbPoint
 10
39318.57479376794
 20
18501.71981823828
 30
0.0
  0
POINT
  5
1427
330
13A6
100
AcDbEntity
  8
Defpoints
 62
     0
100
AcDbPoint
 10
35318.57479376794
 20
18501.71981823828
 30
0.0
  0
POINT
  5
1428
330
13A6
100
AcDbEntity
  8
Defpoints
 62
     0
100
AcDbPoint
 10
35318.57479376794
 20
18104.15805073536
 30
0.0
  0
ENDBLK
  5
13A8
330
13A6
100
AcDbEntity
  8
0
100
AcDbBlockEnd
  0
BLOCK
  5
13B4
330
13B3
100
AcDbEntity
  8
0
100
AcDbBlockBegin
  2
*D53
 70
     1
 10
0.0
 20
0.0
 30
0.0
  3
*D53
  1

  0
LINE
  5
1429
330
13B3
100
AcDbEntity
  8
0
 62
     0
370
    -2
100
AcDbLine
 10
34936.09563380395
 20
19231.87456576014
 30
0.0
 11
34789.97017838789
 21
19231.87456576014
 31
0.0
  0
LINE
  5
142A
330
13B3
100
AcDbEntity
  8
0
 62
     0
370
    -2
100
AcDbLine
 10
34936.09563380395
 20
18731.87456576014
 30
0.0
 11
34789.97017838789
 21
18731.87456576014
 31
0.0
  0
LINE
  5
142B
330
13B3
100
AcDbEntity
  8
0
 62
     0
370
    -2
100
AcDbLine
 10
34864.97017838789
 20
19306.87456576014
 30
0.0
 11
34864.97017838789
 21
18656.87456576014
 31
0.0
  0
INSERT
  5
142C
330
13B3
100
AcDbEntity
  8
0
 62
     0
370
    -2
100
AcDbBlockReference
  2
_ArchTick
 10
34864.97017838789
 20
19231.87456576014
 30
0.0
 41
100.0
 42
100.0
 43
100.0
 50
90.0
  0
INSERT
  5
142D
330
13B3
100
AcDbEntity
  8
0
 62
     0
370
    -2
100
AcDbBlockReference
  2
_ArchTick
 10
34864.97017838789
 20
18731.87456576014
 30
0.0
 41
100.0
 42
100.0
 43
100.0
 50
270.0
  0
MTEXT
  5
142E
330
13B3
100
AcDbEntity
  8
0
 62
     0
100
AcDbMText
 10
34763.91287961571
 20
18981.87456576014
 30
0.0
 40
100.0
 41
0.0
 71
     5
 72
     1
  1
500
 11
0.0000000000000001
 21
1.0
 31
0.0
 73
     1
 44
1.0
1001
ACAD
1000
MTEXTBEGIN
1070
    73
1070
     1
1070
    44
1040
1.0
1070
    74
1070
     0
1000
MTEXTEND
  0
POINT
  5
142F
330
13B3
100
AcDbEntity
  8
Defpoints
 62
     0
100
AcDbPoint
 10
35061.09563380396
 20
19231.87456576014
 30
0.0
  0
POINT
  5
1430
330
13B3
100
AcDbEntity
  8
Defpoints
 62
     0
100
AcDbPoint
 10
35061.09563380396
 20
18731.87456576014
 30
0.0
  0
POINT
  5
1431
330
13B3
100
AcDbEntity
  8
Defpoints
 62
     0
100
AcDbPoint
 10
34864.97017838789
 20
18731.87456576014
 30
0.0
  0
ENDBLK
  5
13B5
330
13B3
100
AcDbEntity
  8
0
100
AcDbBlockEnd
  0
BLOCK
  5
13DC
330
13DB
100
AcDbEntity
  8
0
100
AcDbBlockBegin
  2
*D54
 70
     1
 10
0.0
 20
0.0
 30
0.0
  3
*D54
  1

  0
LINE
  5
1432
330
13DB
100
AcDbEntity
  8
0
 62
     0
370
    -2
100
AcDbLine
 10
40413.59240887448
 20
18376.09481823828
 30
0.0
 11
40413.59240887448
 21
18029.15805073536
 31
0.0
  0
LINE
  5
1433
330
13DB
100
AcDbEntity
  8
0
 62
     0
370
    -2
100
AcDbLine
 10
40955.39343974148
 20
18376.09481823828
 30
0.0
 11
40955.39343974148
 21
18029.15805073536
 31
0.0
  0
LINE
  5
1434
330
13DB
100
AcDbEntity
  8
0
 62
     0
370
    -2
100
AcDbLine
 10
40338.59240887448
 20
18104.15805073536
 30
0.0
 11
41030.39343974147
 21
18104.15805073536
 31
0.0
  0
INSERT
  5
1435
330
13DB
100
AcDbEntity
  8
0
 62
     0
370
    -2
100
AcDbBlockReference
  2
_ArchTick
 10
40413.59240887448
 20
18104.15805073536
 30
0.0
 41
100.0
 42
100.0
 43
100.0
 50
180.0
  0
INSERT
  5
1436
330
13DB
100
AcDbEntity
  8
0
 62
     0
370
    -2
100
AcDbBlockReference
  2
_ArchTick
 10
40955.39343974148
 20
18104.15805073536
 30
0.0
 41
100.0
 42
100.0
 43
100.0
  0
MTEXT
  5
1437
330
13DB
100
AcDbEntity
  8
0
 62
     0
100
AcDbMText
 10
40684.49292430798
 20
18214.25354868898
 30
0.0
 40
100.0
 41
0.0
 71
     5
 72
     1
  1
541,8
 73
     1
 44
1.0
1001
ACAD
1000
MTEXTBEGIN
1070
    73
1070
     1
1070
    44
1040
1.0
1070
    74
1070
     0
1000
MTEXTEND
  0
POINT
  5
1438
330
13DB
100
AcDbEntity
  8
Defpoints
 62
     0
100
AcDbPoint
 10
40413.59240887448
 20
18501.09481823828
 30
0.0
  0
POINT
  5
1439
330
13DB
100
AcDbEntity
  8
Defpoints
 62
     0
100
AcDbPoint
 10
40955.39343974148
 20
18501.09481823828
 30
0.0
  0
POINT
  5
143A
330
13DB
100
AcDbEntity
  8
Defpoints
 62
     0
100
AcDbPoint
 10
40955.39343974148
 20
18104.15805073536
 30
0.0
  0
ENDBLK
  5
13DD
330
13DB
100
AcDbEntity
  8
0
100
AcDbBlockEnd
  0
BLOCK
  5
1455
330
1454
100
AcDbEntity
  8
0
100
AcDbBlockBegin
  2
*D55
 70
     1
 10
0.0
 20
0.0
 30
0.0
  3
*D55
  1

  0
LINE
  5
1456
330
1454
100
AcDbEntity
  8
0
 62
     4
370
    20
100
AcDbLine
 10
10635.08678417774
 20
4397.871673016945
 30
0.0
 11
11034.54037361565
 21
4397.871673016945
 31
0.0
  0
LINE
  5
1457
330
1454
100
AcDbEntity
  8
0
 62
     4
370
    20
100
AcDbLine
 10
10649.53860525113
 20
3947.871673016947
 30
0.0
 11
11034.54037361565
 21
3947.871673016947
 31
0.0
  0
LINE
  5
1458
330
1454
100
AcDbEntity
  8
0
 62
     4
370
    -2
100
AcDbLine
 10
10972.04037361565
 20
4397.871673016945
 30
0.0
 11
10972.04037361565
 21
3947.871673016947
 31
0.0
  0
INSERT
  5
1459
330
1454
100
AcDbEntity
  8
0
 62
     4
370
    -2
100
AcDbBlockReference
  2
_ArchTick
 10
10972.04037361565
 20
4397.871673016945
 30
0.0
 41
50.0
 42
50.0
 43
50.0
 50
90.0
  0
INSERT
  5
145A
330
1454
100
AcDbEntity
  8
0
 62
     4
370
    -2
100
AcDbBlockReference
  2
_ArchTick
 10
10972.04037361565
 20
3947.871673016947
 30
0.0
 41
50.0
 42
50.0
 43
50.0
 50
270.0
  0
MTEXT
  5
145B
330
1454
100
AcDbEntity
  8
0
 62
     1
100
AcDbMText
 10
10895.98307484348
 20
4172.871673016947
 30
0.0
 40
100.0
 41
0.0
 71
     5
 72
     1
  1
450
 11
0.0000000000000001
 21
1.0
 31
0.0
 73
     1
 44
1.0
1001
ACAD
1000
MTEXTBEGIN
1070
    73
1070
     1
1070
    44
1040
1.0
1070
    74
1070
     0
1000
MTEXTEND
  0
POINT
  5
145C
330
1454
100
AcDbEntity
  8
Defpoints
 62
     0
100
AcDbPoint
 10
10585.08678417774
 20
4397.871673016945
 30
0.0
  0
POINT
  5
145D
330
1454
100
AcDbEntity
  8
Defpoints
 62
     0
100
AcDbPoint
 10
10599.53860525113
 20
3947.871673016947
 30
0.0
  0
POINT
  5
145E
330
1454
100
AcDbEntity
  8
Defpoints
 62
     0
100
AcDbPoint
 10
10972.04037361565
 20
3947.871673016947
 30
0.0
  0
ENDBLK
  5
145F
330
1454
100
AcDbEntity
  8
0
100
AcDbBlockEnd
  0
BLOCK
  5
1461
330
1460
100
AcDbEntity
  8
0
100
AcDbBlockBegin
  2
*D56
 70
     1
 10
0.0
 20
0.0
 30
0.0
  3
*D56
  1

  0
LINE
  5
1462
330
1460
100
AcDbEntity
  8
0
 62
     4
370
    20
100
AcDbLine
 10
11204.44217963167
 20
4509.723234023645
 30
0.0
 11
11204.44217963167
 21
4695.71665846435
 31
0.0
  0
LINE
  5
1463
330
1460
100
AcDbEntity
  8
0
 62
     4
370
    20
100
AcDbLine
 10
11554.4379716157
 20
4508.86509745765
 30
0.0
 11
11554.4379716157
 21
4695.71665846435
 31
0.0
  0
LINE
  5
1464
330
1460
100
AcDbEntity
  8
0
 62
     4
370
    -2
100
AcDbLine
 10
11204.44217963167
 20
4633.21665846435
 30
0.0
 11
11554.4379716157
 21
4633.21665846435
 31
0.0
  0
INSERT
  5
1465
330
1460
100
AcDbEntity
  8
0
 62
     4
370
    -2
100
AcDbBlockReference
  2
_ArchTick
 10
11204.44217963167
 20
4633.21665846435
 30
0.0
 41
50.0
 42
50.0
 43
50.0
 50
180.0
  0
INSERT
  5
1466
330
1460
100
AcDbEntity
  8
0
 62
     4
370
    -2
100
AcDbBlockReference
  2
_ArchTick
 10
11554.4379716157
 20
4633.21665846435
 30
0.0
 41
50.0
 42
50.0
 43
50.0
  0
MTEXT
  5
1467
330
1460
100
AcDbEntity
  8
0
 62
     1
100
AcDbMText
 10
11379.44007562369
 20
4709.308063648524
 30
0.0
 40
100.0
 41
0.0
 71
     5
 72
     1
  1
350
 73
     1
 44
1.0
1001
ACAD
1000
MTEXTBEGIN
1070
    73
1070
     1
1070
    44
1040
1.0
1070
    74
1070
     0
1000
MTEXTEND
  0
POINT
  5
1468
330
1460
100
AcDbEntity
  8
Defpoints
 62
     0
100
AcDbPoint
 10
11204.44217963167
 20
4459.723234023646
 30
0.0
  0
POINT
  5
1469
330
1460
100
AcDbEntity
  8
Defpoints
 62
     0
100
AcDbPoint
 10
11554.4379716157
 20
4458.865097457649
 30
0.0
  0
POINT
  5
146A
330
1460
100
AcDbEntity
  8
Defpoints
 62
     0
100
AcDbPoint
 10
11554.4379716157
 20
4633.21665846435
 30
0.0
  0
ENDBLK
  5
146B
330
1460
100
AcDbEntity
  8
0
100
AcDbBlockEnd
  0
BLOCK
  5
146D
330
146C
100
AcDbEntity
  8
0
100
AcDbBlockBegin
  2
*D57
 70
     1
 10
0.0
 20
0.0
 30
0.0
  3
*D57
  1

  0
LINE
  5
146E
330
146C
100
AcDbEntity
  8
0
 62
     4
370
    20
100
AcDbLine
 10
9626.178835660708
 20
4333.399881695375
 30
0.0
 11
9626.178835660708
 21
4636.408420976403
 31
0.0
  0
LINE
  5
146F
330
146C
100
AcDbEntity
  8
0
 62
     4
370
    20
100
AcDbLine
 10
10526.1788356607
 20
4333.399881695375
 30
0.0
 11
10526.1788356607
 21
4636.408420976403
 31
0.0
  0
LINE
  5
1470
330
146C
100
AcDbEntity
  8
0
 62
     4
370
    -2
100
AcDbLine
 10
9626.178835660708
 20
4573.908420976403
 30
0.0
 11
10526.1788356607
 21
4573.908420976403
 31
0.0
  0
INSERT
  5
1471
330
146C
100
AcDbEntity
  8
0
 62
     4
370
    -2
100
AcDbBlockReference
  2
_ArchTick
 10
9626.178835660708
 20
4573.908420976403
 30
0.0
 41
50.0
 42
50.0
 43
50.0
 50
180.0
  0
INSERT
  5
1472
330
146C
100
AcDbEntity
  8
0
 62
     4
370
    -2
100
AcDbBlockReference
  2
_ArchTick
 10
10526.1788356607
 20
4573.908420976403
 30
0.0
 41
50.0
 42
50.0
 43
50.0
  0
MTEXT
  5
1473
330
146C
100
AcDbEntity
  8
0
 62
     1
100
AcDbMText
 10
10076.1788356607
 20
4649.965719748572
 30
0.0
 40
100.0
 41
0.0
 71
     5
 72
     1
  1
900
 73
     1
 44
1.0
1001
ACAD
1000
MTEXTBEGIN
1070
    73
1070
     1
1070
    44
1040
1.0
1070
    74
1070
     0
1000
MTEXTEND
  0
POINT
  5
1474
330
146C
100
AcDbEntity
  8
Defpoints
 62
     0
100
AcDbPoint
 10
9626.178835660708
 20
4283.399881695375
 30
0.0
  0
POINT
  5
1475
330
146C
100
AcDbEntity
  8
Defpoints
 62
     0
100
AcDbPoint
 10
10526.1788356607
 20
4283.399881695375
 30
0.0
  0
POINT
  5
1476
330
146C
100
AcDbEntity
  8
Defpoints
 62
     0
100
AcDbPoint
 10
10526.1788356607
 20
4573.908420976403
 30
0.0
  0
ENDBLK
  5
1477
330
146C
100
AcDbEntity
  8
0
100
AcDbBlockEnd
  0
BLOCK
  5
1479
330
1478
100
AcDbEntity
  8
0
100
AcDbBlockBegin
  2
*D58
 70
     1
 10
0.0
 20
0.0
 30
0.0
  3
*D58
  1

  0
LINE
  5
147A
330
1478
100
AcDbEntity
  8
0
 62
     4
370
    20
100
AcDbLine
 10
11150.69321401805
 20
3625.785768300894
 30
0.0
 11
11748.59926364258
 21
3625.785768300893
 31
0.0
  0
LINE
  5
147B
330
1478
100
AcDbEntity
  8
0
 62
     4
370
    20
100
AcDbLine
 10
11474.64623883031
 20
275.7857683008928
 30
0.0
 11
11748.59926364258
 21
275.7857683008927
 31
0.0
  0
LINE
  5
147C
330
1478
100
AcDbEntity
  8
0
 62
     4
370
    -2
100
AcDbLine
 10
11686.09926364259
 20
3625.785768300893
 30
0.0
 11
11686.09926364259
 21
275.7857683008927
 31
0.0
  0
INSERT
  5
147D
330
1478
100
AcDbEntity
  8
0
 62
     4
370
    -2
100
AcDbBlockReference
  2
_ArchTick
 10
11686.09926364259
 20
3625.785768300893
 30
0.0
 41
50.0
 42
50.0
 43
50.0
 50
90.0
  0
INSERT
  5
147E
330
1478
100
AcDbEntity
  8
0
 62
     4
370
    -2
100
AcDbBlockReference
  2
_ArchTick
 10
11686.09926364259
 20
275.7857683008927
 30
0.0
 41
50.0
 42
50.0
 43
50.0
 50
270.0
  0
MTEXT
  5
147F
330
1478
100
AcDbEntity
  8
0
 62
     1
100
AcDbMText
 10
11610.00785845841
 20
1950.785768300894
 30
0.0
 40
100.0
 41
0.0
 71
     5
 72
     1
  1
3350
 11
0.0000000000000001
 21
1.0
 31
0.0
 73
     1
 44
1.0
1001
ACAD
1000
MTEXTBEGIN
1070
    73
1070
     1
1070
    44
1040
1.0
1070
    74
1070
     0
1000
MTEXTEND
  0
POINT
  5
1480
330
1478
100
AcDbEntity
  8
Defpoints
 62
     0
100
AcDbPoint
 10
11100.69321401804
 20
3625.785768300894
 30
0.0
  0
POINT
  5
1481
330
1478
100
AcDbEntity
  8
Defpoints
 62
     0
100
AcDbPoint
 10
11424.64623883032
 20
275.7857683008928
 30
0.0
  0
POINT
  5
1482
330
1478
100
AcDbEntity
  8
Defpoints
 62
     0
100
AcDbPoint
 10
11686.09926364259
 20
275.7857683008927
 30
0.0
  0
ENDBLK
  5
1483
330
1478
100
AcDbEntity
  8
0
100
AcDbBlockEnd
  0
BLOCK
  5
1485
330
1484
100
AcDbEntity
  8
0
100
AcDbBlockBegin
  2
*D59
 70
     1
 10
0.0
 20
0.0
 30
0.0
  3
*D59
  1

  0
LINE
  5
1486
330
1484
100
AcDbEntity
  8
0
 62
     4
370
    20
100
AcDbLine
 10
7667.482482856536
 20
225.7857683008942
 30
0.0
 11
7667.482482856536
 21
-269.3581588985335
 31
0.0
  0
LINE
  5
1487
330
1484
100
AcDbEntity
  8
0
 62
     4
370
    20
100
AcDbLine
 10
11367.48248285653
 20
225.7857683008928
 30
0.0
 11
11367.48248285653
 21
-269.3581588985335
 31
0.0
  0
LINE
  5
1488
330
1484
100
AcDbEntity
  8
0
 62
     4
370
    -2
100
AcDbLine
 10
7667.482482856536
 20
-206.8581588985335
 30
0.0
 11
11367.48248285653
 21
-206.8581588985335
 31
0.0
  0
INSERT
  5
1489
330
1484
100
AcDbEntity
  8
0
 62
     4
370
    -2
100
AcDbBlockReference
  2
_ArchTick
 10
7667.482482856536
 20
-206.8581588985335
 30
0.0
 41
50.0
 42
50.0
 43
50.0
 50
180.0
  0
INSERT
  5
148A
330
1484
100
AcDbEntity
  8
0
 62
     4
370
    -2
100
AcDbBlockReference
  2
_ArchTick
 10
11367.48248285653
 20
-206.8581588985335
 30
0.0
 41
50.0
 42
50.0
 43
50.0
  0
MTEXT
  5
148B
330
1484
100
AcDbEntity
  8
0
 62
     1
100
AcDbMText
 10
9517.482482856536
 20
-130.7667537143588
 30
0.0
 40
100.0
 41
0.0
 71
     5
 72
     1
  1
3700
 73
     1
 44
1.0
1001
ACAD
1000
MTEXTBEGIN
1070
    73
1070
     1
1070
    44
1040
1.0
1070
    74
1070
     0
1000
MTEXTEND
  0
POINT
  5
148C
330
1484
100
AcDbEntity
  8
Defpoints
 62
     0
100
AcDbPoint
 10
7667.482482856536
 20
275.7857683008942
 30
0.0
  0
POINT
  5
148D
330
1484
100
AcDbEntity
  8
Defpoints
 62
     0
100
AcDbPoint
 10
11367.48248285653
 20
275.7857683008928
 30
0.0
  0
POINT
  5
148E
330
1484
100
AcDbEntity
  8
Defpoints
 62
     0
100
AcDbPoint
 10
11367.48248285653
 20
-206.8581588985335
 30
0.0
  0
ENDBLK
  5
148F
330
1484
100
AcDbEntity
  8
0
100
AcDbBlockEnd
  0
BLOCK
  5
156C
330
156B
100
AcDbEntity
  8
0
100
AcDbBlockBegin
  2
*D61
 70
     1
 10
0.0
 20
0.0
 30
0.0
  3
*D61
  1

  0
LINE
  5
160A
330
156B
100
AcDbEntity
  8
0
 62
     0
370
    -2
100
AcDbLine
 10
983.9079485170296
 20
449.9999999999999
 30
0.0
 11
1320.861537954937
 21
449.9999999999999
 31
0.0
  0
LINE
  5
160B
330
156B
100
AcDbEntity
  8
0
 62
     0
370
    -2
100
AcDbLine
 10
998.3597695904245
 20
0.0000000000017836
 30
0.0
 11
1320.861537954937
 21
0.0000000000016922
 31
0.0
  0
LINE
  5
160C
330
156B
100
AcDbEntity
  8
0
 62
     0
370
    -2
100
AcDbLine
 10
1245.861537954938
 20
525.0
 30
0.0
 11
1245.861537954937
 21
-74.99999999999828
 31
0.0
  0
INSERT
  5
160D
330
156B
100
AcDbEntity
  8
0
 62
     0
370
    -2
100
AcDbBlockReference
  2
_ArchTick
 10
1245.861537954937
 20
449.9999999999999
 30
0.0
 41
100.0
 42
100.0
 43
100.0
 50
90.0
  0
INSERT
  5
160E
330
156B
100
AcDbEntity
  8
0
 62
     0
370
    -2
100
AcDbBlockReference
  2
_ArchTick
 10
1245.861537954937
 20
0.0000000000017135
 30
0.0
 41
100.0
 42
100.0
 43
100.0
 50
270.0
  0
MTEXT
  5
160F
330
156B
100
AcDbEntity
  8
0
 62
     0
100
AcDbMText
 10
1144.804239182768
 20
225.000000000001
 30
0.0
 40
100.0
 41
0.0
 71
     5
 72
     1
  1
450
 11
0.0000000000000001
 21
1.0
 31
0.0
 73
     1
 44
1.0
1001
ACAD
1000
MTEXTBEGIN
1070
    73
1070
     1
1070
    44
1040
1.0
1070
    74
1070
     0
1000
MTEXTEND
  0
POINT
  5
1610
330
156B
100
AcDbEntity
  8
Defpoints
 62
     0
100
AcDbPoint
 10
858.9079485170296
 20
450.0
 30
0.0
  0
POINT
  5
1611
330
156B
100
AcDbEntity
  8
Defpoints
 62
     0
100
AcDbPoint
 10
873.3597695904245
 20
0.000000000001819
 30
0.0
  0
POINT
  5
1612
330
156B
100
AcDbEntity
  8
Defpoints
 62
     0
100
AcDbPoint
 10
1245.861537954937
 20
0.0000000000017135
 30
0.0
  0
ENDBLK
  5
156D
330
156B
100
AcDbEntity
  8
0
100
AcDbBlockEnd
  0
BLOCK
  5
1578
330
1577
100
AcDbEntity
  8
0
100
AcDbBlockBegin
  2
*D62
 70
     1
 10
0.0
 20
0.0
 30
0.0
  3
*D62
  1

  0
LINE
  5
1613
330
1577
100
AcDbEntity
  8
0
 62
     0
370
    -2
100
AcDbLine
 10
1478.263343970961
 20
636.8515610067007
 30
0.0
 11
1478.263343970961
 21
760.3449854474038
 31
0.0
  0
LINE
  5
1614
330
1577
100
AcDbEntity
  8
0
 62
     0
370
    -2
100
AcDbLine
 10
1828.259135954999
 20
635.9934244407031
 30
0.0
 11
1828.259135954999
 21
760.3449854474038
 31
0.0
  0
LINE
  5
1615
330
1577
100
AcDbEntity
  8
0
 62
     0
370
    -2
100
AcDbLine
 10
1403.263343970961
 20
685.3449854474038
 30
0.0
 11
1903.259135954999
 21
685.3449854474038
 31
0.0
  0
INSERT
  5
1616
330
1577
100
AcDbEntity
  8
0
 62
     0
370
    -2
100
AcDbBlockReference
  2
_ArchTick
 10
1478.263343970961
 20
685.3449854474038
 30
0.0
 41
100.0
 42
100.0
 43
100.0
 50
180.0
  0
INSERT
  5
1617
330
1577
100
AcDbEntity
  8
0
 62
     0
370
    -2
100
AcDbBlockReference
  2
_ArchTick
 10
1828.259135954999
 20
685.3449854474038
 30
0.0
 41
100.0
 42
100.0
 43
100.0
  0
MTEXT
  5
1618
330
1577
100
AcDbEntity
  8
0
 62
     0
100
AcDbMText
 10
1653.261239962979
 20
786.4363906315784
 30
0.0
 40
100.0
 41
0.0
 71
     5
 72
     1
  1
350
 73
     1
 44
1.0
1001
ACAD
1000
MTEXTBEGIN
1070
    73
1070
     1
1070
    44
1040
1.0
1070
    74
1070
     0
1000
MTEXTEND
  0
POINT
  5
1619
330
1577
100
AcDbEntity
  8
Defpoints
 62
     0
100
AcDbPoint
 10
1478.263343970961
 20
511.8515610067006
 30
0.0
  0
POINT
  5
161A
330
1577
100
AcDbEntity
  8
Defpoints
 62
     0
100
AcDbPoint
 10
1828.259135954999
 20
510.9934244407031
 30
0.0
  0
POINT
  5
161B
330
1577
100
AcDbEntity
  8
Defpoints
 62
     0
100
AcDbPoint
 10
1828.259135954999
 20
685.3449854474038
 30
0.0
  0
ENDBLK
  5
1579
330
1577
100
AcDbEntity
  8
0
100
AcDbBlockEnd
  0
BLOCK
  5
1584
330
1583
100
AcDbEntity
  8
0
100
AcDbBlockBegin
  2
*D63
 70
     1
 10
0.0
 20
0.0
 30
0.0
  3
*D63
  1

  0
LINE
  5
161C
330
1583
100
AcDbEntity
  8
0
 62
     0
370
    -2
100
AcDbLine
 10
-100.0
 20
460.52820867843
 30
0.0
 11
-99.99999999999998
 21
701.0367479594588
 31
0.0
  0
LINE
  5
161D
330
1583
100
AcDbEntity
  8
0
 62
     0
370
    -2
100
AcDbLine
 10
800.0
 20
460.52820867843
 30
0.0
 11
800.0
 21
701.0367479594588
 31
0.0
  0
LINE
  5
161E
330
1583
100
AcDbEntity
  8
0
 62
     0
370
    -2
100
AcDbLine
 10
-175.0
 20
626.0367479594588
 30
0.0
 11
875.0
 21
626.0367479594588
 31
0.0
  0
INSERT
  5
161F
330
1583
100
AcDbEntity
  8
0
 62
     0
370
    -2
100
AcDbBlockReference
  2
_ArchTick
 10
-100.0
 20
626.0367479594588
 30
0.0
 41
100.0
 42
100.0
 43
100.0
 50
180.0
  0
INSERT
  5
1620
330
1583
100
AcDbEntity
  8
0
 62
     0
370
    -2
100
AcDbBlockReference
  2
_ArchTick
 10
800.0
 20
626.0367479594588
 30
0.0
 41
100.0
 42
100.0
 43
100.0
  0
MTEXT
  5
1621
330
1583
100
AcDbEntity
  8
0
 62
     0
100
AcDbMText
 10
350.0
 20
727.0940467316279
 30
0.0
 40
100.0
 41
0.0
 71
     5
 72
     1
  1
900
 73
     1
 44
1.0
1001
ACAD
1000
MTEXTBEGIN
1070
    73
1070
     1
1070
    44
1040
1.0
1070
    74
1070
     0
1000
MTEXTEND
  0
POINT
  5
1622
330
1583
100
AcDbEntity
  8
Defpoints
 62
     0
100
AcDbPoint
 10
-100.0
 20
335.52820867843
 30
0.0
  0
POINT
  5
1623
330
1583
100
AcDbEntity
  8
Defpoints
 62
     0
100
AcDbPoint
 10
800.0
 20
335.52820867843
 30
0.0
  0
POINT
  5
1624
330
1583
100
AcDbEntity
  8
Defpoints
 62
     0
100
AcDbPoint
 10
800.0
 20
626.0367479594588
 30
0.0
  0
ENDBLK
  5
1585
330
1583
100
AcDbEntity
  8
0
100
AcDbBlockEnd
  0
BLOCK
  5
1590
330
158F
100
AcDbEntity
  8
0
100
AcDbBlockBegin
  2
*D64
 70
     1
 10
0.0
 20
0.0
 30
0.0
  3
*D64
  1

  0
LINE
  5
1649
330
158F
100
AcDbEntity
  8
0
 62
     0
370
    -2
100
AcDbLine
 10
2058.210731161514
 20
5708.912656154792
 30
0.0
 11
2593.616780786059
 21
5708.912656154792
 31
0.0
  0
LINE
  5
164A
330
158F
100
AcDbEntity
  8
0
 62
     0
370
    -2
100
AcDbLine
 10
2382.163755973789
 20
2358.912656154792
 30
0.0
 11
2593.616780786057
 21
2358.912656154792
 31
0.0
  0
LINE
  5
164B
330
158F
100
AcDbEntity
  8
0
 62
     0
370
    -2
100
AcDbLine
 10
2518.616780786059
 20
5783.912656154792
 30
0.0
 11
2518.616780786058
 21
2283.912656154793
 31
0.0
  0
INSERT
  5
164C
330
158F
100
AcDbEntity
  8
0
 62
     0
370
    -2
100
AcDbBlockReference
  2
_ArchTick
 10
2518.616780786059
 20
5708.912656154792
 30
0.0
 41
100.0
 42
100.0
 43
100.0
 50
90.0
  0
INSERT
  5
164D
330
158F
100
AcDbEntity
  8
0
 62
     0
370
    -2
100
AcDbBlockReference
  2
_ArchTick
 10
2518.616780786058
 20
2358.912656154792
 30
0.0
 41
100.0
 42
100.0
 43
100.0
 50
270.0
  0
MTEXT
  5
164E
330
158F
100
AcDbEntity
  8
0
 62
     0
100
AcDbMText
 10
2417.525375601883
 20
4033.912656154792
 30
0.0
 40
100.0
 41
0.0
 71
     5
 72
     1
  1
3350
 11
0.0000000000000001
 21
1.0
 31
0.0
 73
     1
 44
1.0
1001
ACAD
1000
MTEXTBEGIN
1070
    73
1070
     1
1070
    44
1040
1.0
1070
    74
1070
     0
1000
MTEXTEND
  0
POINT
  5
164F
330
158F
100
AcDbEntity
  8
Defpoints
 62
     0
100
AcDbPoint
 10
1933.210731161513
 20
5708.912656154793
 30
0.0
  0
POINT
  5
1650
330
158F
100
AcDbEntity
  8
Defpoints
 62
     0
100
AcDbPoint
 10
2257.163755973789
 20
2358.912656154792
 30
0.0
  0
POINT
  5
1651
330
158F
100
AcDbEntity
  8
Defpoints
 62
     0
100
AcDbPoint
 10
2518.616780786058
 20
2358.912656154792
 30
0.0
  0
ENDBLK
  5
1591
330
158F
100
AcDbEntity
  8
0
100
AcDbBlockEnd
  0
BLOCK
  5
159C
330
159B
100
AcDbEntity
  8
0
100
AcDbBlockBegin
  2
*D65
 70
     1
 10
0.0
 20
0.0
 30
0.0
  3
*D65
  1

  0
LINE
  5
1652
330
159B
100
AcDbEntity
  8
0
 62
     0
370
    -2
100
AcDbLine
 10
-1499.999999999997
 20
2233.912656154793
 30
0.0
 11
-1499.999999999997
 21
1801.268728955365
 31
0.0
  0
LINE
  5
1653
330
159B
100
AcDbEntity
  8
0
 62
     0
370
    -2
100
AcDbLine
 10
2200.000000000003
 20
2233.912656154792
 30
0.0
 11
2200.000000000003
 21
1801.268728955365
 31
0.0
  0
LINE
  5
1654
330
159B
100
AcDbEntity
  8
0
 62
     0
370
    -2
100
AcDbLine
 10
-1574.999999999997
 20
1876.268728955366
 30
0.0
 11
2275.000000000003
 21
1876.268728955366
 31
0.0
  0
INSERT
  5
1655
330
159B
100
AcDbEntity
  8
0
 62
     0
370
    -2
100
AcDbBlockReference
  2
_ArchTick
 10
-1499.999999999997
 20
1876.268728955366
 30
0.0
 41
100.0
 42
100.0
 43
100.0
 50
180.0
  0
INSERT
  5
1656
330
159B
100
AcDbEntity
  8
0
 62
     0
370
    -2
100
AcDbBlockReference
  2
_ArchTick
 10
2200.000000000003
 20
1876.268728955366
 30
0.0
 41
100.0
 42
100.0
 43
100.0
  0
MTEXT
  5
1657
330
159B
100
AcDbEntity
  8
0
 62
     0
100
AcDbMText
 10
350.0000000000027
 20
1977.36013413954
 30
0.0
 40
100.0
 41
0.0
 71
     5
 72
     1
  1
3700
 73
     1
 44
1.0
1001
ACAD
1000
MTEXTBEGIN
1070
    73
1070
     1
1070
    44
1040
1.0
1070
    74
1070
     0
1000
MTEXTEND
  0
POINT
  5
1658
330
159B
100
AcDbEntity
  8
Defpoints
 62
     0
100
AcDbPoint
 10
-1499.999999999997
 20
2358.912656154793
 30
0.0
  0
POINT
  5
1659
330
159B
100
AcDbEntity
  8
Defpoints
 62
     0
100
AcDbPoint
 10
2200.000000000003
 20
2358.912656154792
 30
0.0
  0
POINT
  5
165A
330
159B
100
AcDbEntity
  8
Defpoints
 62
     0
100
AcDbPoint
 10
2200.000000000003
 20
1876.268728955366
 30
0.0
  0
ENDBLK
  5
159D
330
159B
100
AcDbEntity
  8
0
100
AcDbBlockEnd
  0
ENDSEC
  0
SECTION
  2
ENTITIES
  0
LINE
  5
1500
330
1F
100
AcDbEntity
  8
0
100
AcDbLine
 10
0.0
 20
335.52820867843
 30
0.0
 11
0.0
 21
50.0
 31
0.0
  0
LINE
  5
1501
330
1F
100
AcDbEntity
  8
0
100
AcDbLine
 10
0.0
 20
50.0
 30
0.0
 11
81.71602403172437
 21
50.0
 31
0.0
  0
LINE
  5
1502
330
1F
100
AcDbEntity
  8
0
100
AcDbLine
 10
700.0
 20
400.0000000000018
 30
0.0
 11
700.0
 21
50.0
 31
0.0
  0
LINE
  5
1503
330
1F
100
AcDbEntity
  8
0
100
AcDbLine
 10
0.0
 20
0.0
 30
0.0
 11
700.0
 21
0.0
 31
0.0
  0
LINE
  5
1504
330
1F
100
AcDbEntity
  8
0
100
AcDbLine
 10
81.71602403172437
 20
0.000000000001819
 30
0.0
 11
81.71602403172437
 21
86.8145831205893
 31
0.0
  0
LINE
  5
1505
330
1F
100
AcDbEntity
  8
0
100
AcDbLine
 10
618.2839759682756
 20
0.000000000001819
 30
0.0
 11
618.2839759682756
 21
86.8145831205893
 31
0.0
  0
LINE
  5
1506
330
1F
100
AcDbEntity
  8
0
100
AcDbLine
 10
629.2386678179245
 20
450.0
 30
0.0
 11
629.2386678179245
 21
387.1392224884548
 31
0.0
  0
LINE
  5
1507
330
1F
100
AcDbEntity
  8
0
100
AcDbLine
 10
629.2386678179245
 20
400.0000000000018
 30
0.0
 11
700.0
 21
400.0000000000018
 31
0.0
  0
LINE
  5
1508
330
1F
100
AcDbEntity
  8
0
100
AcDbLine
 10
800.0
 20
167.4314986633926
 30
0.0
 11
800.0
 21
90.5725866862067
 31
0.0
  0
LINE
  5
1509
330
1F
100
AcDbEntity
  8
0
100
AcDbLine
 10
700.0
 20
69.75331241174171
 30
0.0
 11
800.0
 21
90.5725866862067
 31
0.0
  0
LINE
  5
150A
330
1F
100
AcDbEntity
  8
0
100
AcDbLine
 10
800.0
 20
167.4314986633926
 30
0.0
 11
699.8871766535594
 21
205.0637248205549
 31
0.0
  0
LINE
  5
150B
330
1F
100
AcDbEntity
  8
0
100
AcDbLine
 10
81.71602403172437
 20
86.8145831205893
 30
0.0
 11
151.7160240317243
 21
86.8145831205893
 31
0.0
  0
LINE
  5
150C
330
1F
100
AcDbEntity
  8
0
100
AcDbLine
 10
548.2839759682756
 20
86.8145831205893
 30
0.0
 11
618.2839759682756
 21
86.8145831205893
 31
0.0
  0
LINE
  5
150D
330
1F
100
AcDbEntity
  8
0
100
AcDbLine
 10
151.7160240317243
 20
50.0
 30
0.0
 11
548.2839759682756
 21
50.0
 31
0.0
  0
LINE
  5
150E
330
1F
100
AcDbEntity
  8
0
100
AcDbLine
 10
618.2839759682756
 20
50.0
 30
0.0
 11
700.0
 21
50.0
 31
0.0
  0
CIRCLE
  5
150F
330
1F
100
AcDbEntity
  8
0
100
AcDbCircle
 10
1653.261239962979
 20
225.0
 30
0.0
 40
174.9999999999999
  0
LINE
  5
1510
330
1F
100
AcDbEntity
  8
0
100
AcDbLine
 10
0.0
 20
295.3089726465041
 30
0.0
 11
-100.0
 21
295.3089726465041
 31
0.0
  0
LINE
  5
1511
330
1F
100
AcDbEntity
  8
0
100
AcDbLine
 10
0.0
 20
265.3089726465041
 30
0.0
 11
-100.0
 21
265.3089726465041
 31
0.0
  0
LINE
  5
1512
330
1F
100
AcDbEntity
  8
0
100
AcDbLine
 10
-100.0
 20
295.3089726465041
 30
0.0
 11
-100.0
 21
265.3089726465041
 31
0.0
  0
ARC
  5
1513
330
1F
100
AcDbEntity
  8
0
100
AcDbCircle
 10
1462.786812816979
 20
324.0999550707166
 30
0.0
 40
139.6633789962371
100
AcDbArc
 50
26.83134360818839
 51
64.34978890563972
  0
ARC
  5
1514
330
1F
100
AcDbEntity
  8
0
100
AcDbCircle
 10
1601.38778489465
 20
390.0721077421494
 30
0.0
 40
98.47764472757653
100
AcDbArc
 50
142.5157652288019
 51
212.77984665567
  0
CIRCLE
  5
1515
330
1F
100
AcDbEntity
  8
0
100
AcDbCircle
 10
1635.072218726476
 20
128.3868655228052
 30
0.0
 40
5.470727839283881
  0
CIRCLE
  5
1516
330
1F
100
AcDbEntity
  8
0
100
AcDbCircle
 10
1671.450261199483
 20
128.3868655228052
 30
0.0
 40
5.470727839283881
  0
ARC
  5
1517
330
1F
100
AcDbEntity
  8
0
100
AcDbCircle
 10
1860.19459418441
 20
311.9917302374488
 30
0.0
 40
159.8512066256091
100
AcDbArc
 50
120.304653564244
 51
151.9586272570426
  0
ARC
  5
1518
330
1F
100
AcDbEntity
  8
0
100
AcDbCircle
 10
1712.543959878785
 20
388.0993503021473
 30
0.0
 40
91.21052930905893
100
AcDbArc
 50
325.741992422856
 51
42.73877282292574
  0
LINE
  5
1519
330
1F
100
AcDbEntity
  8
0
100
AcDbLine
 10
700.0
 20
225.0000000000018
 30
0.0
 11
700.0
 21
99.57916000637125
 31
0.0
  0
CIRCLE
  5
151A
330
1F
100
AcDbEntity
  8
0
100
AcDbCircle
 10
1578.237340262145
 20
314.8407680315813
 30
0.0
 40
9.056052309595543
  0
LINE
  5
151B
330
1F
100
AcDbEntity
  8
0
100
AcDbLine
 10
629.2386678179245
 20
336.7550785355943
 30
0.0
 11
523.2606457049696
 21
336.7550785355943
 31
0.0
  0
LINE
  5
151C
330
1F
100
AcDbEntity
  8
0
100
AcDbLine
 10
629.2386678179245
 20
387.1392224884548
 30
0.0
 11
629.2386678179245
 21
336.7550785355943
 31
0.0
  0
LINE
  5
151D
330
1F
100
AcDbEntity
  8
0
100
AcDbLine
 10
629.2386678179245
 20
450.0
 30
0.0
 11
523.2606457049696
 21
336.7550785355943
 31
0.0
  0
DIMENSION
  5
151E
330
1F
100
AcDbEntity
  8
0
100
AcDbDimension
  2
*D61
 10
1245.861537954937
 20
0.0000000000017135
 30
0.0
 11
1144.804239182768
 21
225.000000000001
 31
0.0
 70
    32
 71
     5
 42
449.9999999999982
  3
ISO-25
100
AcDbAlignedDimension
 13
858.9079485170296
 23
450.0
 33
0.0
 14
873.3597695904245
 24
0.000000000001819
 34
0.0
 50
90.0
100
AcDbRotatedDimension
1001
ACAD
1000
DSTYLE
1002
{
1070
    41
1040
100.0
1070
    42
1040
125.0
1070
    44
1040
75.0
1070
    46
1040
75.0
1070
   140
1040
100.0
1070
   147
1040
50.0
1070
   173
1070
     1
1070
   343
1005
338
1070
   344
1005
338
1002
}
  0
LWPOLYLINE
  5
151F
330
1F
100
AcDbEntity
  8
0
100
AcDbPolyline
 90
        4
 70
     1
 43
0.0
 10
0.0000000000028422
 20
4208.912656154793
 10
700.0000000000028
 20
4208.912656154793
 10
700.0000000000028
 20
3858.912656154792
 10
0.0000000000028422
 20
3858.912656154792
  0
LINE
  5
1520
330
1F
100
AcDbEntity
  8
0
100
AcDbLine
 10
618.2839759682756
 20
0.0
 30
0.0
 11
1997.593398283963
 21
0.0
 31
0.0
  0
LINE
  5
1521
330
1F
100
AcDbEntity
  8
0
100
AcDbLine
 10
800.0000000000028
 20
4075.222452636464
 30
0.0
 11
800.0000000000028
 21
3992.60285967312
 31
0.0
  0
LINE
  5
1522
330
1F
100
AcDbEntity
  8
0
100
AcDbLine
 10
700.0000000000028
 20
4105.945137187276
 30
0.0
 11
800.0000000000028
 21
4075.222452636464
 31
0.0
  0
LINE
  5
1523
330
1F
100
AcDbEntity
  8
0
100
AcDbLine
 10
700.0000000000028
 20
3961.880175122309
 30
0.0
 11
800.0000000000028
 21
3992.60285967312
 31
0.0
  0
ARC
  5
1526
330
1F
100
AcDbEntity
  8
0
100
AcDbCircle
 10
1586.078468898944
 20
279.5231709166492
 30
0.0
 40
47.08408270565878
100
AcDbArc
 50
62.35751074043349
 51
143.7739849848786
  0
ARC
  5
1527
330
1F
100
AcDbEntity
  8
0
100
AcDbCircle
 10
1569.940918909466
 20
349.0584401581673
 30
0.0
 40
47.08408270565878
100
AcDbArc
 50
242.3575107404335
 51
323.7739849848785
  0
ARC
  5
1528
330
1F
100
AcDbEntity
  8
0
100
AcDbCircle
 10
1720.444011027015
 20
279.5231709166492
 30
0.0
 40
47.08408270565878
100
AcDbArc
 50
36.22601501512143
 51
117.6424892595665
  0
ARC
  5
1529
330
1F
100
AcDbEntity
  8
0
100
AcDbCircle
 10
1736.581561016494
 20
349.0584401581673
 30
0.0
 40
47.08408270565878
100
AcDbArc
 50
216.2260150151214
 51
297.6424892595665
  0
CIRCLE
  5
152A
330
1F
100
AcDbEntity
  8
0
100
AcDbCircle
 10
1728.285139663814
 20
314.8407680315813
 30
0.0
 40
9.056052309595543
  0
LWPOLYLINE
  5
152B
330
1F
100
AcDbEntity
  8
0
100
AcDbPolyline
 90
        2
 70
     0
 43
0.0
 10
1632.105573071872
 20
85.57204869591259
 10
1674.416906854087
 20
85.57204869591259
  0
ARC
  5
152C
330
1F
100
AcDbEntity
  8
0
100
AcDbCircle
 10
1633.417330835938
 20
138.4029043650789
 30
0.0
 40
16.85276367306979
100
AcDbArc
 50
94.46421036299918
 51
152.6753999192908
  0
ARC
  5
152D
330
1F
100
AcDbEntity
  8
0
100
AcDbCircle
 10
1673.105149090021
 20
138.4029043650789
 30
0.0
 40
16.85276367306979
100
AcDbArc
 50
27.32460008070919
 51
85.53578963700081
  0
ARC
  5
152E
330
1F
100
AcDbEntity
  8
0
100
AcDbCircle
 10
1633.417330835938
 20
102.3736835862655
 30
0.0
 40
16.85276367306979
100
AcDbArc
 50
207.3246000807092
 51
265.5357896370008
  0
ARC
  5
152F
330
1F
100
AcDbEntity
  8
0
100
AcDbCircle
 10
1673.105149090021
 20
102.3736835862655
 30
0.0
 40
16.85276367306979
100
AcDbArc
 50
274.4642103629991
 51
332.6753999192908
  0
LWPOLYLINE
  5
1530
330
1F
100
AcDbEntity
  8
0
100
AcDbPolyline
 90
        2
 70
     0
 43
0.0
 10
1688.077485242742
 20
94.63774191440643
 10
1688.077485242742
 20
146.1388460369362
  0
LWPOLYLINE
  5
1531
330
1F
100
AcDbEntity
  8
0
100
AcDbPolyline
 90
        2
 70
     0
 43
0.0
 10
1674.416906854087
 20
155.2045392554319
 10
1632.105573071872
 20
155.2045392554319
  0
LWPOLYLINE
  5
1532
330
1F
100
AcDbEntity
  8
0
100
AcDbPolyline
 90
        2
 70
     0
 43
0.0
 10
1618.444994683224
 20
146.1388460369362
 10
1618.444994683224
 20
94.63774191440643
  0
LINE
  5
1533
330
1F
100
AcDbEntity
  8
0
100
AcDbLine
 10
1545.884377642163
 20
86.8145831205893
 30
0.0
 11
1525.131019822671
 21
0.0
 31
0.0
  0
LINE
  5
1534
330
1F
100
AcDbEntity
  8
0
100
AcDbLine
 10
1610.334190162008
 20
55.34662279994336
 30
0.0
 11
1597.103368498407
 21
0.0
 31
0.0
  0
LINE
  5
1535
330
1F
100
AcDbEntity
  8
0
100
AcDbLine
 10
1754.076459410564
 20
86.8145831205893
 30
0.0
 11
1774.829817230056
 21
0.0
 31
0.0
  0
LINE
  5
1536
330
1F
100
AcDbEntity
  8
0
100
AcDbLine
 10
1689.973846913803
 20
53.89423010642167
 30
0.0
 11
1702.857468554321
 21
0.0
 31
0.0
  0
LINE
  5
1537
330
1F
100
AcDbEntity
  8
0
100
AcDbLine
 10
109.2588442692504
 20
302.3557692601262
 30
0.0
 11
406.8770175983736
 21
302.3557692601262
 31
0.0
  0
LINE
  5
1538
330
1F
100
AcDbEntity
  8
0
100
AcDbLine
 10
188.8543936302885
 20
242.0215737824092
 30
0.0
 11
590.2928586546913
 21
242.0215737824092
 31
0.0
  0
LINE
  5
1539
330
1F
100
AcDbEntity
  8
0
100
AcDbLine
 10
53.88802298243536
 20
193.6158897955265
 30
0.0
 11
472.6298652027107
 21
193.6158897955265
 31
0.0
  0
LINE
  5
153A
330
1F
100
AcDbEntity
  8
0
100
AcDbLine
 10
261.5286063729873
 20
131.3800071222813
 30
0.0
 11
604.1355746713962
 21
131.3800071222813
 31
0.0
  0
LINE
  5
153B
330
1F
100
AcDbEntity
  8
0
100
AcDbLine
 10
151.7160240317243
 20
0.000000000001819
 30
0.0
 11
151.7160240317243
 21
86.8145831205893
 31
0.0
  0
LINE
  5
153C
330
1F
100
AcDbEntity
  8
0
100
AcDbLine
 10
548.2839759682756
 20
0.000000000001819
 30
0.0
 11
548.2839759682756
 21
86.8145831205893
 31
0.0
  0
LINE
  5
153D
330
1F
100
AcDbEntity
  8
0
100
AcDbLine
 10
1635.89954250872
 20
103.1079935669713
 30
0.0
 11
1667.605469320006
 21
103.1079935669713
 31
0.0
  0
LINE
  5
153E
330
1F
100
AcDbEntity
  8
0
100
AcDbLine
 10
1638.402879117377
 20
192.1327932816293
 30
0.0
 11
1668.119600808583
 21
192.1327932816293
 31
0.0
  0
DIMENSION
  5
153F
330
1F
100
AcDbEntity
  8
0
100
AcDbDimension
  2
*D62
 10
1828.259135954999
 20
685.3449854474038
 30
0.0
 11
1653.261239962979
 21
786.4363906315784
 31
0.0
 70
    32
 71
     5
 42
349.9957919840381
  3
ISO-25
100
AcDbAlignedDimension
 13
1478.263343970961
 23
511.8515610067006
 33
0.0
 14
1828.259135954999
 24
510.9934244407031
 34
0.0
100
AcDbRotatedDimension
1001
ACAD
1000
DSTYLE
1002
{
1070
    41
1040
100.0
1070
    42
1040
125.0
1070
    44
1040
75.0
1070
    46
1040
75.0
1070
   140
1040
100.0
1070
   147
1040
50.0
1070
   173
1070
     1
1070
   343
1005
338
1070
   344
1005
338
1002
}
  0
DIMENSION
  5
1540
330
1F
100
AcDbEntity
  8
0
100
AcDbDimension
  2
*D63
 10
800.0
 20
626.0367479594588
 30
0.0
 11
350.0
 21
727.0940467316279
 31
0.0
 70
    32
 71
     5
 42
900.0
  3
ISO-25
100
AcDbAlignedDimension
 13
-100.0
 23
335.52820867843
 33
0.0
 14
800.0
 24
335.52820867843
 34
0.0
100
AcDbRotatedDimension
1001
ACAD
1000
DSTYLE
1002
{
1070
    41
1040
100.0
1070
    42
1040
125.0
1070
    44
1040
75.0
1070
    46
1040
75.0
1070
   140
1040
100.0
1070
   147
1040
50.0
1070
   173
1070
     1
1070
   343
1005
338
1070
   344
1005
338
1002
}
  0
LINE
  5
1541
330
1F
100
AcDbEntity
  8
0
100
AcDbLine
 10
629.2386678179346
 20
4196.051878643245
 30
0.0
 11
523.2606457049797
 21
4145.667734690385
 31
0.0
  0
LINE
  5
1542
330
1F
100
AcDbEntity
  8
0
100
AcDbLine
 10
629.2386678179346
 20
4145.667734690385
 30
0.0
 11
523.2606457049797
 21
4145.667734690385
 31
0.0
  0
LINE
  5
1543
330
1F
100
AcDbEntity
  8
0
100
AcDbLine
 10
629.2386678179346
 20
4196.051878643245
 30
0.0
 11
629.2386678179346
 21
4145.667734690385
 31
0.0
  0
LINE
  5
1544
330
1F
100
AcDbEntity
  8
0
100
AcDbLine
 10
629.2386678179346
 20
4095.283590737524
 30
0.0
 11
523.2606457049724
 21
4145.667734690385
 31
0.0
  0
LINE
  5
1545
330
1F
100
AcDbEntity
  8
0
100
AcDbLine
 10
629.2386678179346
 20
3871.773433666337
 30
0.0
 11
523.2606457049797
 21
3922.157577619199
 31
0.0
  0
LINE
  5
1546
330
1F
100
AcDbEntity
  8
0
100
AcDbLine
 10
629.2386678179346
 20
3871.773433666337
 30
0.0
 11
629.2386678179346
 21
3922.157577619199
 31
0.0
  0
LINE
  5
1547
330
1F
100
AcDbEntity
  8
0
100
AcDbLine
 10
629.2386678179346
 20
3972.54172157206
 30
0.0
 11
523.2606457049724
 21
3922.157577619199
 31
0.0
  0
LINE
  5
1548
330
1F
100
AcDbEntity
  8
0
100
AcDbLine
 10
629.2386678179346
 20
3922.157577619199
 30
0.0
 11
523.2606457049797
 21
3922.157577619199
 31
0.0
  0
LINE
  5
1549
330
1F
100
AcDbEntity
  8
0
100
AcDbLine
 10
629.2386678179346
 20
3922.157577619199
 30
0.0
 11
629.2386678179346
 21
3972.54172157206
 31
0.0
  0
LINE
  5
154A
330
1F
100
AcDbEntity
  8
0
100
AcDbLine
 10
629.2386678179346
 20
4095.283590737524
 30
0.0
 11
629.2386678179346
 21
4145.667734690385
 31
0.0
  0
SPLINE
  5
154B
330
1F
100
AcDbEntity
  8
0
100
AcDbSpline
210
0.0
220
0.0
230
1.0
 70
     8
 71
     3
 72
    11
 73
     7
 74
     5
 42
0.0000000001
 43
0.0000000001
 44
0.0000000001
 40
0.0
 40
0.0
 40
0.0
 40
0.0
 40
102.2538329194813
 40
161.2525433879109
 40
228.8244327637294
 40
263.5063763073922
 40
263.5063763073922
 40
263.5063763073922
 40
263.5063763073922
 10
0.0000000000028422
 20
4009.247160469699
 30
0.0
 10
-42.52377999761381
 20
3995.012251791976
 30
0.0
 10
-109.5830528219711
 20
3972.564044584087
 30
0.0
 10
-115.3980075835542
 20
4091.413378561328
 30
0.0
 10
-43.70282998863411
 20
4065.433627887982
 30
0.0
 10
-11.06868578476576
 20
4067.533609634212
 30
0.0
 10
0.0000000000028422
 20
4068.245870938129
 30
0.0
 11
0.0000000000028422
 21
4009.247160469699
 31
0.0
 11
-102.2538329194766
 21
4009.247160469699
 31
0.0
 11
-102.2538329194766
 21
4068.245870938129
 31
0.0
 11
-34.68194354365994
 21
4068.245870938129
 31
0.0
 11
0.0000000000028422
 21
4068.245870938129
 31
0.0
  0
SPLINE
  5
154C
330
1F
100
AcDbEntity
  8
0
100
AcDbSpline
210
0.0
220
0.0
230
1.0
 70
     8
 71
     3
 72
    46
 73
    42
 74
     0
 42
0.0000000001
 43
0.0000000001
 40
0.0
 40
0.0
 40
0.0
 40
0.0
 40
11.56641219997749
 40
11.56641219997749
 40
25.74456166364022
 40
25.74456166364022
 40
39.92271112730295
 40
39.92271112730295
 40
50.63366322535315
 40
50.63366322535315
 40
61.34461532340335
 40
61.34461532340335
 40
69.08890525356756
 40
69.08890525356756
 40
76.83319518373178
 40
76.83319518373178
 40
83.17711419768853
 40
83.17711419768853
 40
89.5210332116453
 40
89.5210332116453
 40
95.86495222560207
 40
95.86495222560207
 40
102.2088712395588
 40
102.2088712395588
 40
108.5527902535156
 40
108.5527902535156
 40
114.8967092674723
 40
114.8967092674723
 40
121.2406282814291
 40
121.2406282814291
 40
127.5845472953859
 40
127.5845472953859
 40
135.2062717437775
 40
135.2062717437775
 40
142.8279961921692
 40
142.8279961921692
 40
148.5069176545526
 40
148.5069176545526
 40
154.185839116936
 40
154.185839116936
 40
156.3802936161285
 40
156.3802936161285
 40
156.3802936161285
 40
156.3802936161285
 10
-6.348760718462358
 20
4028.212740801964
 30
0.0
 10
-11.15882557090378
 20
4026.60256329864
 30
0.0
 10
-15.91107742690371
 20
4025.012060124399
 30
0.0
 10
-26.26866055703874
 20
4021.65233628101
 30
0.0
 10
-31.82528836509744
 20
4019.924279137952
 30
0.0
 10
-42.4509533176432
 20
4016.93075731595
 30
0.0
 10
-47.52083639915952
 20
4015.66670579833
 30
0.0
 10
-55.76861425899267
 20
4014.018779265492
 30
0.0
 10
-59.10514889153716
 20
4013.495719701016
 30
0.0
 10
-65.21094067023375
 20
4012.862924032869
 30
0.0
 10
-67.97848506721209
 20
4012.754923341822
 30
0.0
 10
-72.12964922315302
 20
4012.895931467148
 30
0.0
 10
-73.68329910428736
 20
4013.05325181256
 30
0.0
 10
-76.38889105527494
 20
4013.5128830006
 30
0.0
 10
-77.53915496155684
 20
4013.813711382208
 30
0.0
 10
-79.30826564121241
 20
4014.432630425548
 30
0.0
 10
-79.98660398177605
 20
4014.73662422518
 30
0.0
 10
-81.18546660938307
 20
4015.388907686557
 30
0.0
 10
-81.70748283125874
 20
4015.736432495557
 30
0.0
 10
-82.69815958237165
 20
4016.529041678075
 30
0.0
 10
-83.16865515528196
 20
4016.975100316609
 30
0.0
 10
-84.13031693467644
 20
4018.080455370619
 30
0.0
 10
-84.62178747573933
 20
4018.741640249348
 30
0.0
 10
-85.63086348699732
 20
4020.406919749882
 30
0.0
 10
-86.18622406763904
 20
4021.484582899507
 30
0.0
 10
-87.25597547861696
 20
4024.012613723892
 30
0.0
 10
-87.77098069403734
 20
4025.460909585976
 30
0.0
 10
-88.6814931580783
 20
4028.59199500526
 30
0.0
 10
-89.07769817300584
 20
4030.274718310645
 30
0.0
 10
-89.70954156506639
 20
4033.743995123893
 30
0.0
 10
-89.94542586359319
 20
4035.530713455264
 30
0.0
 10
-90.26760586259195
 20
4039.436565027204
 30
0.0
 10
-90.31337810508274
 20
4041.550679428299
 30
0.0
 10
-90.15333379865921
 20
4045.511082346863
 30
0.0
 10
-89.94594812353614
 20
4047.357478223484
 30
0.0
 10
-89.43153524653178
 20
4050.125520456514
 30
0.0
 10
-89.1636036473327
 20
4051.16212042478
 30
0.0
 10
-88.61372001227289
 20
4052.841024723769
 30
0.0
 10
-88.33130073623477
 20
4053.481093356896
 30
0.0
 10
-88.03224931250303
 20
4054.048898054321
 30
0.0
 10
-87.95924861734681
 20
4054.173151864306
 30
0.0
 10
-87.90200114507468
 20
4054.264003429279
 30
0.0
  0
SPLINE
  5
154D
330
1F
100
AcDbEntity
  8
0
100
AcDbSpline
210
0.0
220
0.0
230
1.0
 70
     8
 71
     3
 72
    38
 73
    34
 74
     0
 42
0.0000000001
 43
0.0000000001
 40
171.3650611662487
 40
171.3650611662487
 40
171.3650611662487
 40
171.3650611662487
 40
173.1021803348042
 40
173.1021803348042
 40
176.5764186719151
 40
176.5764186719151
 40
181.9176389217676
 40
181.9176389217676
 40
187.25885917162
 40
187.25885917162
 40
192.6000794214725
 40
192.6000794214725
 40
197.9412996713249
 40
197.9412996713249
 40
206.4600104817836
 40
206.4600104817836
 40
214.9787212922422
 40
214.9787212922422
 40
223.4974321027008
 40
223.4974321027008
 40
227.239063736354
 40
227.239063736354
 40
228.9891753131362
 40
228.9891753131362
 40
230.7392868899185
 40
230.7392868899185
 40
234.2395100434829
 40
234.2395100434829
 40
241.2399563506118
 40
241.2399563506118
 40
253.3721530450332
 40
253.3721530450332
 40
263.5063763073937
 40
263.5063763073937
 40
263.5063763073937
 40
263.5063763073937
 10
-87.90200114507468
 20
4054.264003429279
 30
0.0
 10
-87.83814617589531
 20
4054.289483617825
 30
0.0
 10
-87.75619988386177
 20
4054.31984364829
 30
0.0
 10
-87.45130201524887
 20
4054.420528760308
 30
0.0
 10
-87.16866131763969
 20
4054.500331535304
 30
0.0
 10
-86.24059201849457
 20
4054.699376493442
 30
0.0
 10
-85.48138068054402
 20
4054.815229308294
 30
0.0
 10
-83.60880597974471
 20
4054.964477525163
 30
0.0
 10
-82.49694938709296
 20
4054.998164802489
 30
0.0
 10
-79.98664188256668
 20
4054.954529704701
 30
0.0
 10
-78.58866373326316
 20
4054.877740475536
 30
0.0
 10
-75.56819812549372
 20
4054.614829742835
 30
0.0
 10
-73.94577133115388
 20
4054.429062410007
 30
0.0
 10
-69.51029187961546
 20
4053.827990089348
 30
0.0
 10
-66.56451802060189
 20
4053.341573885695
 30
0.0
 10
-60.38575921709423
 20
4052.242668154292
 30
0.0
 10
-57.15244881606929
 20
4051.63070779248
 30
0.0
 10
-50.49613160874002
 20
4050.410355891246
 30
0.0
 10
-47.07330216152775
 20
4049.801703129438
 30
0.0
 10
-42.04440792777757
 20
4049.032645264776
 30
0.0
 10
-40.49556562581426
 20
4048.812408026094
 30
0.0
 10
-38.20175944309165
 20
4048.520884748808
 30
0.0
 10
-37.46639659817163
 20
4048.432585224595
 30
0.0
 10
-35.99497465543107
 20
4048.26768667723
 30
0.0
 10
-35.26413086479886
 20
4048.191596709806
 30
0.0
 10
-33.08623175623222
 20
4047.981460001397
 30
0.0
 10
-31.65381344406057
 20
4047.865555179049
 30
0.0
 10
-27.41523509272236
 20
4047.582500563132
 30
0.0
 10
-24.66790366157227
 20
4047.480084350899
 30
0.0
 10
-17.37089121584438
 20
4047.3747928104
 30
0.0
 10
-12.97809550443787
 20
4047.49915771941
 30
0.0
 10
-5.299501640079029
 20
4047.862564926528
 30
0.0
 10
-1.949992772436303
 20
4048.079024978452
 30
0.0
 10
1.284328073011351
 20
4048.287151004202
 30
0.0
  0
SPLINE
  5
1555
330
1F
100
AcDbEntity
  8
0
100
AcDbSpline
210
0.0
220
0.0
230
1.0
 70
     8
 71
     3
 72
     9
 73
     5
 74
     3
 42
0.0000000001
 43
0.0000000001
 44
0.0000000001
 40
0.0
 40
0.0
 40
0.0
 40
0.0
 40
26.23605056580402
 40
52.22170639465222
 40
52.22170639465222
 40
52.22170639465222
 40
52.22170639465222
 10
1668.119600808583
 20
192.1327932816293
 30
0.0
 10
1677.371219236433
 20
190.0549251454886
 30
0.0
 10
1695.786159396826
 20
185.9190198780306
 30
0.0
 10
1700.681925903372
 20
167.7080764846196
 30
0.0
 10
1703.118071947625
 20
158.6462640696136
 30
0.0
 11
1668.119600808583
 21
192.1327932816293
 31
0.0
 11
1692.462173836917
 21
182.3466046644153
 31
0.0
 11
1703.118071947625
 21
158.6462640696136
 31
0.0
  0
SPLINE
  5
1556
330
1F
100
AcDbEntity
  8
0
100
AcDbSpline
210
0.0
220
0.0
230
1.0
 70
     8
 71
     3
 72
     9
 73
     5
 74
     3
 42
0.0000000001
 43
0.0000000001
 44
0.0000000001
 40
0.0
 40
0.0
 40
0.0
 40
0.0
 40
26.23605056580402
 40
52.22170639465222
 40
52.22170639465222
 40
52.22170639465222
 40
52.22170639465222
 10
1638.402879117377
 20
192.1327932816293
 30
0.0
 10
1629.151260689527
 20
190.0549251454886
 30
0.0
 10
1610.736320529133
 20
185.9190198780306
 30
0.0
 10
1605.840554022586
 20
167.7080764846196
 30
0.0
 10
1603.404407978334
 20
158.6462640696136
 30
0.0
 11
1638.402879117377
 21
192.1327932816293
 31
0.0
 11
1614.060306089043
 21
182.3466046644153
 31
0.0
 11
1603.404407978334
 21
158.6462640696136
 31
0.0
  0
SPLINE
  5
1557
330
1F
100
AcDbEntity
  8
0
100
AcDbSpline
210
0.0
220
0.0
230
1.0
 70
     8
 71
     3
 72
     9
 73
     5
 74
     3
 42
0.0000000001
 43
0.0000000001
 44
0.0000000001
 40
0.0
 40
0.0
 40
0.0
 40
0.0
 40
26.23605056580402
 40
52.22170639465222
 40
52.22170639465222
 40
52.22170639465222
 40
52.22170639465222
 10
1668.119600808583
 20
79.98515775565284
 30
0.0
 10
1677.371219236433
 20
82.06302589179358
 30
0.0
 10
1695.786159396826
 20
86.19893115925334
 30
0.0
 10
1700.681925903372
 20
104.4098745526626
 30
0.0
 10
1703.118071947625
 20
113.4716869676686
 30
0.0
 11
1668.119600808583
 21
79.98515775565284
 31
0.0
 11
1692.462173836917
 21
89.77134637286871
 31
0.0
 11
1703.118071947625
 21
113.4716869676686
 31
0.0
  0
SPLINE
  5
1558
330
1F
100
AcDbEntity
  8
0
100
AcDbSpline
210
0.0
220
0.0
230
1.0
 70
     8
 71
     3
 72
     9
 73
     5
 74
     3
 42
0.0000000001
 43
0.0000000001
 44
0.0000000001
 40
0.0
 40
0.0
 40
0.0
 40
0.0
 40
26.23605056580402
 40
52.22170639465222
 40
52.22170639465222
 40
52.22170639465222
 40
52.22170639465222
 10
1638.402879117377
 20
79.98515775565284
 30
0.0
 10
1629.151260689527
 20
82.06302589179358
 30
0.0
 10
1610.736320529133
 20
86.19893115925334
 30
0.0
 10
1605.840554022586
 20
104.4098745526626
 30
0.0
 10
1603.404407978334
 20
113.4716869676686
 30
0.0
 11
1638.402879117377
 21
79.98515775565284
 31
0.0
 11
1614.060306089043
 21
89.77134637286871
 31
0.0
 11
1603.404407978334
 21
113.4716869676686
 31
0.0
  0
LINE
  5
1559
330
1F
100
AcDbEntity
  8
0
100
AcDbLine
 10
1638.402879117377
 20
79.98515775565284
 30
0.0
 11
1668.119600808583
 21
79.98515775565284
 31
0.0
  0
LINE
  5
155A
330
1F
100
AcDbEntity
  8
0
100
AcDbLine
 10
1603.404407978334
 20
158.6462640696136
 30
0.0
 11
1603.404407978334
 21
113.4716869676686
 31
0.0
  0
LINE
  5
155B
330
1F
100
AcDbEntity
  8
0
100
AcDbLine
 10
1703.118071947625
 20
158.6462640696136
 30
0.0
 11
1703.118071947625
 21
113.4716869676686
 31
0.0
  0
SPLINE
  5
155C
330
1F
100
AcDbEntity
  8
0
100
AcDbSpline
210
0.0
220
0.0
230
1.0
 70
     8
 71
     3
 72
    10
 73
     6
 74
     4
 42
0.0000000001
 43
0.0000000001
 44
0.0000000001
 40
0.0
 40
0.0
 40
0.0
 40
0.0
 40
155.7910678058773
 40
366.8142052981821
 40
704.1651073025588
 40
704.1651073025588
 40
704.1651073025588
 40
704.1651073025588
 10
0.0
 20
335.52820867843
 30
0.0
 10
52.11429166007292
 20
335.2821694084469
 30
0.0
 10
174.8187749735007
 20
334.7028634150975
 30
0.0
 10
403.6033568201164
 20
395.946401312538
 30
0.0
 10
587.1097896844294
 20
398.4560837010413
 30
0.0
 10
700.0
 20
400.0000000000018
 30
0.0
 11
0.0
 21
335.52820867843
 31
0.0
 11
155.7068755258224
 21
340.6493142310937
 31
0.0
 11
363.3497936828717
 21
378.2682336243943
 31
0.0
 11
700.0
 21
400.0000000000018
 31
0.0
  0
LINE
  5
155D
330
1F
100
AcDbEntity
  8
0
100
AcDbLine
 10
51.63419006295874
 20
4082.689986928961
 30
0.0
 11
470.3760322832414
 21
4082.689986928961
 31
0.0
  0
LINE
  5
155E
330
1F
100
AcDbEntity
  8
0
100
AcDbLine
 10
82.41149583724029
 20
4144.925869602206
 30
0.0
 11
425.0184641356565
 21
4144.925869602206
 31
0.0
  0
LINE
  5
155F
330
1F
100
AcDbEntity
  8
0
100
AcDbLine
 10
186.6005607108119
 20
4034.284302942078
 30
0.0
 11
588.0390257352147
 21
4034.284302942078
 31
0.0
  0
LINE
  5
1560
330
1F
100
AcDbEntity
  8
0
100
AcDbLine
 10
107.0050113497738
 20
3944.388030506367
 30
0.0
 11
404.623184678897
 21
3944.388030506367
 31
0.0
  0
DIMENSION
  5
1569
330
1F
100
AcDbEntity
  8
0
100
AcDbDimension
  2
*D64
 10
2518.616780786058
 20
2358.912656154792
 30
0.0
 11
2417.525375601883
 21
4033.912656154792
 31
0.0
 70
    32
 71
     5
 42
3350.0
  3
ISO-25
100
AcDbAlignedDimension
 13
1933.210731161513
 23
5708.912656154793
 33
0.0
 14
2257.163755973789
 24
2358.912656154792
 34
0.0
 50
90.0
100
AcDbRotatedDimension
1001
ACAD
1000
DSTYLE
1002
{
1070
    41
1040
100.0
1070
    42
1040
125.0
1070
    44
1040
75.0
1070
    46
1040
75.0
1070
   140
1040
100.0
1070
   147
1040
50.0
1070
   173
1070
     1
1070
   343
1005
338
1070
   344
1005
338
1002
}
  0
DIMENSION
  5
156A
330
1F
100
AcDbEntity
  8
0
100
AcDbDimension
  2
*D65
 10
2200.000000000003
 20
1876.268728955366
 30
0.0
 11
350.0000000000027
 21
1977.36013413954
 31
0.0
 70
    32
 71
     5
 42
3700.0
  3
ISO-25
100
AcDbAlignedDimension
 13
-1499.999999999997
 23
2358.912656154793
 33
0.0
 14
2200.000000000003
 24
2358.912656154792
 34
0.0
100
AcDbRotatedDimension
1001
ACAD
1000
DSTYLE
1002
{
1070
    41
1040
100.0
1070
    42
1040
125.0
1070
    44
1040
75.0
1070
    46
1040
75.0
1070
   140
1040
100.0
1070
   147
1040
50.0
1070
   173
1070
     1
1070
   343
1005
338
1070
   344
1005
338
1002
}
  0
LWPOLYLINE
  5
1601
330
1F
100
AcDbEntity
  8
0
  6
ACAD_ISO03W100
 48
10.0
100
AcDbPolyline
 90
        9
 70
     0
 43
0.0
 10
0.0000000000028422
 20
5708.912656154793
 10
700.0000000000028
 20
5708.912656154793
 42
-0.4142135623730952
 10
2200.000000000003
 20
4208.912656154793
 10
2200.000000000003
 20
3858.912656154792
 42
-0.4142135623730952
 10
700.0000000000028
 20
2358.912656154792
 10
0.0000000000028422
 20
2358.912656154792
 42
-0.4142135623730959
 10
-1499.999999999997
 20
3858.912656154792
 10
-1499.999999999997
 20
4208.912656154793
 42
-0.4142135623730959
 10
0.0000000000028422
 20
5708.912656154793
 42
-6.109196221945001
  0
ENDSEC
  0
SECTION
  2
OBJECTS
  0
DICTIONARY
  5
C
330
0
100
AcDbDictionary
281
     1
  3
ACAD_COLOR
350
6B
  3
ACAD_GROUP
350
D
  3
ACAD_IMAGE_DICT
350
C43
  3
ACAD_IMAGE_VARS
350
C46
  3
ACAD_LAYOUT
350
1A
  3
ACAD_MATERIAL
350
6A
  3
ACAD_MLEADERSTYLE
350
12D
  3
ACAD_MLINESTYLE
350
17
  3
ACAD_PLOTSETTINGS
350
19
  3
ACAD_PLOTSTYLENAME
350
E
  3
ACAD_SCALELIST
350
10C
  3
ACAD_TABLESTYLE
350
7E
  3
ACAD_VISUALSTYLE
350
EF
  3
ACDB_RECOMPOSE_DATA
350
15D
  3
AcDbVariableDictionary
350
5E
  3
DWGPROPS
350
165C
  0
DICTIONARY
  5
13C
330
10
100
AcDbDictionary
280
     1
281
     1
  3
ADSK_XREC_LAYER_RECONCILED
360
6BF
  0
DICTIONARY
  5
1CE
330
1F
100
AcDbDictionary
280
     1
281
     1
  3
ACAD_SORTENTS
360
1CF
  0
DICTIONARY
  5
6B
102
{ACAD_REACTORS
330
C
102
}
330
C
100
AcDbDictionary
281
     1
  0
DICTIONARY
  5
D
102
{ACAD_REACTORS
330
C
102
}
330
C
100
AcDbDictionary
281
     1
  0
DICTIONARY
  5
C43
102
{ACAD_REACTORS
330
C
102
}
330
C
100
AcDbDictionary
281
     1
  3
SLK05_stor
350
C44
  3
SLK07_stor
350
14FE
  0
RASTERVARIABLES
  5
C46
102
{ACAD_REACTORS
330
C
102
}
330
C
100
AcDbRasterVariables
 90
        0
 70
     1
 71
     1
 72
     1
  0
DICTIONARY
  5
1A
102
{ACAD_REACTORS
330
C
102
}
330
C
100
AcDbDictionary
281
     1
  3
Layout1
350
D3
  3
Layout2
350
D7
  3
Model
350
22
  0
DICTIONARY
  5
6A
102
{ACAD_REACTORS
330
C
102
}
330
C
100
AcDbDictionary
281
     1
  3
ByBlock
350
ED
  3
ByLayer
350
EC
  3
Global
350
EE
  0
DICTIONARY
  5
12D
102
{ACAD_REACTORS
330
C
102
}
330
C
100
AcDbDictionary
281
     1
  3
Annotative
350
13B
  3
Standard
350
12E
  0
DICTIONARY
  5
17
102
{ACAD_REACTORS
330
C
102
}
330
C
100
AcDbDictionary
281
     1
  3
Standard
350
18
  0
DICTIONARY
  5
19
102
{ACAD_REACTORS
330
C
102
}
330
C
100
AcDbDictionary
281
     1
  0
ACDBDICTIONARYWDFLT
  5
E
102
{ACAD_REACTORS
330
C
102
}
330
C
100
AcDbDictionary
281
     1
  3
Normal
350
F
100
AcDbDictionaryWithDefault
340
F
  0
DICTIONARY
  5
10C
102
{ACAD_REACTORS
330
C
102
}
330
C
100
AcDbDictionary
281
     1
  3
A0
350
10D
  3
A1
350
188
  3
A2
350
189
  3
A3
350
18A
  3
A4
350
18B
  3
A5
350
18C
  3
A6
350
18D
  3
A7
350
18E
  3
A8
350
18F
  3
A9
350
190
  3
B0
350
191
  3
B1
350
192
  3
B2
350
193
  3
B3
350
194
  3
B4
350
195
  3
B5
350
196
  3
B6
350
197
  3
B7
350
198
  3
B8
350
199
  3
B9
350
19A
  3
C0
350
19B
  3
C1
350
19C
  3
C2
350
19D
  3
C3
350
19E
  3
C4
350
19F
  3
C5
350
1A0
  3
C6
350
1A1
  3
C7
350
1A2
  3
C8
350
1A3
  3
C9
350
1A4
  3
D0
350
1A5
  3
D1
350
1A6
  3
D2
350
1A7
  0
DICTIONARY
  5
7E
102
{ACAD_REACTORS
330
C
102
}
330
C
100
AcDbDictionary
281
     1
  3
Standard
350
7F
  0
DICTIONARY
  5
EF
102
{ACAD_REACTORS
330
C
102
}
330
C
100
AcDbDictionary
281
     1
  3
2dWireframe
350
F5
  3
3D Hidden
350
F7
  3
3dWireframe
350
F6
  3
Basic
350
F4
  3
Brighten
350
FB
  3
ColorChange
350
FF
  3
Conceptual
350
F8
  3
Dim
350
FA
  3
Facepattern
350
FE
  3
Flat
350
F0
  3
FlatWithEdges
350
F1
  3
Gouraud
350
F2
  3
GouraudWithEdges
350
F3
  3
Linepattern
350
FD
  3
Realistic
350
F9
  3
Thicken
350
FC
  0
XRECORD
  5
15D
102
{ACAD_REACTORS
330
C
102
}
330
C
100
AcDbXrecord
280
     1
 90
        1
330
7F
  0
DICTIONARY
  5
5E
102
{ACAD_REACTORS
330
C
102
}
330
C
100
AcDbDictionary
281
     1
  3
CANNOSCALE
350
146
  3
CMLEADERSTYLE
350
145
  3
CTABLESTYLE
350
84
  3
DIMASSOC
350
5F
  3
HIDETEXT
350
63
  3
INDEXCTL
350
1357
  3
LIGHTINGUNITS
350
1355
  3
MSLTSCALE
350
1354
  3
PSOLHEIGHT
350
1359
  3
PSOLWIDTH
350
1358
  3
SORTENTS
350
1356
  0
XRECORD
  5
165C
102
{ACAD_REACTORS
330
C
102
}
330
C
100
AcDbXrecord
280
     1
  1
DWGPROPS COOKIE
  2

  3

  4

  6

  7

  8
dk
  9

300
=
301
=
302
=
303
=
304
=
305
=
306
=
307
=
308
=
309
=
 40
0.3531534606481481
 41
2454525.590090787
 42
2454551.714969132
  1

 90
        0
  0
XRECORD
  5
6BF
102
{ACAD_REACTORS
330
13C
102
}
330
13C
100
AcDbXrecord
280
     1
290
     1
  0
SORTENTSTABLE
  5
1CF
102
{ACAD_REACTORS
330
1CE
102
}
330
1CE
100
AcDbSortentsTable
330
1F
  0
IMAGEDEF
  5
C44
102
{ACAD_REACTORS
330
C43
102
}
330
C43
100
AcDbRasterImageDef
 90
        0
  1
C:\Users\Magnus Helgesson\Projekt\Magnusprojekt\Marbit\Naturlek\SLK05_stor.jpg
 10
1136.0
 20
852.0
 11
0.0008802816901408
 21
0.0008802816901408
280
     1
281
     0
  0
IMAGEDEF
  5
14FE
102
{ACAD_REACTORS
330
14B6
330
C43
330
1525
102
}
330
C43
100
AcDbRasterImageDef
 90
        0
  1
C:\Users\Magnus Helgesson\Projekt\Magnusprojekt\Marbit\Naturlek\SLK07_stor.jpg
 10
1136.0
 20
852.0
 11
0.0008802816901408
 21
0.0008802816901408
280
     1
281
     0
  0
LAYOUT
  5
D3
102
{ACAD_XDICTIONARY
360
1660
102
}
102
{ACAD_REACTORS
330
1A
102
}
330
1A
100
AcDbPlotSettings
  1

  2
C:\Documents and Settings\basas\Application Data\Autodesk\AutoCAD 2005\R16.1\enu\plotters\Default Windows System Printer.pc3
  4

  6

 40
0.0
 41
0.0
 42
0.0
 43
0.0
 44
0.0
 45
0.0
 46
0.0
 47
0.0
 48
0.0
 49
0.0
140
0.0
141
0.0
142
1.0
143
1.0
 70
   688
 72
     0
 73
     0
 74
     5
  7

 75
    16
147
1.0
148
0.0
149
0.0
100
AcDbLayout
  1
Layout1
 70
     1
 71
     1
 10
0.0
 20
0.0
 11
12.0
 21
9.0
 12
0.0
 22
0.0
 32
0.0
 14
0.0
 24
0.0
 34
0.0
 15
0.0
 25
0.0
 35
0.0
146
0.0
 13
0.0
 23
0.0
 33
0.0
 16
1.0
 26
0.0
 36
0.0
 17
0.0
 27
1.0
 37
0.0
 76
     0
330
D2
  0
LAYOUT
  5
D7
102
{ACAD_XDICTIONARY
360
1662
102
}
102
{ACAD_REACTORS
330
1A
102
}
330
1A
100
AcDbPlotSettings
  1

  2
C:\Documents and Settings\basas\Application Data\Autodesk\AutoCAD 2005\R16.1\enu\plotters\Default Windows System Printer.pc3
  4

  6

 40
0.0
 41
0.0
 42
0.0
 43
0.0
 44
0.0
 45
0.0
 46
0.0
 47
0.0
 48
0.0
 49
0.0
140
0.0
141
0.0
142
1.0
143
1.0
 70
   688
 72
     0
 73
     0
 74
     5
  7

 75
    16
147
1.0
148
0.0
149
0.0
100
AcDbLayout
  1
Layout2
 70
     1
 71
     2
 10
0.0
 20
0.0
 11
12.0
 21
9.0
 12
0.0
 22
0.0
 32
0.0
 14
0.0
 24
0.0
 34
0.0
 15
0.0
 25
0.0
 35
0.0
146
0.0
 13
0.0
 23
0.0
 33
0.0
 16
1.0
 26
0.0
 36
0.0
 17
0.0
 27
1.0
 37
0.0
 76
     0
330
D6
  0
LAYOUT
  5
22
102
{ACAD_XDICTIONARY
360
165D
102
}
102
{ACAD_REACTORS
330
1A
102
}
330
1A
100
AcDbPlotSettings
  1

  2
none_device
  4
ISO_A4_(210.00_x_297.00_MM)
  6

 40
7.5
 41
20.0
 42
7.5
 43
20.0
 44
210.0
 45
297.0
 46
11.54999923706054
 47
-13.65000009536743
 48
0.0
 49
0.0
140
0.0
141
0.0
142
1.0
143
8.704084754739808
 70
 11952
 72
     1
 73
     0
 74
     0
  7

 75
     0
147
0.1148885871608098
148
0.0
149
0.0
100
AcDbLayout
  1
Model
 70
     1
 71
     0
 10
0.0
 20
0.0
 11
12.0
 21
9.0
 12
0.0
 22
0.0
 32
0.0
 14
0.0
 24
0.0
 34
0.0
 15
0.0
 25
0.0
 35
0.0
146
0.0
 13
0.0
 23
0.0
 33
0.0
 16
1.0
 26
0.0
 36
0.0
 17
0.0
 27
1.0
 37
0.0
 76
     0
330
1F
331
EA
1001
ACAD_PSEXT
1000
None
1000
None
1000
Not applicable
1000
The layout will not be plotted unless a new plotter configuration name is selected.
1070
     0
  0
MATERIAL
  5
ED
102
{ACAD_XDICTIONARY
360
1666
102
}
102
{ACAD_REACTORS
330
6A
102
}
330
6A
100
AcDbMaterial
  1
ByBlock
  0
MATERIAL
  5
EC
102
{ACAD_XDICTIONARY
360
1664
102
}
102
{ACAD_REACTORS
330
6A
102
}
330
6A
100
AcDbMaterial
  1
ByLayer
  0
MATERIAL
  5
EE
102
{ACAD_XDICTIONARY
360
173
102
}
102
{ACAD_REACTORS
330
6A
102
}
330
6A
100
AcDbMaterial
  1
Global
 43
0.0007999999797903
 43
0.0
 43
0.0
 43
0.0
 43
0.0
 43
0.0007999999797903
 43
0.0
 43
0.0
 43
0.0
 43
0.0
 43
1.0
 43
0.0
 43
0.0
 43
0.0
 43
0.0
 43
1.0
 49
0.0007999999797903
 49
0.0
 49
0.0
 49
0.0
 49
0.0
 49
0.0007999999797903
 49
0.0
 49
0.0
 49
0.0
 49
0.0
 49
1.0
 49
0.0
 49
0.0
 49
0.0
 49
0.0
 49
1.0
142
0.0007999999797903
142
0.0
142
0.0
142
0.0
142
0.0
142
0.0007999999797903
142
0.0
142
0.0
142
0.0
142
0.0
142
1.0
142
0.0
142
0.0
142
0.0
142
0.0
142
1.0
144
0.0007999999797903
144
0.0
144
0.0
144
0.0
144
0.0
144
0.0007999999797903
144
0.0
144
0.0
144
0.0
144
0.0
144
1.0
144
0.0
144
0.0
144
0.0
144
0.0
144
1.0
1001
ACAD
1070
    -1
1070
     3
1070
     0
1000

1071
        0
1070
     0
  0
MLEADERSTYLE
  5
13B
102
{ACAD_REACTORS
330
12D
102
}
330
12D
100
AcDbMLeaderStyle
170
     2
171
     1
172
     0
 90
        2
 40
0.0
 41
0.0
173
     1
 91
-1056964608
340
14
 92
       -2
290
     1
 42
2.0
291
     1
 43
8.0
  3
Standard
 44
4.0
300

342
11
174
     1
178
     1
175
     1
176
     0
 93
-1056964608
 45
4.0
292
     0
297
     0
 46
4.0
 94
-1056964608
 47
1.0
 49
1.0
140
1.0
293
     1
141
0.0
294
     1
177
     0
142
1.0
295
     0
296
     1
143
3.75
1001
ACAD_MLEADERVER
1070
     2
  0
MLEADERSTYLE
  5
12E
102
{ACAD_REACTORS
330
12D
102
}
330
12D
100
AcDbMLeaderStyle
170
     2
171
     1
172
     0
 90
        2
 40
0.0
 41
0.0
173
     1
 91
-1056964608
340
14
 92
       -2
290
     1
 42
2.0
291
     1
 43
8.0
  3
Standard
 44
4.0
300

342
11
174
     1
178
     1
175
     1
176
     0
 93
-1056964608
 45
4.0
292
     0
297
     0
 46
4.0
 94
-1056964608
 47
1.0
 49
1.0
140
1.0
293
     1
141
0.0
294
     1
177
     0
142
1.0
295
     0
296
     0
143
3.75
1001
ACAD_MLEADERVER
1070
     2
  0
MLINESTYLE
  5
18
102
{ACAD_REACTORS
330
17
102
}
330
17
100
AcDbMlineStyle
  2
STANDARD
 70
     0
  3

 62
   256
 51
90.0
 52
90.0
 71
     2
 49
0.5
 62
   256
  6
BYLAYER
 49
-0.5
 62
   256
  6
BYLAYER
  0
ACDBPLACEHOLDER
  5
F
102
{ACAD_REACTORS
330
E
102
}
330
E
  0
SCALE
  5
10D
102
{ACAD_REACTORS
330
10C
102
}
330
10C
100
AcDbScale
 70
     0
300
1:1
140
1.0
141
1.0
290
     1
  0
SCALE
  5
188
102
{ACAD_REACTORS
330
10C
102
}
330
10C
100
AcDbScale
 70
     0
300
1:2
140
1.0
141
2.0
290
     0
  0
SCALE
  5
189
102
{ACAD_REACTORS
330
10C
102
}
330
10C
100
AcDbScale
 70
     0
300
1:4
140
1.0
141
4.0
290
     0
  0
SCALE
  5
18A
102
{ACAD_REACTORS
330
10C
102
}
330
10C
100
AcDbScale
 70
     0
300
1:5
140
1.0
141
5.0
290
     0
  0
SCALE
  5
18B
102
{ACAD_REACTORS
330
10C
102
}
330
10C
100
AcDbScale
 70
     0
300
1:8
140
1.0
141
8.0
290
     0
  0
SCALE
  5
18C
102
{ACAD_REACTORS
330
10C
102
}
330
10C
100
AcDbScale
 70
     0
300
1:10
140
1.0
141
10.0
290
     0
  0
SCALE
  5
18D
102
{ACAD_REACTORS
330
10C
102
}
330
10C
100
AcDbScale
 70
     0
300
1:16
140
1.0
141
16.0
290
     0
  0
SCALE
  5
18E
102
{ACAD_REACTORS
330
10C
102
}
330
10C
100
AcDbScale
 70
     0
300
1:20
140
1.0
141
20.0
290
     0
  0
SCALE
  5
18F
102
{ACAD_REACTORS
330
10C
102
}
330
10C
100
AcDbScale
 70
     0
300
1:30
140
1.0
141
30.0
290
     0
  0
SCALE
  5
190
102
{ACAD_REACTORS
330
10C
102
}
330
10C
100
AcDbScale
 70
     0
300
1:40
140
1.0
141
40.0
290
     0
  0
SCALE
  5
191
102
{ACAD_REACTORS
330
10C
102
}
330
10C
100
AcDbScale
 70
     0
300
1:50
140
1.0
141
50.0
290
     0
  0
SCALE
  5
192
102
{ACAD_REACTORS
330
10C
102
}
330
10C
100
AcDbScale
 70
     0
300
1:100
140
1.0
141
100.0
290
     0
  0
SCALE
  5
193
102
{ACAD_REACTORS
330
10C
102
}
330
10C
100
AcDbScale
 70
     0
300
2:1
140
2.0
141
1.0
290
     0
  0
SCALE
  5
194
102
{ACAD_REACTORS
330
10C
102
}
330
10C
100
AcDbScale
 70
     0
300
4:1
140
4.0
141
1.0
290
     0
  0
SCALE
  5
195
102
{ACAD_REACTORS
330
10C
102
}
330
10C
100
AcDbScale
 70
     0
300
8:1
140
8.0
141
1.0
290
     0
  0
SCALE
  5
196
102
{ACAD_REACTORS
330
10C
102
}
330
10C
100
AcDbScale
 70
     0
300
10:1
140
10.0
141
1.0
290
     0
  0
SCALE
  5
197
102
{ACAD_REACTORS
330
10C
102
}
330
10C
100
AcDbScale
 70
     0
300
100:1
140
100.0
141
1.0
290
     0
  0
SCALE
  5
198
102
{ACAD_REACTORS
330
10C
102
}
330
10C
100
AcDbScale
 70
     0
300
1/128" = 1'-0"
140
0.0078125
141
12.0
290
     0
  0
SCALE
  5
199
102
{ACAD_REACTORS
330
10C
102
}
330
10C
100
AcDbScale
 70
     0
300
1/64" = 1'-0"
140
0.015625
141
12.0
290
     0
  0
SCALE
  5
19A
102
{ACAD_REACTORS
330
10C
102
}
330
10C
100
AcDbScale
 70
     0
300
1/32" = 1'-0"
140
0.03125
141
12.0
290
     0
  0
SCALE
  5
19B
102
{ACAD_REACTORS
330
10C
102
}
330
10C
100
AcDbScale
 70
     0
300
1/16" = 1'-0"
140
0.0625
141
12.0
290
     0
  0
SCALE
  5
19C
102
{ACAD_REACTORS
330
10C
102
}
330
10C
100
AcDbScale
 70
     0
300
3/32" = 1'-0"
140
0.09375
141
12.0
290
     0
  0
SCALE
  5
19D
102
{ACAD_REACTORS
330
10C
102
}
330
10C
100
AcDbScale
 70
     0
300
1/8" = 1'-0"
140
0.125
141
12.0
290
     0
  0
SCALE
  5
19E
102
{ACAD_REACTORS
330
10C
102
}
330
10C
100
AcDbScale
 70
     0
300
3/16" = 1'-0"
140
0.1875
141
12.0
290
     0
  0
SCALE
  5
19F
102
{ACAD_REACTORS
330
10C
102
}
330
10C
100
AcDbScale
 70
     0
300
1/4" = 1'-0"
140
0.25
141
12.0
290
     0
  0
SCALE
  5
1A0
102
{ACAD_REACTORS
330
10C
102
}
330
10C
100
AcDbScale
 70
     0
300
3/8" = 1'-0"
140
0.375
141
12.0
290
     0
  0
SCALE
  5
1A1
102
{ACAD_REACTORS
330
10C
102
}
330
10C
100
AcDbScale
 70
     0
300
1/2" = 1'-0"
140
0.5
141
12.0
290
     0
  0
SCALE
  5
1A2
102
{ACAD_REACTORS
330
10C
102
}
330
10C
100
AcDbScale
 70
     0
300
3/4" = 1'-0"
140
0.75
141
12.0
290
     0
  0
SCALE
  5
1A3
102
{ACAD_REACTORS
330
10C
102
}
330
10C
100
AcDbScale
 70
     0
300
1" = 1'-0"
140
1.0
141
12.0
290
     0
  0
SCALE
  5
1A4
102
{ACAD_REACTORS
330
10C
102
}
330
10C
100
AcDbScale
 70
     0
300
1-1/2" = 1'-0"
140
1.5
141
12.0
290
     0
  0
SCALE
  5
1A5
102
{ACAD_REACTORS
330
10C
102
}
330
10C
100
AcDbScale
 70
     0
300
3" = 1'-0"
140
3.0
141
12.0
290
     0
  0
SCALE
  5
1A6
102
{ACAD_REACTORS
330
10C
102
}
330
10C
100
AcDbScale
 70
     0
300
6" = 1'-0"
140
6.0
141
12.0
290
     0
  0
SCALE
  5
1A7
102
{ACAD_REACTORS
330
10C
102
}
330
10C
100
AcDbScale
 70
     0
300
1'-0" = 1'-0"
140
12.0
141
12.0
290
     0
  0
TABLESTYLE
  5
7F
102
{ACAD_XDICTIONARY
360
162
102
}
102
{ACAD_REACTORS
330
7E
102
}
330
7E
100
AcDbTableStyle
  3
Standard
 70
     0
 71
     0
 40
1.5
 41
1.5
280
     0
281
     0
  7
Standard
140
4.5
170
     2
 62
     0
 63
     7
283
     0
274
    -2
284
     1
 64
     0
275
    -2
285
     1
 65
     0
276
    -2
286
     1
 66
     0
277
    -2
287
     1
 67
     0
278
    -2
288
     1
 68
     0
279
    -2
289
     1
 69
     0
  7
Standard
140
6.0
170
     5
 62
     0
 63
     7
283
     0
274
    -2
284
     1
 64
     0
275
    -2
285
     1
 65
     0
276
    -2
286
     1
 66
     0
277
    -2
287
     1
 67
     0
278
    -2
288
     1
 68
     0
279
    -2
289
     1
 69
     0
  7
Standard
140
4.5
170
     5
 62
     0
 63
     7
283
     0
274
    -2
284
     1
 64
     0
275
    -2
285
     1
 65
     0
276
    -2
286
     1
 66
     0
277
    -2
287
     1
 67
     0
278
    -2
288
     1
 68
     0
279
    -2
289
     1
 69
     0
  0
VISUALSTYLE
  5
F5
102
{ACAD_REACTORS
330
EF
102
}
330
EF
100
AcDbVisualStyle
  2
2dWireframe
 70
     4
 71
     0
 72
     2
 73
     1
 90
        0
 40
-0.6
 41
-30.0
 62
     5
 63
     7
 74
     1
 91
        4
 64
     7
 65
   257
 75
     1
175
     1
 42
1.0
 92
        0
 66
   257
 43
1.0
 76
     1
 77
     6
 78
     2
 67
     7
 79
     5
170
     0
171
     0
290
     0
174
     0
 93
        1
 44
0.0
173
     0
291
     0
 45
0.0
1001
ACAD
1000
AcDbSavedByObjectVersion
1070
     0
  0
VISUALSTYLE
  5
F7
102
{ACAD_REACTORS
330
EF
102
}
330
EF
100
AcDbVisualStyle
  2
3D Hidden
 70
     6
 71
     1
 72
     2
 73
     2
 90
        0
 40
-0.6
 41
-30.0
 62
     5
 63
     7
 74
     2
 91
        2
 64
     7
 65
   257
 75
     2
175
     1
 42
40.0
 92
        0
 66
   257
 43
1.0
 76
     1
 77
     6
 78
     2
 67
     7
 79
     3
170
     0
171
     0
290
     0
174
     0
 93
        1
 44
0.0
173
     0
291
     0
 45
0.0
1001
ACAD
1000
AcDbSavedByObjectVersion
1070
     0
  0
VISUALSTYLE
  5
F6
102
{ACAD_REACTORS
330
EF
102
}
330
EF
100
AcDbVisualStyle
  2
3dWireframe
 70
     5
 71
     0
 72
     2
 73
     1
 90
        0
 40
-0.6
 41
-30.0
 62
     5
 63
     7
 74
     1
 91
        4
 64
     7
 65
   257
 75
     1
175
     1
 42
1.0
 92
        0
 66
   257
 43
1.0
 76
     1
 77
     6
 78
     2
 67
     7
 79
     5
170
     0
171
     0
290
     0
174
     0
 93
        1
 44
0.0
173
     0
291
     0
 45
0.0
1001
ACAD
1000
AcDbSavedByObjectVersion
1070
     0
  0
VISUALSTYLE
  5
F4
102
{ACAD_REACTORS
330
EF
102
}
330
EF
100
AcDbVisualStyle
  2
Basic
 70
     7
 71
     1
 72
     0
 73
     1
 90
        0
 40
-0.6
 41
-30.0
 62
     5
 63
     7
 74
     0
 91
        4
 64
     7
 65
   257
 75
     1
175
     1
 42
1.0
 92
        8
 66
     7
 43
1.0
 76
     1
 77
     6
 78
     2
 67
     7
 79
     5
170
     0
171
     0
290
     0
174
     0
 93
        1
 44
0.0
173
     0
291
     1
 45
0.0
1001
ACAD
1000
AcDbSavedByObjectVersion
1070
     0
  0
VISUALSTYLE
  5
FB
102
{ACAD_REACTORS
330
EF
102
}
330
EF
100
AcDbVisualStyle
  2
Brighten
 70
    12
 71
     2
 72
     2
 73
     1
 90
        0
 40
-0.6
 41
-30.0
 62
     5
 63
     7
 74
     1
 91
        4
 64
     7
 65
   257
 75
     1
175
     1
 42
1.0
 92
        8
 66
     7
 43
1.0
 76
     1
 77
     6
 78
     2
 67
     7
 79
     5
170
     0
171
     0
290
     0
174
     0
 93
        1
 44
50.0
173
     0
291
     1
 45
0.0
1001
ACAD
1000
AcDbSavedByObjectVersion
1070
     0
  0
VISUALSTYLE
  5
FF
102
{ACAD_REACTORS
330
EF
102
}
330
EF
100
AcDbVisualStyle
  2
ColorChange
 70
    16
 71
     2
 72
     2
 73
     3
 90
        0
 40
-0.6
 41
-30.0
 62
     5
 63
     8
 74
     1
 91
        4
 64
     7
 65
   257
 75
     1
175
     1
 42
1.0
 92
        8
 66
     8
 43
1.0
 76
     1
 77
     6
 78
     2
 67
     7
 79
     5
170
     0
171
     0
290
     0
174
     0
 93
        1
 44
0.0
173
     0
291
     1
 45
0.0
1001
ACAD
1000
AcDbSavedByObjectVersion
1070
     0
  0
VISUALSTYLE
  5
F8
102
{ACAD_REACTORS
330
EF
102
}
330
EF
100
AcDbVisualStyle
  2
Conceptual
 70
     9
 71
     3
 72
     2
 73
     1
 90
        0
 40
-0.6
 41
-30.0
 62
     5
 63
     7
 74
     2
 91
        2
 64
     7
 65
   257
 75
     1
175
     1
 42
40.0
 92
        8
 66
     7
 43
1.0
 76
     1
 77
     6
 78
     2
 67
     7
 79
     3
170
     0
171
     0
290
     0
174
     0
 93
        1
 44
0.0
173
     0
291
     0
 45
0.0
1001
ACAD
1000
AcDbSavedByObjectVersion
1070
     0
  0
VISUALSTYLE
  5
FA
102
{ACAD_REACTORS
330
EF
102
}
330
EF
100
AcDbVisualStyle
  2
Dim
 70
    11
 71
     2
 72
     2
 73
     1
 90
        0
 40
-0.6
 41
-30.0
 62
     5
 63
     7
 74
     1
 91
        4
 64
     7
 65
   257
 75
     1
175
     1
 42
1.0
 92
        8
 66
     7
 43
1.0
 76
     1
 77
     6
 78
     2
 67
     7
 79
     5
170
     0
171
     0
290
     0
174
     0
 93
        1
 44
-50.0
173
     0
291
     1
 45
0.0
1001
ACAD
1000
AcDbSavedByObjectVersion
1070
     0
  0
VISUALSTYLE
  5
FE
102
{ACAD_REACTORS
330
EF
102
}
330
EF
100
AcDbVisualStyle
  2
Facepattern
 70
    15
 71
     2
 72
     2
 73
     1
 90
        0
 40
-0.6
 41
-30.0
 62
     5
 63
     7
 74
     1
 91
        4
 64
     7
 65
   257
 75
     1
175
     1
 42
1.0
 92
        8
 66
     7
 43
1.0
 76
     1
 77
     6
 78
     2
 67
     7
 79
     5
170
     0
171
     0
290
     0
174
     0
 93
        1
 44
0.0
173
     0
291
     1
 45
0.0
1001
ACAD
1000
AcDbSavedByObjectVersion
1070
     0
  0
VISUALSTYLE
  5
F0
102
{ACAD_REACTORS
330
EF
102
}
330
EF
100
AcDbVisualStyle
  2
Flat
 70
     0
 71
     2
 72
     1
 73
     1
 90
        2
 40
-0.6
 41
30.0
 62
     5
 63
     7
 74
     0
 91
        4
 64
     7
 65
   257
 75
     1
175
     1
 42
1.0
 92
        8
 66
     7
 43
1.0
 76
     1
 77
     6
 78
     2
 67
     7
 79
     5
170
     0
171
     0
290
     0
174
     0
 93
        1
 44
0.0
173
     0
291
     1
 45
0.0
1001
ACAD
1000
AcDbSavedByObjectVersion
1070
     0
  0
VISUALSTYLE
  5
F1
102
{ACAD_REACTORS
330
EF
102
}
330
EF
100
AcDbVisualStyle
  2
FlatWithEdges
 70
     1
 71
     2
 72
     1
 73
     1
 90
        2
 40
-0.6
 41
30.0
 62
     5
 63
     7
 74
     1
 91
        4
 64
     7
 65
   257
 75
     1
175
     1
 42
1.0
 92
        0
 66
   257
 43
1.0
 76
     1
 77
     6
 78
     2
 67
     7
 79
     5
170
     0
171
     0
290
     0
174
     0
 93
        1
 44
0.0
173
     0
291
     1
 45
0.0
1001
ACAD
1000
AcDbSavedByObjectVersion
1070
     0
  0
VISUALSTYLE
  5
F2
102
{ACAD_REACTORS
330
EF
102
}
330
EF
100
AcDbVisualStyle
  2
Gouraud
 70
     2
 71
     2
 72
     2
 73
     1
 90
        2
 40
-0.6
 41
30.0
 62
     5
 63
     7
 74
     0
 91
        4
 64
     7
 65
   257
 75
     1
175
     1
 42
1.0
 92
        0
 66
     7
 43
1.0
 76
     1
 77
     6
 78
     2
 67
     7
 79
     5
170
     0
171
     0
290
     0
174
     0
 93
        1
 44
0.0
173
     0
291
     1
 45
0.0
1001
ACAD
1000
AcDbSavedByObjectVersion
1070
     0
  0
VISUALSTYLE
  5
F3
102
{ACAD_REACTORS
330
EF
102
}
330
EF
100
AcDbVisualStyle
  2
GouraudWithEdges
 70
     3
 71
     2
 72
     2
 73
     1
 90
        2
 40
-0.6
 41
30.0
 62
     5
 63
     7
 74
     1
 91
        4
 64
     7
 65
   257
 75
     1
175
     1
 42
1.0
 92
        0
 66
   257
 43
1.0
 76
     1
 77
     6
 78
     2
 67
     7
 79
     5
170
     0
171
     0
290
     0
174
     0
 93
        1
 44
0.0
173
     0
291
     1
 45
0.0
1001
ACAD
1000
AcDbSavedByObjectVersion
1070
     0
  0
VISUALSTYLE
  5
FD
102
{ACAD_REACTORS
330
EF
102
}
330
EF
100
AcDbVisualStyle
  2
Linepattern
 70
    14
 71
     2
 72
     2
 73
     1
 90
        0
 40
-0.6
 41
-30.0
 62
     5
 63
     7
 74
     1
 91
        4
 64
     7
 65
   257
 75
     7
175
     7
 42
1.0
 92
        8
 66
     7
 43
1.0
 76
     1
 77
     6
 78
     2
 67
     7
 79
     5
170
     0
171
     0
290
     0
174
     0
 93
        1
 44
0.0
173
     0
291
     1
 45
0.0
1001
ACAD
1000
AcDbSavedByObjectVersion
1070
     0
  0
VISUALSTYLE
  5
F9
102
{ACAD_REACTORS
330
EF
102
}
330
EF
100
AcDbVisualStyle
  2
Realistic
 70
     8
 71
     2
 72
     2
 73
     1
 90
        0
 40
-0.6
 41
-30.0
 62
     5
 63
     7
 74
     1
 91
        0
 64
     7
 65
   257
 75
     1
175
     1
 42
1.0
 92
        8
 66
     8
 43
1.0
 76
     1
 77
     6
 78
     2
 67
     7
 79
     5
170
     0
171
     0
290
     0
174
     0
 93
       13
 44
0.0
173
     0
291
     0
 45
0.0
1001
ACAD
1000
AcDbSavedByObjectVersion
1070
     0
  0
VISUALSTYLE
  5
FC
102
{ACAD_REACTORS
330
EF
102
}
330
EF
100
AcDbVisualStyle
  2
Thicken
 70
    13
 71
     2
 72
     2
 73
     1
 90
        0
 40
-0.6
 41
-30.0
 62
     5
 63
     7
 74
     1
 91
        4
 64
     7
 65
   257
 75
     1
175
     1
 42
1.0
 92
       12
 66
     7
 43
1.0
 76
     1
 77
     6
 78
     2
 67
     7
 79
     5
170
     0
171
     0
290
     0
174
     0
 93
        1
 44
0.0
173
     0
291
     1
 45
0.0
1001
ACAD
1000
AcDbSavedByObjectVersion
1070
     0
  0
DICTIONARYVAR
  5
146
102
{ACAD_REACTORS
330
5E
102
}
330
5E
100
DictionaryVariables
280
     0
  1
1:1
  0
DICTIONARYVAR
  5
145
102
{ACAD_REACTORS
330
5E
102
}
330
5E
100
DictionaryVariables
280
     0
  1
STANDARD
  0
DICTIONARYVAR
  5
84
102
{ACAD_REACTORS
330
5E
102
}
330
5E
100
DictionaryVariables
280
     0
  1
STANDARD
  0
DICTIONARYVAR
  5
5F
102
{ACAD_REACTORS
330
5E
102
}
330
5E
100
DictionaryVariables
280
     0
  1
2
  0
DICTIONARYVAR
  5
63
102
{ACAD_REACTORS
330
5E
102
}
330
5E
100
DictionaryVariables
280
     0
  1
1
  0
DICTIONARYVAR
  5
1357
102
{ACAD_REACTORS
330
5E
102
}
330
5E
100
DictionaryVariables
280
     0
  1
0
  0
DICTIONARYVAR
  5
1355
102
{ACAD_REACTORS
330
5E
102
}
330
5E
100
DictionaryVariables
280
     0
  1
2
  0
DICTIONARYVAR
  5
1354
102
{ACAD_REACTORS
330
5E
102
}
330
5E
100
DictionaryVariables
280
     0
  1
1
  0
DICTIONARYVAR
  5
1359
102
{ACAD_REACTORS
330
5E
102
}
330
5E
100
DictionaryVariables
280
     0
  1
80.000000
  0
DICTIONARYVAR
  5
1358
102
{ACAD_REACTORS
330
5E
102
}
330
5E
100
DictionaryVariables
280
     0
  1
5.000000
  0
DICTIONARYVAR
  5
1356
102
{ACAD_REACTORS
330
5E
102
}
330
5E
100
DictionaryVariables
280
     0
  1
127
  0
DICTIONARY
  5
1660
330
D3
100
AcDbDictionary
280
     1
281
     1
  3
ACAD_XREC_ROUNDTRIP
360
1661
  0
DICTIONARY
  5
1662
330
D7
100
AcDbDictionary
280
     1
281
     1
  3
ACAD_XREC_ROUNDTRIP
360
1663
  0
DICTIONARY
  5
165D
330
22
100
AcDbDictionary
280
     1
281
     1
  3
ACAD_XREC_ROUNDTRIP
360
165E
  0
DICTIONARY
  5
1666
330
ED
100
AcDbDictionary
280
     1
281
     1
  3
ACAD_XREC_ROUNDTRIP
360
1667
  0
DICTIONARY
  5
1664
330
EC
100
AcDbDictionary
280
     1
281
     1
  3
ACAD_XREC_ROUNDTRIP
360
1665
  0
DICTIONARY
  5
173
330
EE
100
AcDbDictionary
280
     1
281
     1
  3
ACAD_XREC_ROUNDTRIP
360
1668
  3
BUMPTILE
360
175
  3
DIFFUSETILE
360
174
  3
OPACITYTILE
360
176
  3
REFLECTIONTILE
360
177
  0
DICTIONARY
  5
162
330
7F
100
AcDbDictionary
280
     1
281
     1
  3
ACAD_ROUNDTRIP_2008_TABLESTYLE_CELLSTYLEMAP
360
165B
  3
ACAD_XREC_ROUNDTRIP
360
165F
  0
XRECORD
  5
1661
102
{ACAD_REACTORS
330
1660
102
}
330
1660
100
AcDbXrecord
280
     1
102
SHADEPLOT
 70
     0
102
SHADEPLOTRESLEVEL
 70
     2
102
SHADEPLOTCUSTOMDPI
 70
   300
  0
XRECORD
  5
1663
102
{ACAD_REACTORS
330
1662
102
}
330
1662
100
AcDbXrecord
280
     1
102
SHADEPLOT
 70
     0
102
SHADEPLOTRESLEVEL
 70
     2
102
SHADEPLOTCUSTOMDPI
 70
   300
  0
XRECORD
  5
165E
102
{ACAD_REACTORS
330
165D
102
}
330
165D
100
AcDbXrecord
280
     1
102
SHADEPLOT
 70
     0
102
SHADEPLOTRESLEVEL
 70
     2
102
SHADEPLOTCUSTOMDPI
 70
   300
  0
XRECORD
  5
1667
102
{ACAD_REACTORS
330
1666
102
}
330
1666
100
AcDbXrecord
280
     1
102
MATERIAL
148
0.0
149
0.0
149
0.0
 93
        0
 94
       63
282
     0
 72
     1
 77
     1
171
     1
175
     1
179
     1
273
     0
  0
XRECORD
  5
1665
102
{ACAD_REACTORS
330
1664
102
}
330
1664
100
AcDbXrecord
280
     1
102
MATERIAL
148
0.0
149
0.0
149
0.0
 93
        0
 94
       63
282
     0
 72
     1
 77
     1
171
     1
175
     1
179
     1
273
     0
  0
XRECORD
  5
1668
102
{ACAD_REACTORS
330
173
102
}
330
173
100
AcDbXrecord
280
     1
102
MATERIAL
148
0.0
149
0.0
149
0.0
 93
        0
 94
       63
282
     0
 72
     1
 77
     1
171
     1
175
     1
179
     1
273
     0
  0
XRECORD
  5
175
102
{ACAD_REACTORS
330
173
102
}
330
173
100
AcDbXrecord
280
     1
270
     1
271
     1
  0
XRECORD
  5
174
102
{ACAD_REACTORS
330
173
102
}
330
173
100
AcDbXrecord
280
     1
270
     1
271
     1
  0
XRECORD
  5
176
102
{ACAD_REACTORS
330
173
102
}
330
173
100
AcDbXrecord
280
     1
270
     1
271
     1
  0
XRECORD
  5
177
102
{ACAD_REACTORS
330
173
102
}
330
173
100
AcDbXrecord
280
     1
270
     1
271
     1
  0
CELLSTYLEMAP
  5
165B
102
{ACAD_REACTORS
330
162
102
}
330
162
100
AcDbCellStyleMap
 90
        3
300
CELLSTYLE
  1
TABLEFORMAT_BEGIN
 90
        5
170
     1
 91
        0
 92
    32768
 62
   257
 93
        1
300
CONTENTFORMAT
  1
CONTENTFORMAT_BEGIN
 90
        0
 91
        0
 92
      512
 93
        0
300

 40
0.0
140
1.0
 94
        5
 62
     0
340
11
144
6.0
309
CONTENTFORMAT_END
171
     1
301
MARGIN
  1
CELLMARGIN_BEGIN
 40
1.5
 40
1.5
 40
1.5
 40
1.5
 40
4.5
 40
4.5
309
CELLMARGIN_END
 94
        6
 95
        1
302
GRIDFORMAT
  1
GRIDFORMAT_BEGIN
 90
        0
 91
        1
 62
     0
 92
       -2
340
14
 93
        0
 40
1.125
309
GRIDFORMAT_END
 95
        2
302
GRIDFORMAT
  1
GRIDFORMAT_BEGIN
 90
        0
 91
        1
 62
     0
 92
       -2
340
14
 93
        0
 40
1.125
309
GRIDFORMAT_END
 95
        4
302
GRIDFORMAT
  1
GRIDFORMAT_BEGIN
 90
        0
 91
        1
 62
     0
 92
       -2
340
14
 93
        0
 40
1.125
309
GRIDFORMAT_END
 95
        8
302
GRIDFORMAT
  1
GRIDFORMAT_BEGIN
 90
        0
 91
        1
 62
     0
 92
       -2
340
14
 93
        0
 40
1.125
309
GRIDFORMAT_END
 95
       16
302
GRIDFORMAT
  1
GRIDFORMAT_BEGIN
 90
        0
 91
        1
 62
     0
 92
       -2
340
14
 93
        0
 40
1.125
309
GRIDFORMAT_END
 95
       32
302
GRIDFORMAT
  1
GRIDFORMAT_BEGIN
 90
        0
 91
        1
 62
     0
 92
       -2
340
14
 93
        0
 40
1.125
309
GRIDFORMAT_END
309
TABLEFORMAT_END
  1
CELLSTYLE_BEGIN
 90
        1
 91
        1
300
_TITLE
309
CELLSTYLE_END
300
CELLSTYLE
  1
TABLEFORMAT_BEGIN
 90
        5
170
     1
 91
        0
 92
        0
 62
   257
 93
        1
300
CONTENTFORMAT
  1
CONTENTFORMAT_BEGIN
 90
        0
 91
        0
 92
      512
 93
        0
300

 40
0.0
140
1.0
 94
        5
 62
     0
340
11
144
4.5
309
CONTENTFORMAT_END
171
     1
301
MARGIN
  1
CELLMARGIN_BEGIN
 40
1.5
 40
1.5
 40
1.5
 40
1.5
 40
4.5
 40
4.5
309
CELLMARGIN_END
 94
        6
 95
        1
302
GRIDFORMAT
  1
GRIDFORMAT_BEGIN
 90
        0
 91
        1
 62
     0
 92
       -2
340
14
 93
        0
 40
1.125
309
GRIDFORMAT_END
 95
        2
302
GRIDFORMAT
  1
GRIDFORMAT_BEGIN
 90
        0
 91
        1
 62
     0
 92
       -2
340
14
 93
        0
 40
1.125
309
GRIDFORMAT_END
 95
        4
302
GRIDFORMAT
  1
GRIDFORMAT_BEGIN
 90
        0
 91
        1
 62
     0
 92
       -2
340
14
 93
        0
 40
1.125
309
GRIDFORMAT_END
 95
        8
302
GRIDFORMAT
  1
GRIDFORMAT_BEGIN
 90
        0
 91
        1
 62
     0
 92
       -2
340
14
 93
        0
 40
1.125
309
GRIDFORMAT_END
 95
       16
302
GRIDFORMAT
  1
GRIDFORMAT_BEGIN
 90
        0
 91
        1
 62
     0
 92
       -2
340
14
 93
        0
 40
1.125
309
GRIDFORMAT_END
 95
       32
302
GRIDFORMAT
  1
GRIDFORMAT_BEGIN
 90
        0
 91
        1
 62
     0
 92
       -2
340
14
 93
        0
 40
1.125
309
GRIDFORMAT_END
309
TABLEFORMAT_END
  1
CELLSTYLE_BEGIN
 90
        2
 91
        1
300
_HEADER
309
CELLSTYLE_END
300
CELLSTYLE
  1
TABLEFORMAT_BEGIN
 90
        5
170
     1
 91
        0
 92
        0
 62
   257
 93
        1
300
CONTENTFORMAT
  1
CONTENTFORMAT_BEGIN
 90
        0
 91
        0
 92
      512
 93
        0
300

 40
0.0
140
1.0
 94
        2
 62
     0
340
11
144
4.5
309
CONTENTFORMAT_END
171
     1
301
MARGIN
  1
CELLMARGIN_BEGIN
 40
1.5
 40
1.5
 40
1.5
 40
1.5
 40
4.5
 40
4.5
309
CELLMARGIN_END
 94
        6
 95
        1
302
GRIDFORMAT
  1
GRIDFORMAT_BEGIN
 90
        0
 91
        1
 62
     0
 92
       -2
340
14
 93
        0
 40
1.125
309
GRIDFORMAT_END
 95
        2
302
GRIDFORMAT
  1
GRIDFORMAT_BEGIN
 90
        0
 91
        1
 62
     0
 92
       -2
340
14
 93
        0
 40
1.125
309
GRIDFORMAT_END
 95
        4
302
GRIDFORMAT
  1
GRIDFORMAT_BEGIN
 90
        0
 91
        1
 62
     0
 92
       -2
340
14
 93
        0
 40
1.125
309
GRIDFORMAT_END
 95
        8
302
GRIDFORMAT
  1
GRIDFORMAT_BEGIN
 90
        0
 91
        1
 62
     0
 92
       -2
340
14
 93
        0
 40
1.125
309
GRIDFORMAT_END
 95
       16
302
GRIDFORMAT
  1
GRIDFORMAT_BEGIN
 90
        0
 91
        1
 62
     0
 92
       -2
340
14
 93
        0
 40
1.125
309
GRIDFORMAT_END
 95
       32
302
GRIDFORMAT
  1
GRIDFORMAT_BEGIN
 90
        0
 91
        1
 62
     0
 92
       -2
340
14
 93
        0
 40
1.125
309
GRIDFORMAT_END
309
TABLEFORMAT_END
  1
CELLSTYLE_BEGIN
 90
        3
 91
        2
300
_DATA
309
CELLSTYLE_END
  0
XRECORD
  5
165F
102
{ACAD_REACTORS
330
162
102
}
330
162
100
AcDbXrecord
280
     1
102
ACAD_ROUNDTRIP_PRE2007_TABLESTYLE
 90
      512
 91
        0
  1

 92
      512
 93
        0
  2

 94
      512
 95
        0
  3

  0
ENDSEC
  0
EOF
