  0
SECTION
  2
HEADER
  9
$ACADVER
  1
AC1015
  9
$ACADMAINTVER
 70
    20
  9
$DWGCODEPAGE
  3
ANSI_1252
  9
$INSBASE
 10
0.0
 20
0.0
 30
0.0
  9
$EXTMIN
 10
-489.298106980802
 20
-8286.372087152223
 30
0.0
  9
$EXTMAX
 10
16035.26811686644
 20
4559.760562628272
 30
0.0
  9
$LIMMIN
 10
0.0
 20
0.0
  9
$LIMMAX
 10
420.0
 20
297.0
  9
$ORTHOMODE
 70
     0
  9
$REGENMODE
 70
     1
  9
$FILLMODE
 70
     1
  9
$QTEXTMODE
 70
     0
  9
$MIRRTEXT
 70
     0
  9
$LTSCALE
 40
1.0
  9
$ATTMODE
 70
     1
  9
$TEXTSIZE
 40
2.5
  9
$TRACEWID
 40
1.0
  9
$TEXTSTYLE
  7
Standard
  9
$CLAYER
  8
0
  9
$CELTYPE
  6
ByLayer
  9
$CECOLOR
 62
   256
  9
$CELTSCALE
 40
1.0
  9
$DISPSILH
 70
     0
  9
$DIMSCALE
 40
1.0
  9
$DIMASZ
 40
2.5
  9
$DIMEXO
 40
0.625
  9
$DIMDLI
 40
3.75
  9
$DIMRND
 40
0.0
  9
$DIMDLE
 40
0.0
  9
$DIMEXE
 40
1.25
  9
$DIMTP
 40
0.0
  9
$DIMTM
 40
0.0
  9
$DIMTXT
 40
2.5
  9
$DIMCEN
 40
2.5
  9
$DIMTSZ
 40
0.0
  9
$DIMTOL
 70
     0
  9
$DIMLIM
 70
     0
  9
$DIMTIH
 70
     0
  9
$DIMTOH
 70
     0
  9
$DIMSE1
 70
     0
  9
$DIMSE2
 70
     0
  9
$DIMTAD
 70
     1
  9
$DIMZIN
 70
     8
  9
$DIMBLK
  1

  9
$DIMASO
 70
     1
  9
$DIMSHO
 70
     1
  9
$DIMPOST
  1

  9
$DIMAPOST
  1

  9
$DIMALT
 70
     0
  9
$DIMALTD
 70
     3
  9
$DIMALTF
 40
0.03937007874016
  9
$DIMLFAC
 40
1.0
  9
$DIMTOFL
 70
     1
  9
$DIMTVP
 40
0.0
  9
$DIMTIX
 70
     0
  9
$DIMSOXD
 70
     0
  9
$DIMSAH
 70
     0
  9
$DIMBLK1
  1

  9
$DIMBLK2
  1

  9
$DIMSTYLE
  2
ISO-25
  9
$DIMCLRD
 70
     0
  9
$DIMCLRE
 70
     0
  9
$DIMCLRT
 70
     0
  9
$DIMTFAC
 40
1.0
  9
$DIMGAP
 40
0.625
  9
$DIMJUST
 70
     0
  9
$DIMSD1
 70
     0
  9
$DIMSD2
 70
     0
  9
$DIMTOLJ
 70
     0
  9
$DIMTZIN
 70
     8
  9
$DIMALTZ
 70
     0
  9
$DIMALTTZ
 70
     0
  9
$DIMUPT
 70
     0
  9
$DIMDEC
 70
     2
  9
$DIMTDEC
 70
     2
  9
$DIMALTU
 70
     2
  9
$DIMALTTD
 70
     3
  9
$DIMTXSTY
  7
Standard
  9
$DIMAUNIT
 70
     0
  9
$DIMADEC
 70
     0
  9
$DIMALTRND
 40
0.0
  9
$DIMAZIN
 70
     0
  9
$DIMDSEP
 70
    44
  9
$DIMATFIT
 70
     3
  9
$DIMFRAC
 70
     0
  9
$DIMLDRBLK
  1

  9
$DIMLUNIT
 70
     2
  9
$DIMLWD
 70
    -2
  9
$DIMLWE
 70
    -2
  9
$DIMTMOVE
 70
     0
  9
$LUNITS
 70
     2
  9
$LUPREC
 70
     4
  9
$SKETCHINC
 40
1.0
  9
$FILLETRAD
 40
0.0
  9
$AUNITS
 70
     0
  9
$AUPREC
 70
     0
  9
$MENU
  1
.
  9
$ELEVATION
 40
0.0
  9
$PELEVATION
 40
0.0
  9
$THICKNESS
 40
0.0
  9
$LIMCHECK
 70
     0
  9
$CHAMFERA
 40
0.0
  9
$CHAMFERB
 40
0.0
  9
$CHAMFERC
 40
0.0
  9
$CHAMFERD
 40
0.0
  9
$SKPOLY
 70
     0
  9
$TDCREATE
 40
2454525.590090787
  9
$TDUCREATE
 40
2454525.548424121
  9
$TDUPDATE
 40
2454547.697352581
  9
$TDUUPDATE
 40
2454547.655685914
  9
$TDINDWG
 40
0.3514136111
  9
$TDUSRTIMER
 40
0.3514128472
  9
$USRTIMER
 70
     1
  9
$ANGBASE
 50
0.0
  9
$ANGDIR
 70
     0
  9
$PDMODE
 70
     0
  9
$PDSIZE
 40
0.0
  9
$PLINEWID
 40
0.0
  9
$SPLFRAME
 70
     0
  9
$SPLINETYPE
 70
     6
  9
$SPLINESEGS
 70
     8
  9
$HANDSEED
  5
14E0
  9
$SURFTAB1
 70
     6
  9
$SURFTAB2
 70
     6
  9
$SURFTYPE
 70
     6
  9
$SURFU
 70
     6
  9
$SURFV
 70
     6
  9
$UCSBASE
  2

  9
$UCSNAME
  2

  9
$UCSORG
 10
0.0
 20
0.0
 30
0.0
  9
$UCSXDIR
 10
1.0
 20
0.0
 30
0.0
  9
$UCSYDIR
 10
0.0
 20
1.0
 30
0.0
  9
$UCSORTHOREF
  2

  9
$UCSORTHOVIEW
 70
     0
  9
$UCSORGTOP
 10
0.0
 20
0.0
 30
0.0
  9
$UCSORGBOTTOM
 10
0.0
 20
0.0
 30
0.0
  9
$UCSORGLEFT
 10
0.0
 20
0.0
 30
0.0
  9
$UCSORGRIGHT
 10
0.0
 20
0.0
 30
0.0
  9
$UCSORGFRONT
 10
0.0
 20
0.0
 30
0.0
  9
$UCSORGBACK
 10
0.0
 20
0.0
 30
0.0
  9
$PUCSBASE
  2

  9
$PUCSNAME
  2

  9
$PUCSORG
 10
0.0
 20
0.0
 30
0.0
  9
$PUCSXDIR
 10
1.0
 20
0.0
 30
0.0
  9
$PUCSYDIR
 10
0.0
 20
1.0
 30
0.0
  9
$PUCSORTHOREF
  2

  9
$PUCSORTHOVIEW
 70
     0
  9
$PUCSORGTOP
 10
0.0
 20
0.0
 30
0.0
  9
$PUCSORGBOTTOM
 10
0.0
 20
0.0
 30
0.0
  9
$PUCSORGLEFT
 10
0.0
 20
0.0
 30
0.0
  9
$PUCSORGRIGHT
 10
0.0
 20
0.0
 30
0.0
  9
$PUCSORGFRONT
 10
0.0
 20
0.0
 30
0.0
  9
$PUCSORGBACK
 10
0.0
 20
0.0
 30
0.0
  9
$USERI1
 70
     0
  9
$USERI2
 70
     0
  9
$USERI3
 70
     0
  9
$USERI4
 70
     0
  9
$USERI5
 70
     0
  9
$USERR1
 40
0.0
  9
$USERR2
 40
0.0
  9
$USERR3
 40
0.0
  9
$USERR4
 40
0.0
  9
$USERR5
 40
0.0
  9
$WORLDVIEW
 70
     1
  9
$SHADEDGE
 70
     3
  9
$SHADEDIF
 70
    70
  9
$TILEMODE
 70
     1
  9
$MAXACTVP
 70
    64
  9
$PINSBASE
 10
0.0
 20
0.0
 30
0.0
  9
$PLIMCHECK
 70
     0
  9
$PEXTMIN
 10
0.0
 20
0.0
 30
0.0
  9
$PEXTMAX
 10
0.0
 20
0.0
 30
0.0
  9
$PLIMMIN
 10
0.0
 20
0.0
  9
$PLIMMAX
 10
12.0
 20
9.0
  9
$UNITMODE
 70
     0
  9
$VISRETAIN
 70
     1
  9
$PLINEGEN
 70
     0
  9
$PSLTSCALE
 70
     1
  9
$TREEDEPTH
 70
  3020
  9
$CMLSTYLE
  2
Standard
  9
$CMLJUST
 70
     0
  9
$CMLSCALE
 40
20.0
  9
$PROXYGRAPHICS
 70
     1
  9
$MEASUREMENT
 70
     1
  9
$CELWEIGHT
370
    -1
  9
$ENDCAPS
280
     0
  9
$JOINSTYLE
280
     0
  9
$LWDISPLAY
290
     0
  9
$INSUNITS
 70
     4
  9
$HYPERLINKBASE
  1

  9
$STYLESHEET
  1

  9
$XEDIT
290
     1
  9
$CEPSNTYPE
380
     0
  9
$PSTYLEMODE
290
     1
  9
$FINGERPRINTGUID
  2
{90462D31-D685-45AB-98C7-B299552AC70F}
  9
$VERSIONGUID
  2
{59BB1F14-1D1B-4AEE-A286-93F8EC093238}
  9
$EXTNAMES
290
     1
  9
$PSVPSCALE
 40
0.0
  9
$OLESTARTUP
290
     0
  0
ENDSEC
  0
SECTION
  2
CLASSES
  0
CLASS
  1
ACDBDICTIONARYWDFLT
  2
AcDbDictionaryWithDefault
  3
ObjectDBX Classes
 90
        0
280
     0
281
     0
  0
CLASS
  1
ACDBPLACEHOLDER
  2
AcDbPlaceHolder
  3
ObjectDBX Classes
 90
        0
280
     0
281
     0
  0
CLASS
  1
LAYOUT
  2
AcDbLayout
  3
ObjectDBX Classes
 90
        0
280
     0
281
     0
  0
CLASS
  1
DICTIONARYVAR
  2
AcDbDictionaryVar
  3
ObjectDBX Classes
 90
        0
280
     0
281
     0
  0
CLASS
  1
TABLESTYLE
  2
AcDbTableStyle
  3
ObjectDBX Classes
 90
     4095
280
     0
281
     0
  0
CLASS
  1
MATERIAL
  2
AcDbMaterial
  3
ObjectDBX Classes
 90
     1153
280
     0
281
     0
  0
CLASS
  1
VISUALSTYLE
  2
AcDbVisualStyle
  3
ObjectDBX Classes
 90
     4095
280
     0
281
     0
  0
CLASS
  1
SCALE
  2
AcDbScale
  3
ObjectDBX Classes
 90
     1153
280
     0
281
     0
  0
CLASS
  1
MLEADERSTYLE
  2
AcDbMLeaderStyle
  3
ACDB_MLEADERSTYLE_CLASS
 90
     4095
280
     0
281
     0
  0
CLASS
  1
CELLSTYLEMAP
  2
AcDbCellStyleMap
  3
ObjectDBX Classes
 90
     1152
280
     0
281
     0
  0
CLASS
  1
SORTENTSTABLE
  2
AcDbSortentsTable
  3
ObjectDBX Classes
 90
        0
280
     0
281
     0
  0
CLASS
  1
DIMASSOC
  2
AcDbDimAssoc
  3
"AcDbDimAssoc|Product Desc:     AcDim ARX App For Dimension|Company:          Autodesk, Inc.|WEB Address:      www.autodesk.com"
 90
        0
280
     0
281
     0
  0
CLASS
  1
IMAGE
  2
AcDbRasterImage
  3
ISM
 90
    34943
280
     0
281
     1
  0
CLASS
  1
IMAGEDEF_REACTOR
  2
AcDbRasterImageDefReactor
  3
ISM
 90
    32769
280
     0
281
     0
  0
CLASS
  1
IMAGEDEF
  2
AcDbRasterImageDef
  3
ISM
 90
        0
280
     0
281
     0
  0
CLASS
  1
RASTERVARIABLES
  2
AcDbRasterVariables
  3
ISM
 90
        0
280
     0
281
     0
  0
ENDSEC
  0
SECTION
  2
TABLES
  0
TABLE
  2
VPORT
  5
8
330
0
100
AcDbSymbolTable
 70
     1
  0
VPORT
  5
EA
330
8
100
AcDbSymbolTableRecord
100
AcDbViewportTableRecord
  2
*Active
 70
     0
 10
0.0
 20
0.0
 11
1.0
 21
1.0
 12
5391.069981829387
 22
584.3754433192779
 13
0.0
 23
0.0
 14
10.0
 24
10.0
 15
10.0
 25
10.0
 16
0.0
 26
0.0
 36
1.0
 17
0.0
 27
0.0
 37
0.0
 40
12581.29054701659
 41
1.111633372502937
 42
50.0
 43
0.0
 44
0.0
 50
0.0
 51
0.0
 71
     0
 72
  1000
 73
     1
 74
     3
 75
     0
 76
     0
 77
     0
 78
     0
281
     0
 65
     1
110
0.0
120
0.0
130
0.0
111
1.0
121
0.0
131
0.0
112
0.0
122
1.0
132
0.0
 79
     0
146
0.0
  0
ENDTAB
  0
TABLE
  2
LTYPE
  5
5
330
0
100
AcDbSymbolTable
 70
     3
  0
LTYPE
  5
14
330
5
100
AcDbSymbolTableRecord
100
AcDbLinetypeTableRecord
  2
ByBlock
 70
     0
  3

 72
    65
 73
     0
 40
0.0
  0
LTYPE
  5
15
330
5
100
AcDbSymbolTableRecord
100
AcDbLinetypeTableRecord
  2
ByLayer
 70
     0
  3

 72
    65
 73
     0
 40
0.0
  0
LTYPE
  5
16
330
5
100
AcDbSymbolTableRecord
100
AcDbLinetypeTableRecord
  2
Continuous
 70
     0
  3
Solid line
 72
    65
 73
     0
 40
0.0
  0
LTYPE
  5
11B6
330
5
100
AcDbSymbolTableRecord
100
AcDbLinetypeTableRecord
  2
ACAD_ISO03W100
 70
     0
  3
ISO dash space __    __    __    __    __    __
 72
    65
 73
     2
 40
30.0
 49
12.0
 74
     0
 49
-18.0
 74
     0
  0
ENDTAB
  0
TABLE
  2
LAYER
  5
2
330
0
100
AcDbSymbolTable
 70
     2
  0
LAYER
  5
10
102
{ACAD_XDICTIONARY
360
13C
102
}
330
2
100
AcDbSymbolTableRecord
100
AcDbLayerTableRecord
  2
0
 70
     0
 62
     7
  6
Continuous
370
    -3
390
F
  0
LAYER
  5
317
330
2
100
AcDbSymbolTableRecord
100
AcDbLayerTableRecord
  2
Defpoints
 70
     0
 62
     7
  6
Continuous
290
     0
370
    -3
390
F
  0
ENDTAB
  0
TABLE
  2
STYLE
  5
3
330
0
100
AcDbSymbolTable
 70
     3
  0
STYLE
  5
11
330
3
100
AcDbSymbolTableRecord
100
AcDbTextStyleTableRecord
  2
Standard
 70
     0
 40
0.0
 41
1.0
 50
0.0
 71
     0
 42
2.5
  3
arial.ttf
  4

1001
ACAD
1000
Arial
1071
       34
  0
STYLE
  5
132
330
3
100
AcDbSymbolTableRecord
100
AcDbTextStyleTableRecord
  2
Annotative
 70
     0
 40
0.0
 41
1.0
 50
0.0
 71
     0
 42
2.5
  3
txt.shx
  4

1001
AcadAnnotative
1000
AnnotativeData
1002
{
1070
     1
1070
     1
1002
}
  0
STYLE
  5
11B5
330
3
100
AcDbSymbolTableRecord
100
AcDbTextStyleTableRecord
  2

 70
     1
 40
0.0
 41
1.0
 50
0.0
 71
     0
 42
2.5
  3
ltypeshp.shx
  4

  0
ENDTAB
  0
TABLE
  2
VIEW
  5
6
330
0
100
AcDbSymbolTable
 70
     0
  0
ENDTAB
  0
TABLE
  2
UCS
  5
7
330
0
100
AcDbSymbolTable
 70
     0
  0
ENDTAB
  0
TABLE
  2
APPID
  5
9
330
0
100
AcDbSymbolTable
 70
    10
  0
APPID
  5
12
330
9
100
AcDbSymbolTableRecord
100
AcDbRegAppTableRecord
  2
ACAD
 70
     0
  0
APPID
  5
9E
330
9
100
AcDbSymbolTableRecord
100
AcDbRegAppTableRecord
  2
ACAD_PSEXT
 70
     0
  0
APPID
  5
133
330
9
100
AcDbSymbolTableRecord
100
AcDbRegAppTableRecord
  2
AcadAnnoPO
 70
     0
  0
APPID
  5
134
330
9
100
AcDbSymbolTableRecord
100
AcDbRegAppTableRecord
  2
AcadAnnotative
 70
     0
  0
APPID
  5
135
330
9
100
AcDbSymbolTableRecord
100
AcDbRegAppTableRecord
  2
ACAD_DSTYLE_DIMJAG
 70
     0
  0
APPID
  5
136
330
9
100
AcDbSymbolTableRecord
100
AcDbRegAppTableRecord
  2
ACAD_DSTYLE_DIMTALN
 70
     0
  0
APPID
  5
165
330
9
100
AcDbSymbolTableRecord
100
AcDbRegAppTableRecord
  2
ACAD_MLEADERVER
 70
     0
  0
APPID
  5
1AF
330
9
100
AcDbSymbolTableRecord
100
AcDbRegAppTableRecord
  2
ACAD_EXEMPT_FROM_CAD_STANDARDS
 70
     0
  0
APPID
  5
B81
330
9
100
AcDbSymbolTableRecord
100
AcDbRegAppTableRecord
  2
ACAD_DSTYLE_DIMJOGGED_JOGANGLE_SYMBOL
 70
     0
  0
APPID
  5
1497
330
9
100
AcDbSymbolTableRecord
100
AcDbRegAppTableRecord
  2
ACAD_DSTYLE_DIMEXT_LENGTH
 70
     0
  0
ENDTAB
  0
TABLE
  2
DIMSTYLE
  5
A
330
0
100
AcDbSymbolTable
 70
     8
100
AcDbDimStyleTable
 71
     2
340
27
340
137
  0
DIMSTYLE
105
27
102
{ACAD_REACTORS
330
634
330
64C
330
6EE
330
772
330
78A
102
}
330
A
100
AcDbSymbolTableRecord
100
AcDbDimStyleTableRecord
  2
ISO-25
 70
     0
 41
2.5
 42
0.625
 43
3.75
 44
1.25
 73
     0
 74
     0
 77
     1
 78
     8
140
2.5
141
2.5
143
0.03937007874016
147
0.625
171
     3
172
     1
271
     2
272
     2
274
     3
278
    44
283
     0
284
     8
340
11
  0
DIMSTYLE
105
137
330
A
100
AcDbSymbolTableRecord
100
AcDbDimStyleTableRecord
  2
Annotative
 70
     0
 40
0.0
 41
2.5
 42
0.625
 43
3.75
 44
1.25
 73
     0
 74
     0
 77
     1
 78
     8
140
2.5
141
2.5
143
0.03937007874016
147
0.625
171
     3
172
     1
271
     2
272
     2
274
     3
278
    44
283
     0
284
     8
340
11
1001
AcadAnnotative
1000
AnnotativeData
1002
{
1070
     1
1070
     1
1002
}
1001
ACAD_DSTYLE_DIMJAG
1070
   388
1040
1.5
1001
ACAD_DSTYLE_DIMTALN
1070
   392
1070
     0
  0
DIMSTYLE
105
B7F
330
A
100
AcDbSymbolTableRecord
100
AcDbDimStyleTableRecord
  2
coda-100
 70
     0
 41
2.5
 42
0.625
 43
5.0
 44
1.25
 73
     0
 74
     0
 77
     1
 78
     8
140
250.0
141
2.5
143
0.03937007874016
147
70.0
171
     3
172
     1
176
     4
177
     4
178
     1
271
     2
272
     2
274
     3
278
    44
283
     0
284
     8
340
11
341
338
342
338
372
    20
  0
DIMSTYLE
105
B80
330
A
100
AcDbSymbolTableRecord
100
AcDbDimStyleTableRecord
  2
coda-50
 70
     0
 40
50.0
 41
1.0
 42
1.0
 43
5.0
 44
1.25
 73
     0
 74
     0
 77
     1
 78
     8
140
2.0
141
1.0
143
0.03937007874016
147
0.5
171
     3
172
     1
176
     4
177
     4
178
     1
271
     2
272
     2
274
     3
278
    44
283
     0
284
     8
340
11
341
338
342
338
372
    20
1001
ACAD_DSTYLE_DIMJOGGED_JOGANGLE_SYMBOL
1070
   384
1040
0.7853981633974483
1001
ACAD_DSTYLE_DIMEXT_LENGTH
1070
   378
1040
1.25
  0
DIMSTYLE
105
132D
330
A
100
AcDbSymbolTableRecord
100
AcDbDimStyleTableRecord
  2
ISO-50
 70
     0
 41
2.5
 42
0.625
 43
3.75
 44
1.25
 73
     0
 74
     0
 77
     1
 78
     8
140
5.0
141
2.5
143
0.03937007874016
147
0.625
171
     3
172
     1
271
     2
272
     2
274
     3
278
    44
283
     0
284
     8
340
11
  0
DIMSTYLE
105
132E
330
A
100
AcDbSymbolTableRecord
100
AcDbDimStyleTableRecord
  2
Standard
 70
     0
340
11
  0
DIMSTYLE
105
132F
330
A
100
AcDbSymbolTableRecord
100
AcDbDimStyleTableRecord
  2
patch25
 70
     0
 40
50.0
 41
1.0
 42
1.0
 43
5.0
 44
1.25
 73
     0
 74
     0
 77
     1
 78
     8
140
1.0
141
1.0
143
0.03937007874016
147
0.5
171
     3
172
     1
176
     4
177
     4
178
     1
271
     2
272
     2
274
     3
278
    44
283
     0
284
     8
340
11
341
338
342
338
372
    20
  0
ENDTAB
  0
TABLE
  2
BLOCK_RECORD
  5
1
330
0
100
AcDbSymbolTable
 70
    56
  0
BLOCK_RECORD
  5
1F
102
{ACAD_XDICTIONARY
360
1CE
102
}
330
1
100
AcDbSymbolTableRecord
100
AcDbBlockTableRecord
  2
*Model_Space
340
22
  0
BLOCK_RECORD
  5
D2
330
1
100
AcDbSymbolTableRecord
100
AcDbBlockTableRecord
  2
*Paper_Space
340
D3
  0
BLOCK_RECORD
  5
D6
330
1
100
AcDbSymbolTableRecord
100
AcDbBlockTableRecord
  2
*Paper_Space0
340
D7
  0
BLOCK_RECORD
  5
318
330
1
100
AcDbSymbolTableRecord
100
AcDbBlockTableRecord
  2
*D1
340
0
  0
BLOCK_RECORD
  5
338
330
1
100
AcDbSymbolTableRecord
100
AcDbBlockTableRecord
  2
_ArchTick
340
0
102
{BLKREFS
331
7DF
331
7E0
331
7E8
331
7E9
331
803
331
804
331
80C
331
80D
331
815
331
816
331
81E
331
81F
331
827
331
828
331
854
331
855
331
866
331
867
331
86F
331
870
331
878
331
879
331
881
331
882
331
88A
331
88B
331
980
331
981
331
989
331
98A
331
A0C
331
A0D
331
A38
331
A39
331
A41
331
A42
331
A5C
331
A5D
331
A65
331
A66
331
A6E
331
A6F
331
A77
331
A78
331
D5C
331
D5D
331
D65
331
D66
331
D6E
331
D6F
331
D77
331
D78
331
F18
331
F19
331
F22
331
F23
331
F2B
331
F2C
331
F8A
331
F8B
331
F93
331
F94
331
FA6
331
FA7
331
FC2
331
FC3
331
FCC
331
FCD
331
1168
331
1169
331
1171
331
1172
331
12AC
331
12AD
331
12B5
331
12B6
331
12BE
331
12BF
331
12C7
331
12C8
331
12D0
331
12D1
331
12E2
331
12E3
331
130E
331
130F
331
1317
331
1318
331
13FF
331
1400
331
1423
331
1424
331
142C
331
142D
331
1435
331
1436
331
14A9
331
14AA
331
14B2
331
14B3
331
14BB
331
14BC
331
14C4
331
14C5
331
14CD
331
14CE
102
}
  0
BLOCK_RECORD
  5
3D8
330
1
100
AcDbSymbolTableRecord
100
AcDbBlockTableRecord
  2
*D3
340
0
  0
BLOCK_RECORD
  5
3F0
330
1
100
AcDbSymbolTableRecord
100
AcDbBlockTableRecord
  2
*D4
340
0
  0
BLOCK_RECORD
  5
408
330
1
100
AcDbSymbolTableRecord
100
AcDbBlockTableRecord
  2
*D5
340
0
  0
BLOCK_RECORD
  5
487
330
1
100
AcDbSymbolTableRecord
100
AcDbBlockTableRecord
  2
*D6
340
0
  0
BLOCK_RECORD
  5
4C9
330
1
100
AcDbSymbolTableRecord
100
AcDbBlockTableRecord
  2
*D7
340
0
  0
BLOCK_RECORD
  5
4EC
330
1
100
AcDbSymbolTableRecord
100
AcDbBlockTableRecord
  2
*D8
340
0
  0
BLOCK_RECORD
  5
560
330
1
100
AcDbSymbolTableRecord
100
AcDbBlockTableRecord
  2
*D9
340
0
  0
BLOCK_RECORD
  5
59A
330
1
100
AcDbSymbolTableRecord
100
AcDbBlockTableRecord
  2
*D10
340
0
  0
BLOCK_RECORD
  5
5B2
330
1
100
AcDbSymbolTableRecord
100
AcDbBlockTableRecord
  2
*D11
340
0
  0
BLOCK_RECORD
  5
5CB
330
1
100
AcDbSymbolTableRecord
100
AcDbBlockTableRecord
  2
*D12
340
0
  0
BLOCK_RECORD
  5
635
330
1
100
AcDbSymbolTableRecord
100
AcDbBlockTableRecord
  2
*D13
340
0
  0
BLOCK_RECORD
  5
64D
330
1
100
AcDbSymbolTableRecord
100
AcDbBlockTableRecord
  2
*D14
340
0
  0
BLOCK_RECORD
  5
663
330
1
100
AcDbSymbolTableRecord
100
AcDbBlockTableRecord
  2
*D15
340
0
  0
BLOCK_RECORD
  5
67B
330
1
100
AcDbSymbolTableRecord
100
AcDbBlockTableRecord
  2
*D16
340
0
  0
BLOCK_RECORD
  5
6EF
330
1
100
AcDbSymbolTableRecord
100
AcDbBlockTableRecord
  2
*D17
340
0
  0
BLOCK_RECORD
  5
773
330
1
100
AcDbSymbolTableRecord
100
AcDbBlockTableRecord
  2
*D18
340
0
  0
BLOCK_RECORD
  5
78B
330
1
100
AcDbSymbolTableRecord
100
AcDbBlockTableRecord
  2
*D19
340
0
  0
BLOCK_RECORD
  5
8BA
330
1
100
AcDbSymbolTableRecord
100
AcDbBlockTableRecord
  2
*D20
340
0
  0
BLOCK_RECORD
  5
8C7
330
1
100
AcDbSymbolTableRecord
100
AcDbBlockTableRecord
  2
*D21
340
0
  0
BLOCK_RECORD
  5
8D4
330
1
100
AcDbSymbolTableRecord
100
AcDbBlockTableRecord
  2
*D22
340
0
  0
BLOCK_RECORD
  5
8EC
330
1
100
AcDbSymbolTableRecord
100
AcDbBlockTableRecord
  2
*D23
340
0
  0
BLOCK_RECORD
  5
9A4
330
1
100
AcDbSymbolTableRecord
100
AcDbBlockTableRecord
  2
*D24
340
0
  0
BLOCK_RECORD
  5
9BA
330
1
100
AcDbSymbolTableRecord
100
AcDbBlockTableRecord
  2
*D25
340
0
  0
BLOCK_RECORD
  5
9D9
330
1
100
AcDbSymbolTableRecord
100
AcDbBlockTableRecord
  2
*D26
340
0
  0
BLOCK_RECORD
  5
A1D
330
1
100
AcDbSymbolTableRecord
100
AcDbBlockTableRecord
  2
*D27
340
0
  0
BLOCK_RECORD
  5
A29
330
1
100
AcDbSymbolTableRecord
100
AcDbBlockTableRecord
  2
*D28
340
0
  0
BLOCK_RECORD
  5
D05
330
1
100
AcDbSymbolTableRecord
100
AcDbBlockTableRecord
  2
*D29
340
0
  0
BLOCK_RECORD
  5
D11
330
1
100
AcDbSymbolTableRecord
100
AcDbBlockTableRecord
  2
*D30
340
0
  0
BLOCK_RECORD
  5
D1D
330
1
100
AcDbSymbolTableRecord
100
AcDbBlockTableRecord
  2
*D31
340
0
  0
BLOCK_RECORD
  5
D29
330
1
100
AcDbSymbolTableRecord
100
AcDbBlockTableRecord
  2
*D32
340
0
  0
BLOCK_RECORD
  5
DAA
330
1
100
AcDbSymbolTableRecord
100
AcDbBlockTableRecord
  2
*D33
340
0
  0
BLOCK_RECORD
  5
DC2
330
1
100
AcDbSymbolTableRecord
100
AcDbBlockTableRecord
  2
*D34
340
0
  0
BLOCK_RECORD
  5
DE3
330
1
100
AcDbSymbolTableRecord
100
AcDbBlockTableRecord
  2
*D35
340
0
  0
BLOCK_RECORD
  5
DFB
330
1
100
AcDbSymbolTableRecord
100
AcDbBlockTableRecord
  2
*D36
340
0
  0
BLOCK_RECORD
  5
E26
330
1
100
AcDbSymbolTableRecord
100
AcDbBlockTableRecord
  2
*D37
340
0
  0
BLOCK_RECORD
  5
E32
330
1
100
AcDbSymbolTableRecord
100
AcDbBlockTableRecord
  2
*D38
340
0
  0
BLOCK_RECORD
  5
E63
330
1
100
AcDbSymbolTableRecord
100
AcDbBlockTableRecord
  2
*D39
340
0
  0
BLOCK_RECORD
  5
E70
330
1
100
AcDbSymbolTableRecord
100
AcDbBlockTableRecord
  2
*D40
340
0
  0
BLOCK_RECORD
  5
E88
330
1
100
AcDbSymbolTableRecord
100
AcDbBlockTableRecord
  2
*D41
340
0
  0
BLOCK_RECORD
  5
EA0
330
1
100
AcDbSymbolTableRecord
100
AcDbBlockTableRecord
  2
*D42
340
0
  0
BLOCK_RECORD
  5
1056
330
1
100
AcDbSymbolTableRecord
100
AcDbBlockTableRecord
  2
*D43
340
0
  0
BLOCK_RECORD
  5
106E
330
1
100
AcDbSymbolTableRecord
100
AcDbBlockTableRecord
  2
*D44
340
0
  0
BLOCK_RECORD
  5
1086
330
1
100
AcDbSymbolTableRecord
100
AcDbBlockTableRecord
  2
*D45
340
0
  0
BLOCK_RECORD
  5
10F8
330
1
100
AcDbSymbolTableRecord
100
AcDbBlockTableRecord
  2
*D46
340
0
  0
BLOCK_RECORD
  5
1105
330
1
100
AcDbSymbolTableRecord
100
AcDbBlockTableRecord
  2
*D47
340
0
  0
BLOCK_RECORD
  5
11B9
330
1
100
AcDbSymbolTableRecord
100
AcDbBlockTableRecord
  2
*D48
340
0
  0
BLOCK_RECORD
  5
124E
330
1
100
AcDbSymbolTableRecord
100
AcDbBlockTableRecord
  2
*D49
340
0
  0
BLOCK_RECORD
  5
128A
330
1
100
AcDbSymbolTableRecord
100
AcDbBlockTableRecord
  2
*D50
340
0
  0
BLOCK_RECORD
  5
137B
330
1
100
AcDbSymbolTableRecord
100
AcDbBlockTableRecord
  2
*D51
340
0
  0
BLOCK_RECORD
  5
13A6
330
1
100
AcDbSymbolTableRecord
100
AcDbBlockTableRecord
  2
*D52
340
0
  0
BLOCK_RECORD
  5
13B3
330
1
100
AcDbSymbolTableRecord
100
AcDbBlockTableRecord
  2
*D53
340
0
  0
BLOCK_RECORD
  5
13DB
330
1
100
AcDbSymbolTableRecord
100
AcDbBlockTableRecord
  2
*D54
340
0
  0
ENDTAB
  0
ENDSEC
  0
SECTION
  2
BLOCKS
  0
BLOCK
  5
20
330
1F
100
AcDbEntity
  8
0
100
AcDbBlockBegin
  2
*Model_Space
 70
     0
 10
0.0
 20
0.0
 30
0.0
  3
*Model_Space
  1

  0
ENDBLK
  5
21
330
1F
100
AcDbEntity
  8
0
100
AcDbBlockEnd
  0
BLOCK
  5
D4
330
D2
100
AcDbEntity
 67
     1
  8
0
100
AcDbBlockBegin
  2
*Paper_Space
 70
     0
 10
0.0
 20
0.0
 30
0.0
  3
*Paper_Space
  1

  0
ENDBLK
  5
D5
330
D2
100
AcDbEntity
 67
     1
  8
0
100
AcDbBlockEnd
  0
BLOCK
  5
D8
330
D6
100
AcDbEntity
 67
     1
  8
0
100
AcDbBlockBegin
  2
*Paper_Space0
 70
     0
 10
0.0
 20
0.0
 30
0.0
  3
*Paper_Space0
  1

  0
ENDBLK
  5
D9
330
D6
100
AcDbEntity
 67
     1
  8
0
100
AcDbBlockEnd
  0
BLOCK
  5
319
330
318
100
AcDbEntity
  8
0
100
AcDbBlockBegin
  2
*D1
 70
     1
 10
0.0
 20
0.0
 30
0.0
  3
*D1
  1

  0
LINE
  5
7DC
330
318
100
AcDbEntity
  8
0
 62
     0
370
    -2
100
AcDbLine
 10
445.0529588410171
 20
10259.63568664314
 30
0.0
 11
445.0529588410171
 21
10621.64131878325
 31
0.0
  0
LINE
  5
7DD
330
318
100
AcDbEntity
  8
0
 62
     0
370
    -2
100
AcDbLine
 10
-1554.947041158983
 20
10259.63568664314
 30
0.0
 11
-1554.947041158983
 21
10621.64131878325
 31
0.0
  0
LINE
  5
7DE
330
318
100
AcDbEntity
  8
0
 62
     0
370
    -2
100
AcDbLine
 10
520.0529588410171
 20
10546.64131878324
 30
0.0
 11
-1629.947041158982
 21
10546.64131878324
 31
0.0
  0
INSERT
  5
7DF
330
318
100
AcDbEntity
  8
0
 62
     0
370
    -2
100
AcDbBlockReference
  2
_ArchTick
 10
445.0529588410171
 20
10546.64131878324
 30
0.0
 41
100.0
 42
100.0
 43
100.0
  0
INSERT
  5
7E0
330
318
100
AcDbEntity
  8
0
 62
     0
370
    -2
100
AcDbBlockReference
  2
_ArchTick
 10
-1554.947041158983
 20
10546.64131878324
 30
0.0
 41
100.0
 42
100.0
 43
100.0
 50
180.0
  0
MTEXT
  5
7E1
330
318
100
AcDbEntity
  8
0
 62
     0
100
AcDbMText
 10
-554.9470411589826
 20
10647.69861755542
 30
0.0
 40
100.0
 41
0.0
 71
     5
 72
     1
  1
~2000
 73
     1
 44
1.0
1001
ACAD
1000
MTEXTBEGIN
1070
    73
1070
     1
1070
    44
1040
1.0
1070
    74
1070
     0
1000
MTEXTEND
  0
POINT
  5
7E2
330
318
100
AcDbEntity
  8
Defpoints
 62
     0
100
AcDbPoint
 10
445.0529588410171
 20
10134.63568664314
 30
0.0
  0
POINT
  5
7E3
330
318
100
AcDbEntity
  8
Defpoints
 62
     0
100
AcDbPoint
 10
-1554.947041158983
 20
10134.63568664314
 30
0.0
  0
POINT
  5
7E4
330
318
100
AcDbEntity
  8
Defpoints
 62
     0
100
AcDbPoint
 10
-1554.947041158983
 20
10546.64131878324
 30
0.0
  0
ENDBLK
  5
31A
330
318
100
AcDbEntity
  8
0
100
AcDbBlockEnd
  0
BLOCK
  5
33A
330
338
100
AcDbEntity
  8
0
100
AcDbBlockBegin
  2
_ArchTick
 70
     0
 10
0.0
 20
0.0
 30
0.0
  3
_ArchTick
  1

  0
LWPOLYLINE
  5
339
330
338
100
AcDbEntity
  8
0
  6
ByBlock
 62
     0
100
AcDbPolyline
 90
        2
 70
     0
 43
0.15
 10
-0.5
 20
-0.5
 10
0.5
 20
0.5
  0
ENDBLK
  5
33B
330
338
100
AcDbEntity
  8
0
100
AcDbBlockEnd
  0
BLOCK
  5
3D9
330
3D8
100
AcDbEntity
  8
0
100
AcDbBlockBegin
  2
*D3
 70
     1
 10
0.0
 20
0.0
 30
0.0
  3
*D3
  1

  0
LINE
  5
863
330
3D8
100
AcDbEntity
  8
0
 62
     0
370
    -2
100
AcDbLine
 10
-3370.445414152039
 20
8380.251637439847
 30
0.0
 11
-3605.817622496846
 21
8380.251637439847
 31
0.0
  0
LINE
  5
864
330
3D8
100
AcDbEntity
  8
0
 62
     0
370
    -2
100
AcDbLine
 10
-3370.445414152039
 20
7830.251637439848
 30
0.0
 11
-3605.817622496846
 21
7830.251637439848
 31
0.0
  0
LINE
  5
865
330
3D8
100
AcDbEntity
  8
0
 62
     0
370
    -2
100
AcDbLine
 10
-3530.817622496846
 20
8455.251637439848
 30
0.0
 11
-3530.817622496846
 21
7755.251637439847
 31
0.0
  0
INSERT
  5
866
330
3D8
100
AcDbEntity
  8
0
 62
     0
370
    -2
100
AcDbBlockReference
  2
_ArchTick
 10
-3530.817622496846
 20
8380.251637439847
 30
0.0
 41
100.0
 42
100.0
 43
100.0
 50
90.0
  0
INSERT
  5
867
330
3D8
100
AcDbEntity
  8
0
 62
     0
370
    -2
100
AcDbBlockReference
  2
_ArchTick
 10
-3530.817622496846
 20
7830.251637439848
 30
0.0
 41
100.0
 42
100.0
 43
100.0
 50
270.0
  0
MTEXT
  5
868
330
3D8
100
AcDbEntity
  8
0
 62
     0
100
AcDbMText
 10
-3631.874921269016
 20
8105.251637439847
 30
0.0
 40
100.0
 41
0.0
 71
     5
 72
     1
  1
~550
 11
0.0000000000000001
 21
1.0
 31
0.0
 73
     1
 44
1.0
1001
ACAD
1000
MTEXTBEGIN
1070
    73
1070
     1
1070
    44
1040
1.0
1070
    74
1070
     0
1000
MTEXTEND
  0
POINT
  5
869
330
3D8
100
AcDbEntity
  8
Defpoints
 62
     0
100
AcDbPoint
 10
-3245.445414152039
 20
8380.251637439847
 30
0.0
  0
POINT
  5
86A
330
3D8
100
AcDbEntity
  8
Defpoints
 62
     0
100
AcDbPoint
 10
-3245.445414152039
 20
7830.251637439848
 30
0.0
  0
POINT
  5
86B
330
3D8
100
AcDbEntity
  8
Defpoints
 62
     0
100
AcDbPoint
 10
-3530.817622496846
 20
7830.251637439848
 30
0.0
  0
ENDBLK
  5
3DA
330
3D8
100
AcDbEntity
  8
0
100
AcDbBlockEnd
  0
BLOCK
  5
3F1
330
3F0
100
AcDbEntity
  8
0
100
AcDbBlockBegin
  2
*D4
 70
     1
 10
0.0
 20
0.0
 30
0.0
  3
*D4
  1

  0
LINE
  5
851
330
3F0
100
AcDbEntity
  8
0
 62
     0
370
    -2
100
AcDbLine
 10
-3245.445414152039
 20
8505.251637439846
 30
0.0
 11
-3245.445414152039
 21
8867.257269579949
 31
0.0
  0
LINE
  5
852
330
3F0
100
AcDbEntity
  8
0
 62
     0
370
    -2
100
AcDbLine
 10
-2245.44541415204
 20
8505.251637439846
 30
0.0
 11
-2245.44541415204
 21
8867.257269579949
 31
0.0
  0
LINE
  5
853
330
3F0
100
AcDbEntity
  8
0
 62
     0
370
    -2
100
AcDbLine
 10
-3320.44541415204
 20
8792.257269579948
 30
0.0
 11
-2170.44541415204
 21
8792.257269579948
 31
0.0
  0
INSERT
  5
854
330
3F0
100
AcDbEntity
  8
0
 62
     0
370
    -2
100
AcDbBlockReference
  2
_ArchTick
 10
-3245.445414152039
 20
8792.257269579948
 30
0.0
 41
100.0
 42
100.0
 43
100.0
 50
180.0
  0
INSERT
  5
855
330
3F0
100
AcDbEntity
  8
0
 62
     0
370
    -2
100
AcDbBlockReference
  2
_ArchTick
 10
-2245.44541415204
 20
8792.257269579948
 30
0.0
 41
100.0
 42
100.0
 43
100.0
  0
MTEXT
  5
856
330
3F0
100
AcDbEntity
  8
0
 62
     0
100
AcDbMText
 10
-2745.44541415204
 20
8893.314568352115
 30
0.0
 40
100.0
 41
0.0
 71
     5
 72
     1
  1
~1000
 73
     1
 44
1.0
1001
ACAD
1000
MTEXTBEGIN
1070
    73
1070
     1
1070
    44
1040
1.0
1070
    74
1070
     0
1000
MTEXTEND
  0
POINT
  5
857
330
3F0
100
AcDbEntity
  8
Defpoints
 62
     0
100
AcDbPoint
 10
-3245.445414152039
 20
8380.251637439846
 30
0.0
  0
POINT
  5
858
330
3F0
100
AcDbEntity
  8
Defpoints
 62
     0
100
AcDbPoint
 10
-2245.44541415204
 20
8380.251637439846
 30
0.0
  0
POINT
  5
859
330
3F0
100
AcDbEntity
  8
Defpoints
 62
     0
100
AcDbPoint
 10
-2245.44541415204
 20
8792.257269579948
 30
0.0
  0
ENDBLK
  5
3F2
330
3F0
100
AcDbEntity
  8
0
100
AcDbBlockEnd
  0
BLOCK
  5
409
330
408
100
AcDbEntity
  8
0
100
AcDbBlockBegin
  2
*D5
 70
     1
 10
0.0
 20
0.0
 30
0.0
  3
*D5
  1

  0
LINE
  5
7E5
330
408
100
AcDbEntity
  8
0
 62
     0
370
    -2
100
AcDbLine
 10
-1679.947041158983
 20
9134.635686643145
 30
0.0
 11
-1915.319249503788
 21
9134.635686643145
 31
0.0
  0
LINE
  5
7E6
330
408
100
AcDbEntity
  8
0
 62
     0
370
    -2
100
AcDbLine
 10
-1679.947041158983
 20
10134.63568664314
 30
0.0
 11
-1915.319249503787
 21
10134.63568664314
 31
0.0
  0
LINE
  5
7E7
330
408
100
AcDbEntity
  8
0
 62
     0
370
    -2
100
AcDbLine
 10
-1840.319249503788
 20
9059.635686643146
 30
0.0
 11
-1840.319249503787
 21
10209.63568664314
 31
0.0
  0
INSERT
  5
7E8
330
408
100
AcDbEntity
  8
0
 62
     0
370
    -2
100
AcDbBlockReference
  2
_ArchTick
 10
-1840.319249503788
 20
9134.635686643145
 30
0.0
 41
100.0
 42
100.0
 43
100.0
 50
270.0
  0
INSERT
  5
7E9
330
408
100
AcDbEntity
  8
0
 62
     0
370
    -2
100
AcDbBlockReference
  2
_ArchTick
 10
-1840.319249503787
 20
10134.63568664314
 30
0.0
 41
100.0
 42
100.0
 43
100.0
 50
90.0
  0
MTEXT
  5
7EA
330
408
100
AcDbEntity
  8
0
 62
     0
100
AcDbMText
 10
-1941.376548275958
 20
9634.635686643145
 30
0.0
 40
100.0
 41
0.0
 71
     5
 72
     1
  1
~1000
 11
0.0000000000000001
 21
1.0
 31
0.0
 73
     1
 44
1.0
1001
ACAD
1000
MTEXTBEGIN
1070
    73
1070
     1
1070
    44
1040
1.0
1070
    74
1070
     0
1000
MTEXTEND
  0
POINT
  5
7EB
330
408
100
AcDbEntity
  8
Defpoints
 62
     0
100
AcDbPoint
 10
-1554.947041158982
 20
9134.635686643145
 30
0.0
  0
POINT
  5
7EC
330
408
100
AcDbEntity
  8
Defpoints
 62
     0
100
AcDbPoint
 10
-1554.947041158982
 20
10134.63568664314
 30
0.0
  0
POINT
  5
7ED
330
408
100
AcDbEntity
  8
Defpoints
 62
     0
100
AcDbPoint
 10
-1840.319249503787
 20
10134.63568664314
 30
0.0
  0
ENDBLK
  5
40A
330
408
100
AcDbEntity
  8
0
100
AcDbBlockEnd
  0
BLOCK
  5
488
330
487
100
AcDbEntity
  8
0
100
AcDbBlockBegin
  2
*D6
 70
     1
 10
0.0
 20
0.0
 30
0.0
  3
*D6
  1

  0
LINE
  5
86C
330
487
100
AcDbEntity
  8
0
 62
     0
370
    -2
100
AcDbLine
 10
-5922.693356915702
 20
8405.251637439844
 30
0.0
 11
-5922.693356915702
 21
8817.257269579949
 31
0.0
  0
LINE
  5
86D
330
487
100
AcDbEntity
  8
0
 62
     0
370
    -2
100
AcDbLine
 10
-5582.693356915703
 20
8405.251637439844
 30
0.0
 11
-5582.693356915703
 21
8817.257269579949
 31
0.0
  0
LINE
  5
86E
330
487
100
AcDbEntity
  8
0
 62
     0
370
    -2
100
AcDbLine
 10
-5997.693356915703
 20
8742.257269579949
 30
0.0
 11
-5507.693356915702
 21
8742.257269579949
 31
0.0
  0
INSERT
  5
86F
330
487
100
AcDbEntity
  8
0
 62
     0
370
    -2
100
AcDbBlockReference
  2
_ArchTick
 10
-5922.693356915702
 20
8742.257269579949
 30
0.0
 41
100.0
 42
100.0
 43
100.0
 50
180.0
  0
INSERT
  5
870
330
487
100
AcDbEntity
  8
0
 62
     0
370
    -2
100
AcDbBlockReference
  2
_ArchTick
 10
-5582.693356915703
 20
8742.257269579949
 30
0.0
 41
100.0
 42
100.0
 43
100.0
  0
MTEXT
  5
871
330
487
100
AcDbEntity
  8
0
 62
     0
100
AcDbMText
 10
-5790.193356915703
 20
8843.348674764122
 30
0.0
 40
100.0
 41
0.0
 71
     5
 72
     1
  1
~330
 73
     1
 44
1.0
1001
ACAD
1000
MTEXTBEGIN
1070
    73
1070
     1
1070
    44
1040
1.0
1070
    74
1070
     0
1000
MTEXTEND
  0
POINT
  5
872
330
487
100
AcDbEntity
  8
Defpoints
 62
     0
100
AcDbPoint
 10
-5922.693356915702
 20
8280.251637439844
 30
0.0
  0
POINT
  5
873
330
487
100
AcDbEntity
  8
Defpoints
 62
     0
100
AcDbPoint
 10
-5582.693356915703
 20
8280.251637439844
 30
0.0
  0
POINT
  5
874
330
487
100
AcDbEntity
  8
Defpoints
 62
     0
100
AcDbPoint
 10
-5582.693356915703
 20
8742.257269579949
 30
0.0
  0
ENDBLK
  5
489
330
487
100
AcDbEntity
  8
0
100
AcDbBlockEnd
  0
BLOCK
  5
4CA
330
4C9
100
AcDbEntity
  8
0
100
AcDbBlockBegin
  2
*D7
 70
     1
 10
0.0
 20
0.0
 30
0.0
  3
*D7
  1

  0
LINE
  5
875
330
4C9
100
AcDbEntity
  8
0
 62
     0
370
    -2
100
AcDbLine
 10
-6047.693356915702
 20
8280.251637439844
 30
0.0
 11
-6308.213082075464
 21
8280.251637439844
 31
0.0
  0
LINE
  5
876
330
4C9
100
AcDbEntity
  8
0
 62
     0
370
    -2
100
AcDbLine
 10
-6047.693356915702
 20
7830.251637439848
 30
0.0
 11
-6308.213082075464
 21
7830.251637439848
 31
0.0
  0
LINE
  5
877
330
4C9
100
AcDbEntity
  8
0
 62
     0
370
    -2
100
AcDbLine
 10
-6233.213082075465
 20
8355.251637439845
 30
0.0
 11
-6233.213082075465
 21
7755.251637439847
 31
0.0
  0
INSERT
  5
878
330
4C9
100
AcDbEntity
  8
0
 62
     0
370
    -2
100
AcDbBlockReference
  2
_ArchTick
 10
-6233.213082075465
 20
8280.251637439844
 30
0.0
 41
100.0
 42
100.0
 43
100.0
 50
90.0
  0
INSERT
  5
879
330
4C9
100
AcDbEntity
  8
0
 62
     0
370
    -2
100
AcDbBlockReference
  2
_ArchTick
 10
-6233.213082075465
 20
7830.251637439848
 30
0.0
 41
100.0
 42
100.0
 43
100.0
 50
270.0
  0
MTEXT
  5
87A
330
4C9
100
AcDbEntity
  8
0
 62
     0
100
AcDbMText
 10
-6334.270380847634
 20
8055.251637439845
 30
0.0
 40
100.0
 41
0.0
 71
     5
 72
     1
  1
~450
 11
0.0000000000000001
 21
1.0
 31
0.0
 73
     1
 44
1.0
1001
ACAD
1000
MTEXTBEGIN
1070
    73
1070
     1
1070
    44
1040
1.0
1070
    74
1070
     0
1000
MTEXTEND
  0
POINT
  5
87B
330
4C9
100
AcDbEntity
  8
Defpoints
 62
     0
100
AcDbPoint
 10
-5922.693356915702
 20
8280.251637439844
 30
0.0
  0
POINT
  5
87C
330
4C9
100
AcDbEntity
  8
Defpoints
 62
     0
100
AcDbPoint
 10
-5922.693356915702
 20
7830.251637439848
 30
0.0
  0
POINT
  5
87D
330
4C9
100
AcDbEntity
  8
Defpoints
 62
     0
100
AcDbPoint
 10
-6233.213082075465
 20
7830.251637439848
 30
0.0
  0
ENDBLK
  5
4CB
330
4C9
100
AcDbEntity
  8
0
100
AcDbBlockEnd
  0
BLOCK
  5
4ED
330
4EC
100
AcDbEntity
  8
0
100
AcDbBlockBegin
  2
*D8
 70
     1
 10
0.0
 20
0.0
 30
0.0
  3
*D8
  1

  0
LINE
  5
87E
330
4EC
100
AcDbEntity
  8
0
 62
     0
370
    -2
100
AcDbLine
 10
-5047.87092380801
 20
8130.251637439846
 30
0.0
 11
-5308.390648967771
 21
8130.251637439846
 31
0.0
  0
LINE
  5
87F
330
4EC
100
AcDbEntity
  8
0
 62
     0
370
    -2
100
AcDbLine
 10
-5047.87092380801
 20
7830.251637439848
 30
0.0
 11
-5308.390648967771
 21
7830.251637439848
 31
0.0
  0
LINE
  5
880
330
4EC
100
AcDbEntity
  8
0
 62
     0
370
    -2
100
AcDbLine
 10
-5233.390648967771
 20
8205.251637439848
 30
0.0
 11
-5233.390648967771
 21
7755.251637439847
 31
0.0
  0
INSERT
  5
881
330
4EC
100
AcDbEntity
  8
0
 62
     0
370
    -2
100
AcDbBlockReference
  2
_ArchTick
 10
-5233.390648967771
 20
8130.251637439846
 30
0.0
 41
100.0
 42
100.0
 43
100.0
 50
90.0
  0
INSERT
  5
882
330
4EC
100
AcDbEntity
  8
0
 62
     0
370
    -2
100
AcDbBlockReference
  2
_ArchTick
 10
-5233.390648967771
 20
7830.251637439848
 30
0.0
 41
100.0
 42
100.0
 43
100.0
 50
270.0
  0
MTEXT
  5
883
330
4EC
100
AcDbEntity
  8
0
 62
     0
100
AcDbMText
 10
-5334.482054151947
 20
7980.251637439845
 30
0.0
 40
100.0
 41
0.0
 71
     5
 72
     1
  1
~300
 11
0.0000000000000001
 21
1.0
 31
0.0
 73
     1
 44
1.0
1001
ACAD
1000
MTEXTBEGIN
1070
    73
1070
     1
1070
    44
1040
1.0
1070
    74
1070
     0
1000
MTEXTEND
  0
POINT
  5
884
330
4EC
100
AcDbEntity
  8
Defpoints
 62
     0
100
AcDbPoint
 10
-4922.87092380801
 20
8130.251637439846
 30
0.0
  0
POINT
  5
885
330
4EC
100
AcDbEntity
  8
Defpoints
 62
     0
100
AcDbPoint
 10
-4922.87092380801
 20
7830.251637439848
 30
0.0
  0
POINT
  5
886
330
4EC
100
AcDbEntity
  8
Defpoints
 62
     0
100
AcDbPoint
 10
-5233.390648967771
 20
7830.251637439848
 30
0.0
  0
ENDBLK
  5
4EE
330
4EC
100
AcDbEntity
  8
0
100
AcDbBlockEnd
  0
BLOCK
  5
561
330
560
100
AcDbEntity
  8
0
100
AcDbBlockBegin
  2
*D9
 70
     1
 10
0.0
 20
0.0
 30
0.0
  3
*D9
  1

  0
LINE
  5
887
330
560
100
AcDbEntity
  8
0
 62
     0
370
    -2
100
AcDbLine
 10
-4922.87092380801
 20
8405.251637439844
 30
0.0
 11
-4922.87092380801
 21
8817.257269579949
 31
0.0
  0
LINE
  5
888
330
560
100
AcDbEntity
  8
0
 62
     0
370
    -2
100
AcDbLine
 10
-4582.87092380801
 20
8405.251637439844
 30
0.0
 11
-4582.87092380801
 21
8817.257269579949
 31
0.0
  0
LINE
  5
889
330
560
100
AcDbEntity
  8
0
 62
     0
370
    -2
100
AcDbLine
 10
-4997.87092380801
 20
8742.257269579949
 30
0.0
 11
-4507.87092380801
 21
8742.257269579949
 31
0.0
  0
INSERT
  5
88A
330
560
100
AcDbEntity
  8
0
 62
     0
370
    -2
100
AcDbBlockReference
  2
_ArchTick
 10
-4922.87092380801
 20
8742.257269579949
 30
0.0
 41
100.0
 42
100.0
 43
100.0
 50
180.0
  0
INSERT
  5
88B
330
560
100
AcDbEntity
  8
0
 62
     0
370
    -2
100
AcDbBlockReference
  2
_ArchTick
 10
-4582.87092380801
 20
8742.257269579949
 30
0.0
 41
100.0
 42
100.0
 43
100.0
  0
MTEXT
  5
88C
330
560
100
AcDbEntity
  8
0
 62
     0
100
AcDbMText
 10
-4790.37092380801
 20
8843.348674764122
 30
0.0
 40
100.0
 41
0.0
 71
     5
 72
     1
  1
~330
 73
     1
 44
1.0
1001
ACAD
1000
MTEXTBEGIN
1070
    73
1070
     1
1070
    44
1040
1.0
1070
    74
1070
     0
1000
MTEXTEND
  0
POINT
  5
88D
330
560
100
AcDbEntity
  8
Defpoints
 62
     0
100
AcDbPoint
 10
-4922.87092380801
 20
8280.251637439844
 30
0.0
  0
POINT
  5
88E
330
560
100
AcDbEntity
  8
Defpoints
 62
     0
100
AcDbPoint
 10
-4582.87092380801
 20
8280.251637439844
 30
0.0
  0
POINT
  5
88F
330
560
100
AcDbEntity
  8
Defpoints
 62
     0
100
AcDbPoint
 10
-4582.87092380801
 20
8742.257269579949
 30
0.0
  0
ENDBLK
  5
562
330
560
100
AcDbEntity
  8
0
100
AcDbBlockEnd
  0
BLOCK
  5
59B
330
59A
100
AcDbEntity
  8
0
100
AcDbBlockBegin
  2
*D10
 70
     1
 10
0.0
 20
0.0
 30
0.0
  3
*D10
  1

  0
LINE
  5
812
330
59A
100
AcDbEntity
  8
0
 62
     0
370
    -2
100
AcDbLine
 10
11717.54428143672
 20
9251.977174971504
 30
0.0
 11
11717.54428143672
 21
9517.434692265487
 31
0.0
  0
LINE
  5
813
330
59A
100
AcDbEntity
  8
0
 62
     0
370
    -2
100
AcDbLine
 10
15217.54428143672
 20
9251.977174971504
 30
0.0
 11
15217.54428143672
 21
9517.434692265487
 31
0.0
  0
LINE
  5
814
330
59A
100
AcDbEntity
  8
0
 62
     0
370
    -2
100
AcDbLine
 10
11642.54428143672
 20
9442.434692265486
 30
0.0
 11
15292.54428143672
 21
9442.434692265486
 31
0.0
  0
INSERT
  5
815
330
59A
100
AcDbEntity
  8
0
 62
     0
370
    -2
100
AcDbBlockReference
  2
_ArchTick
 10
11717.54428143672
 20
9442.434692265486
 30
0.0
 41
100.0
 42
100.0
 43
100.0
 50
180.0
  0
INSERT
  5
816
330
59A
100
AcDbEntity
  8
0
 62
     0
370
    -2
100
AcDbBlockReference
  2
_ArchTick
 10
15217.54428143672
 20
9442.434692265486
 30
0.0
 41
100.0
 42
100.0
 43
100.0
  0
MTEXT
  5
817
330
59A
100
AcDbEntity
  8
0
 62
     0
100
AcDbMText
 10
13467.54428143672
 20
9543.52609744966
 30
0.0
 40
100.0
 41
0.0
 71
     5
 72
     1
  1
~3500
 73
     1
 44
1.0
1001
ACAD
1000
MTEXTBEGIN
1070
    73
1070
     1
1070
    44
1040
1.0
1070
    74
1070
     0
1000
MTEXTEND
  0
POINT
  5
818
330
59A
100
AcDbEntity
  8
Defpoints
 62
     0
100
AcDbPoint
 10
11717.54428143672
 20
9126.977174971504
 30
0.0
  0
POINT
  5
819
330
59A
100
AcDbEntity
  8
Defpoints
 62
     0
100
AcDbPoint
 10
15217.54428143672
 20
9126.977174971504
 30
0.0
  0
POINT
  5
81A
330
59A
100
AcDbEntity
  8
Defpoints
 62
     0
100
AcDbPoint
 10
15217.54428143672
 20
9442.434692265486
 30
0.0
  0
ENDBLK
  5
59C
330
59A
100
AcDbEntity
  8
0
100
AcDbBlockEnd
  0
BLOCK
  5
5B3
330
5B2
100
AcDbEntity
  8
0
100
AcDbBlockBegin
  2
*D11
 70
     1
 10
0.0
 20
0.0
 30
0.0
  3
*D11
  1

  0
LINE
  5
81B
330
5B2
100
AcDbEntity
  8
0
 62
     0
370
    -2
100
AcDbLine
 10
11592.54428143672
 20
9126.977174971504
 30
0.0
 11
11321.30566034663
 21
9126.977174971504
 31
0.0
  0
LINE
  5
81C
330
5B2
100
AcDbEntity
  8
0
 62
     0
370
    -2
100
AcDbLine
 10
11592.54428143672
 20
8396.977174971501
 30
0.0
 11
11321.30566034663
 21
8396.977174971501
 31
0.0
  0
LINE
  5
81D
330
5B2
100
AcDbEntity
  8
0
 62
     0
370
    -2
100
AcDbLine
 10
11396.30566034663
 20
9201.977174971503
 30
0.0
 11
11396.30566034663
 21
8321.977174971502
 31
0.0
  0
INSERT
  5
81E
330
5B2
100
AcDbEntity
  8
0
 62
     0
370
    -2
100
AcDbBlockReference
  2
_ArchTick
 10
11396.30566034663
 20
9126.977174971504
 30
0.0
 41
100.0
 42
100.0
 43
100.0
 50
90.0
  0
INSERT
  5
81F
330
5B2
100
AcDbEntity
  8
0
 62
     0
370
    -2
100
AcDbBlockReference
  2
_ArchTick
 10
11396.30566034663
 20
8396.977174971501
 30
0.0
 41
100.0
 42
100.0
 43
100.0
 50
270.0
  0
MTEXT
  5
820
330
5B2
100
AcDbEntity
  8
0
 62
     0
100
AcDbMText
 10
11295.24836157445
 20
8761.977174971502
 30
0.0
 40
100.0
 41
0.0
 71
     5
 72
     1
  1
~750
 11
0.0000000000000001
 21
1.0
 31
0.0
 73
     1
 44
1.0
1001
ACAD
1000
MTEXTBEGIN
1070
    73
1070
     1
1070
    44
1040
1.0
1070
    74
1070
     0
1000
MTEXTEND
  0
POINT
  5
821
330
5B2
100
AcDbEntity
  8
Defpoints
 62
     0
100
AcDbPoint
 10
11717.54428143672
 20
9126.977174971504
 30
0.0
  0
POINT
  5
822
330
5B2
100
AcDbEntity
  8
Defpoints
 62
     0
100
AcDbPoint
 10
11717.54428143672
 20
8396.977174971501
 30
0.0
  0
POINT
  5
823
330
5B2
100
AcDbEntity
  8
Defpoints
 62
     0
100
AcDbPoint
 10
11396.30566034663
 20
8396.977174971501
 30
0.0
  0
ENDBLK
  5
5B4
330
5B2
100
AcDbEntity
  8
0
100
AcDbBlockEnd
  0
BLOCK
  5
5CC
330
5CB
100
AcDbEntity
  8
0
100
AcDbBlockBegin
  2
*D12
 70
     1
 10
0.0
 20
0.0
 30
0.0
  3
*D12
  1

  0
LINE
  5
824
330
5CB
100
AcDbEntity
  8
0
 62
     0
370
    -2
100
AcDbLine
 10
10151.08990195818
 20
7563.985404009521
 30
0.0
 11
9859.8359951458
 21
7563.985404009521
 31
0.0
  0
LINE
  5
825
330
5CB
100
AcDbEntity
  8
0
 62
     0
370
    -2
100
AcDbLine
 10
10151.08990195818
 20
6763.985404009521
 30
0.0
 11
9859.8359951458
 21
6763.985404009521
 31
0.0
  0
LINE
  5
826
330
5CB
100
AcDbEntity
  8
0
 62
     0
370
    -2
100
AcDbLine
 10
9934.8359951458
 20
7638.985404009521
 30
0.0
 11
9934.8359951458
 21
6688.985404009521
 31
0.0
  0
INSERT
  5
827
330
5CB
100
AcDbEntity
  8
0
 62
     0
370
    -2
100
AcDbBlockReference
  2
_ArchTick
 10
9934.8359951458
 20
7563.985404009521
 30
0.0
 41
100.0
 42
100.0
 43
100.0
 50
90.0
  0
INSERT
  5
828
330
5CB
100
AcDbEntity
  8
0
 62
     0
370
    -2
100
AcDbBlockReference
  2
_ArchTick
 10
9934.8359951458
 20
6763.985404009521
 30
0.0
 41
100.0
 42
100.0
 43
100.0
 50
270.0
  0
MTEXT
  5
829
330
5CB
100
AcDbEntity
  8
0
 62
     0
100
AcDbMText
 10
9833.778696373627
 20
7163.985404009522
 30
0.0
 40
100.0
 41
0.0
 71
     5
 72
     1
  1
~800
 11
0.0000000000000001
 21
1.0
 31
0.0
 73
     1
 44
1.0
1001
ACAD
1000
MTEXTBEGIN
1070
    73
1070
     1
1070
    44
1040
1.0
1070
    74
1070
     0
1000
MTEXTEND
  0
POINT
  5
82A
330
5CB
100
AcDbEntity
  8
Defpoints
 62
     0
100
AcDbPoint
 10
10276.08990195818
 20
7563.98540400952
 30
0.0
  0
POINT
  5
82B
330
5CB
100
AcDbEntity
  8
Defpoints
 62
     0
100
AcDbPoint
 10
10276.08990195818
 20
6763.98540400952
 30
0.0
  0
POINT
  5
82C
330
5CB
100
AcDbEntity
  8
Defpoints
 62
     0
100
AcDbPoint
 10
9934.8359951458
 20
6763.985404009521
 30
0.0
  0
ENDBLK
  5
5CD
330
5CB
100
AcDbEntity
  8
0
100
AcDbBlockEnd
  0
BLOCK
  5
636
330
635
100
AcDbEntity
  8
0
100
AcDbBlockBegin
  2
*D13
 70
     1
 10
0.0
 20
0.0
 30
0.0
  3
*D13
  1

  0
LINE
  5
14A6
330
635
100
AcDbEntity
  8
0
 62
     0
370
    -2
100
AcDbLine
 10
1076.303850425597
 20
2223.351926525506
 30
0.0
 11
1076.303850425597
 21
2466.32351072668
 31
0.0
  0
LINE
  5
14A7
330
635
100
AcDbEntity
  8
0
 62
     0
370
    -2
100
AcDbLine
 10
3076.303850425597
 20
2223.351926525506
 30
0.0
 11
3076.303850425597
 21
2466.32351072668
 31
0.0
  0
LINE
  5
14A8
330
635
100
AcDbEntity
  8
0
 62
     0
370
    -2
100
AcDbLine
 10
1001.303850425597
 20
2391.323510726679
 30
0.0
 11
3151.303850425597
 21
2391.323510726679
 31
0.0
  0
INSERT
  5
14A9
330
635
100
AcDbEntity
  8
0
 62
     0
370
    -2
100
AcDbBlockReference
  2
_ArchTick
 10
1076.303850425597
 20
2391.323510726679
 30
0.0
 41
100.0
 42
100.0
 43
100.0
 50
180.0
  0
INSERT
  5
14AA
330
635
100
AcDbEntity
  8
0
 62
     0
370
    -2
100
AcDbBlockReference
  2
_ArchTick
 10
3076.303850425597
 20
2391.323510726679
 30
0.0
 41
100.0
 42
100.0
 43
100.0
  0
MTEXT
  5
14AB
330
635
100
AcDbEntity
  8
0
 62
     0
100
AcDbMText
 10
2076.303850425597
 20
2492.380809498849
 30
0.0
 40
100.0
 41
0.0
 71
     5
 72
     1
  1
~2000
 73
     1
 44
1.0
1001
ACAD
1000
MTEXTBEGIN
1070
    73
1070
     1
1070
    44
1040
1.0
1070
    74
1070
     0
1000
MTEXTEND
  0
POINT
  5
14AC
330
635
100
AcDbEntity
  8
Defpoints
 62
     0
100
AcDbPoint
 10
1076.303850425597
 20
2098.351926525506
 30
0.0
  0
POINT
  5
14AD
330
635
100
AcDbEntity
  8
Defpoints
 62
     0
100
AcDbPoint
 10
3076.303850425597
 20
2098.351926525506
 30
0.0
  0
POINT
  5
14AE
330
635
100
AcDbEntity
  8
Defpoints
 62
     0
100
AcDbPoint
 10
3076.303850425597
 20
2391.323510726679
 30
0.0
  0
ENDBLK
  5
637
330
635
100
AcDbEntity
  8
0
100
AcDbBlockEnd
  0
BLOCK
  5
64E
330
64D
100
AcDbEntity
  8
0
100
AcDbBlockBegin
  2
*D14
 70
     1
 10
0.0
 20
0.0
 30
0.0
  3
*D14
  1

  0
LINE
  5
14AF
330
64D
100
AcDbEntity
  8
0
 62
     0
370
    -2
100
AcDbLine
 10
951.3038504255975
 20
1298.351926525505
 30
0.0
 11
682.0830585494213
 21
1298.351926525505
 31
0.0
  0
LINE
  5
14B0
330
64D
100
AcDbEntity
  8
0
 62
     0
370
    -2
100
AcDbLine
 10
951.3038504255973
 20
2098.351926525507
 30
0.0
 11
682.0830585494213
 21
2098.351926525507
 31
0.0
  0
LINE
  5
14B1
330
64D
100
AcDbEntity
  8
0
 62
     0
370
    -2
100
AcDbLine
 10
757.0830585494211
 20
1223.351926525505
 30
0.0
 11
757.0830585494213
 21
2173.351926525507
 31
0.0
  0
INSERT
  5
14B2
330
64D
100
AcDbEntity
  8
0
 62
     0
370
    -2
100
AcDbBlockReference
  2
_ArchTick
 10
757.0830585494213
 20
1298.351926525505
 30
0.0
 41
100.0
 42
100.0
 43
100.0
 50
270.0
  0
INSERT
  5
14B3
330
64D
100
AcDbEntity
  8
0
 62
     0
370
    -2
100
AcDbBlockReference
  2
_ArchTick
 10
757.0830585494213
 20
2098.351926525507
 30
0.0
 41
100.0
 42
100.0
 43
100.0
 50
90.0
  0
MTEXT
  5
14B4
330
64D
100
AcDbEntity
  8
0
 62
     0
100
AcDbMText
 10
656.0257597772519
 20
1698.351926525505
 30
0.0
 40
100.0
 41
0.0
 71
     5
 72
     1
  1
~800
 11
0.0000000000000001
 21
1.0
 31
0.0
 73
     1
 44
1.0
1001
ACAD
1000
MTEXTBEGIN
1070
    73
1070
     1
1070
    44
1040
1.0
1070
    74
1070
     0
1000
MTEXTEND
  0
POINT
  5
14B5
330
64D
100
AcDbEntity
  8
Defpoints
 62
     0
100
AcDbPoint
 10
1076.303850425597
 20
1298.351926525505
 30
0.0
  0
POINT
  5
14B6
330
64D
100
AcDbEntity
  8
Defpoints
 62
     0
100
AcDbPoint
 10
1076.303850425597
 20
2098.351926525506
 30
0.0
  0
POINT
  5
14B7
330
64D
100
AcDbEntity
  8
Defpoints
 62
     0
100
AcDbPoint
 10
757.0830585494213
 20
2098.351926525507
 30
0.0
  0
ENDBLK
  5
64F
330
64D
100
AcDbEntity
  8
0
100
AcDbBlockEnd
  0
BLOCK
  5
664
330
663
100
AcDbEntity
  8
0
100
AcDbBlockBegin
  2
*D15
 70
     1
 10
0.0
 20
0.0
 30
0.0
  3
*D15
  1

  0
LINE
  5
800
330
663
100
AcDbEntity
  8
0
 62
     0
370
    -2
100
AcDbLine
 10
3383.109868546952
 20
10955.25163743984
 30
0.0
 11
3383.109868546952
 21
11555.82006942284
 31
0.0
  0
LINE
  5
801
330
663
100
AcDbEntity
  8
0
 62
     0
370
    -2
100
AcDbLine
 10
7383.109868546951
 20
10955.25163743984
 30
0.0
 11
7383.109868546951
 21
11555.82006942284
 31
0.0
  0
LINE
  5
802
330
663
100
AcDbEntity
  8
0
 62
     0
370
    -2
100
AcDbLine
 10
3308.109868546952
 20
11480.82006942284
 30
0.0
 11
7458.109868546952
 21
11480.82006942284
 31
0.0
  0
INSERT
  5
803
330
663
100
AcDbEntity
  8
0
 62
     0
370
    -2
100
AcDbBlockReference
  2
_ArchTick
 10
3383.109868546952
 20
11480.82006942284
 30
0.0
 41
100.0
 42
100.0
 43
100.0
 50
180.0
  0
INSERT
  5
804
330
663
100
AcDbEntity
  8
0
 62
     0
370
    -2
100
AcDbBlockReference
  2
_ArchTick
 10
7383.109868546951
 20
11480.82006942284
 30
0.0
 41
100.0
 42
100.0
 43
100.0
  0
MTEXT
  5
805
330
663
100
AcDbEntity
  8
0
 62
     0
100
AcDbMText
 10
5383.109868546951
 20
11581.87736819501
 30
0.0
 40
100.0
 41
0.0
 71
     5
 72
     1
  1
~4000
 73
     1
 44
1.0
1001
ACAD
1000
MTEXTBEGIN
1070
    73
1070
     1
1070
    44
1040
1.0
1070
    74
1070
     0
1000
MTEXTEND
  0
POINT
  5
806
330
663
100
AcDbEntity
  8
Defpoints
 62
     0
100
AcDbPoint
 10
3383.109868546952
 20
10830.25163743984
 30
0.0
  0
POINT
  5
807
330
663
100
AcDbEntity
  8
Defpoints
 62
     0
100
AcDbPoint
 10
7383.109868546951
 20
10830.25163743984
 30
0.0
  0
POINT
  5
808
330
663
100
AcDbEntity
  8
Defpoints
 62
     0
100
AcDbPoint
 10
7383.109868546951
 20
11480.82006942284
 30
0.0
  0
ENDBLK
  5
665
330
663
100
AcDbEntity
  8
0
100
AcDbBlockEnd
  0
BLOCK
  5
67C
330
67B
100
AcDbEntity
  8
0
100
AcDbBlockBegin
  2
*D16
 70
     1
 10
0.0
 20
0.0
 30
0.0
  3
*D16
  1

  0
LINE
  5
809
330
67B
100
AcDbEntity
  8
0
 62
     0
370
    -2
100
AcDbLine
 10
3258.109868546952
 20
10830.25163743984
 30
0.0
 11
2697.190808436489
 21
10830.25163743984
 31
0.0
  0
LINE
  5
80A
330
67B
100
AcDbEntity
  8
0
 62
     0
370
    -2
100
AcDbLine
 10
3258.109868546951
 20
7830.251637439845
 30
0.0
 11
2697.190808436489
 21
7830.251637439845
 31
0.0
  0
LINE
  5
80B
330
67B
100
AcDbEntity
  8
0
 62
     0
370
    -2
100
AcDbLine
 10
2772.190808436489
 20
10905.25163743984
 30
0.0
 11
2772.190808436489
 21
7755.251637439845
 31
0.0
  0
INSERT
  5
80C
330
67B
100
AcDbEntity
  8
0
 62
     0
370
    -2
100
AcDbBlockReference
  2
_ArchTick
 10
2772.190808436489
 20
10830.25163743984
 30
0.0
 41
100.0
 42
100.0
 43
100.0
 50
90.0
  0
INSERT
  5
80D
330
67B
100
AcDbEntity
  8
0
 62
     0
370
    -2
100
AcDbBlockReference
  2
_ArchTick
 10
2772.190808436489
 20
7830.251637439845
 30
0.0
 41
100.0
 42
100.0
 43
100.0
 50
270.0
  0
MTEXT
  5
80E
330
67B
100
AcDbEntity
  8
0
 62
     0
100
AcDbMText
 10
2671.099403252313
 20
9330.251637439843
 30
0.0
 40
100.0
 41
0.0
 71
     5
 72
     1
  1
~3000
 11
0.0000000000000001
 21
1.0
 31
0.0
 73
     1
 44
1.0
1001
ACAD
1000
MTEXTBEGIN
1070
    73
1070
     1
1070
    44
1040
1.0
1070
    74
1070
     0
1000
MTEXTEND
  0
POINT
  5
80F
330
67B
100
AcDbEntity
  8
Defpoints
 62
     0
100
AcDbPoint
 10
3383.109868546952
 20
10830.25163743984
 30
0.0
  0
POINT
  5
810
330
67B
100
AcDbEntity
  8
Defpoints
 62
     0
100
AcDbPoint
 10
3383.109868546951
 20
7830.251637439845
 30
0.0
  0
POINT
  5
811
330
67B
100
AcDbEntity
  8
Defpoints
 62
     0
100
AcDbPoint
 10
2772.190808436489
 20
7830.251637439845
 30
0.0
  0
ENDBLK
  5
67D
330
67B
100
AcDbEntity
  8
0
100
AcDbBlockEnd
  0
BLOCK
  5
6F0
330
6EF
100
AcDbEntity
  8
0
100
AcDbBlockBegin
  2
*D17
 70
     1
 10
0.0
 20
0.0
 30
0.0
  3
*D17
  1

  0
LINE
  5
14B8
330
6EF
100
AcDbEntity
  8
0
 62
     0
370
    -2
100
AcDbLine
 10
-116.9054187881193
 20
0.000000000000014
 30
0.0
 11
-386.1262106642945
 21
0.0000000000000903
 31
0.0
  0
LINE
  5
14B9
330
6EF
100
AcDbEntity
  8
0
 62
     0
370
    -2
100
AcDbLine
 10
-116.9054187881193
 20
549.9999999999999
 30
0.0
 11
-386.1262106642944
 21
550.0
 31
0.0
  0
LINE
  5
14BA
330
6EF
100
AcDbEntity
  8
0
 62
     0
370
    -2
100
AcDbLine
 10
-311.1262106642945
 20
-74.99999999999992
 30
0.0
 11
-311.1262106642944
 21
625.0
 31
0.0
  0
INSERT
  5
14BB
330
6EF
100
AcDbEntity
  8
0
 62
     0
370
    -2
100
AcDbBlockReference
  2
_ArchTick
 10
-311.1262106642945
 20
0.000000000000069
 30
0.0
 41
100.0
 42
100.0
 43
100.0
 50
270.0
  0
INSERT
  5
14BC
330
6EF
100
AcDbEntity
  8
0
 62
     0
370
    -2
100
AcDbBlockReference
  2
_ArchTick
 10
-311.1262106642944
 20
550.0
 30
0.0
 41
100.0
 42
100.0
 43
100.0
 50
90.0
  0
MTEXT
  5
14BD
330
6EF
100
AcDbEntity
  8
0
 62
     0
100
AcDbMText
 10
-412.1835094364636
 20
275.0
 30
0.0
 40
100.0
 41
0.0
 71
     5
 72
     1
  1
~550
 11
0.0000000000000001
 21
1.0
 31
0.0
 73
     1
 44
1.0
1001
ACAD
1000
MTEXTBEGIN
1070
    73
1070
     1
1070
    44
1040
1.0
1070
    74
1070
     0
1000
MTEXTEND
  0
POINT
  5
14BE
330
6EF
100
AcDbEntity
  8
Defpoints
 62
     0
100
AcDbPoint
 10
8.094581211880722
 20
-0.0000000000000214
 30
0.0
  0
POINT
  5
14BF
330
6EF
100
AcDbEntity
  8
Defpoints
 62
     0
100
AcDbPoint
 10
8.094581211880722
 20
549.9999999999999
 30
0.0
  0
POINT
  5
14C0
330
6EF
100
AcDbEntity
  8
Defpoints
 62
     0
100
AcDbPoint
 10
-311.1262106642944
 20
550.0
 30
0.0
  0
ENDBLK
  5
6F1
330
6EF
100
AcDbEntity
  8
0
100
AcDbBlockEnd
  0
BLOCK
  5
774
330
773
100
AcDbEntity
  8
0
100
AcDbBlockBegin
  2
*D18
 70
     1
 10
0.0
 20
0.0
 30
0.0
  3
*D18
  1

  0
LINE
  5
14C1
330
773
100
AcDbEntity
  8
0
 62
     0
370
    -2
100
AcDbLine
 10
5702.403138861033
 20
3823.351926525505
 30
0.0
 11
5702.403138861033
 21
4456.588666311765
 31
0.0
  0
LINE
  5
14C2
330
773
100
AcDbEntity
  8
0
 62
     0
370
    -2
100
AcDbLine
 10
10702.40313886103
 20
3823.351926525505
 30
0.0
 11
10702.40313886103
 21
4456.588666311765
 31
0.0
  0
LINE
  5
14C3
330
773
100
AcDbEntity
  8
0
 62
     0
370
    -2
100
AcDbLine
 10
5627.403138861033
 20
4381.588666311765
 30
0.0
 11
10777.40313886103
 21
4381.588666311765
 31
0.0
  0
INSERT
  5
14C4
330
773
100
AcDbEntity
  8
0
 62
     0
370
    -2
100
AcDbBlockReference
  2
_ArchTick
 10
5702.403138861033
 20
4381.588666311765
 30
0.0
 41
100.0
 42
100.0
 43
100.0
 50
180.0
  0
INSERT
  5
14C5
330
773
100
AcDbEntity
  8
0
 62
     0
370
    -2
100
AcDbBlockReference
  2
_ArchTick
 10
10702.40313886103
 20
4381.588666311765
 30
0.0
 41
100.0
 42
100.0
 43
100.0
  0
MTEXT
  5
14C6
330
773
100
AcDbEntity
  8
0
 62
     0
100
AcDbMText
 10
8202.403138861033
 20
4482.645965083935
 30
0.0
 40
100.0
 41
0.0
 71
     5
 72
     1
  1
~5000
 73
     1
 44
1.0
1001
ACAD
1000
MTEXTBEGIN
1070
    73
1070
     1
1070
    44
1040
1.0
1070
    74
1070
     0
1000
MTEXTEND
  0
POINT
  5
14C7
330
773
100
AcDbEntity
  8
Defpoints
 62
     0
100
AcDbPoint
 10
5702.403138861033
 20
3698.351926525505
 30
0.0
  0
POINT
  5
14C8
330
773
100
AcDbEntity
  8
Defpoints
 62
     0
100
AcDbPoint
 10
10702.40313886103
 20
3698.351926525505
 30
0.0
  0
POINT
  5
14C9
330
773
100
AcDbEntity
  8
Defpoints
 62
     0
100
AcDbPoint
 10
10702.40313886103
 20
4381.588666311765
 30
0.0
  0
ENDBLK
  5
775
330
773
100
AcDbEntity
  8
0
100
AcDbBlockEnd
  0
BLOCK
  5
78C
330
78B
100
AcDbEntity
  8
0
100
AcDbBlockBegin
  2
*D19
 70
     1
 10
0.0
 20
0.0
 30
0.0
  3
*D19
  1

  0
LINE
  5
14CA
330
78B
100
AcDbEntity
  8
0
 62
     0
370
    -2
100
AcDbLine
 10
5577.403138861033
 20
3698.351926525505
 30
0.0
 11
5006.710073128115
 21
3698.351926525506
 31
0.0
  0
LINE
  5
14CB
330
78B
100
AcDbEntity
  8
0
 62
     0
370
    -2
100
AcDbLine
 10
5577.403138861033
 20
-301.6480734744952
 30
0.0
 11
5006.710073128114
 21
-301.648073474495
 31
0.0
  0
LINE
  5
14CC
330
78B
100
AcDbEntity
  8
0
 62
     0
370
    -2
100
AcDbLine
 10
5081.710073128114
 20
3773.351926525505
 30
0.0
 11
5081.710073128114
 21
-376.648073474495
 31
0.0
  0
INSERT
  5
14CD
330
78B
100
AcDbEntity
  8
0
 62
     0
370
    -2
100
AcDbBlockReference
  2
_ArchTick
 10
5081.710073128114
 20
3698.351926525506
 30
0.0
 41
100.0
 42
100.0
 43
100.0
 50
90.0
  0
INSERT
  5
14CE
330
78B
100
AcDbEntity
  8
0
 62
     0
370
    -2
100
AcDbBlockReference
  2
_ArchTick
 10
5081.710073128114
 20
-301.648073474495
 30
0.0
 41
100.0
 42
100.0
 43
100.0
 50
270.0
  0
MTEXT
  5
14CF
330
78B
100
AcDbEntity
  8
0
 62
     0
100
AcDbMText
 10
4980.652774355945
 20
1698.351926525506
 30
0.0
 40
100.0
 41
0.0
 71
     5
 72
     1
  1
~4000
 11
0.0000000000000001
 21
1.0
 31
0.0
 73
     1
 44
1.0
1001
ACAD
1000
MTEXTBEGIN
1070
    73
1070
     1
1070
    44
1040
1.0
1070
    74
1070
     0
1000
MTEXTEND
  0
POINT
  5
14D0
330
78B
100
AcDbEntity
  8
Defpoints
 62
     0
100
AcDbPoint
 10
5702.403138861033
 20
3698.351926525505
 30
0.0
  0
POINT
  5
14D1
330
78B
100
AcDbEntity
  8
Defpoints
 62
     0
100
AcDbPoint
 10
5702.403138861033
 20
-301.6480734744952
 30
0.0
  0
POINT
  5
14D2
330
78B
100
AcDbEntity
  8
Defpoints
 62
     0
100
AcDbPoint
 10
5081.710073128114
 20
-301.648073474495
 30
0.0
  0
ENDBLK
  5
78D
330
78B
100
AcDbEntity
  8
0
100
AcDbBlockEnd
  0
BLOCK
  5
8BB
330
8BA
100
AcDbEntity
  8
0
100
AcDbBlockBegin
  2
*D20
 70
     1
 10
0.0
 20
0.0
 30
0.0
  3
*D20
  1

  0
LINE
  5
97D
330
8BA
100
AcDbEntity
  8
0
 62
     0
370
    -2
100
AcDbLine
 10
-139.5987877901575
 20
17835.63705289064
 30
0.0
 11
-139.5987877901575
 21
18105.44711299433
 31
0.0
  0
LINE
  5
97E
330
8BA
100
AcDbEntity
  8
0
 62
     0
370
    -2
100
AcDbLine
 10
760.4012122098428
 20
17835.63705289063
 30
0.0
 11
760.4012122098428
 21
18105.44711299433
 31
0.0
  0
LINE
  5
97F
330
8BA
100
AcDbEntity
  8
0
 62
     0
370
    -2
100
AcDbLine
 10
-214.5987877901575
 20
18030.44711299433
 30
0.0
 11
835.401212209843
 21
18030.44711299433
 31
0.0
  0
INSERT
  5
980
330
8BA
100
AcDbEntity
  8
0
 62
     0
370
    -2
100
AcDbBlockReference
  2
_ArchTick
 10
-139.5987877901575
 20
18030.44711299433
 30
0.0
 41
100.0
 42
100.0
 43
100.0
 50
180.0
  0
INSERT
  5
981
330
8BA
100
AcDbEntity
  8
0
 62
     0
370
    -2
100
AcDbBlockReference
  2
_ArchTick
 10
760.4012122098428
 20
18030.44711299433
 30
0.0
 41
100.0
 42
100.0
 43
100.0
  0
MTEXT
  5
982
330
8BA
100
AcDbEntity
  8
0
 62
     0
100
AcDbMText
 10
310.4012122098427
 20
18131.5044117665
 30
0.0
 40
100.0
 41
0.0
 71
     5
 72
     1
  1
~900
 73
     1
 44
1.0
1001
ACAD
1000
MTEXTBEGIN
1070
    73
1070
     1
1070
    44
1040
1.0
1070
    74
1070
     0
1000
MTEXTEND
  0
POINT
  5
983
330
8BA
100
AcDbEntity
  8
Defpoints
 62
     0
100
AcDbPoint
 10
-139.5987877901575
 20
17710.63705289064
 30
0.0
  0
POINT
  5
984
330
8BA
100
AcDbEntity
  8
Defpoints
 62
     0
100
AcDbPoint
 10
760.4012122098428
 20
17710.63705289063
 30
0.0
  0
POINT
  5
985
330
8BA
100
AcDbEntity
  8
Defpoints
 62
     0
100
AcDbPoint
 10
760.4012122098428
 20
18030.44711299433
 30
0.0
  0
ENDBLK
  5
8BC
330
8BA
100
AcDbEntity
  8
0
100
AcDbBlockEnd
  0
BLOCK
  5
8C8
330
8C7
100
AcDbEntity
  8
0
100
AcDbBlockBegin
  2
*D21
 70
     1
 10
0.0
 20
0.0
 30
0.0
  3
*D21
  1

  0
LINE
  5
986
330
8C7
100
AcDbEntity
  8
0
 62
     0
370
    -2
100
AcDbLine
 10
-264.5987877901575
 20
17710.63705289063
 30
0.0
 11
-556.3646747348391
 21
17710.63705289063
 31
0.0
  0
LINE
  5
987
330
8C7
100
AcDbEntity
  8
0
 62
     0
370
    -2
100
AcDbLine
 10
-264.5987877901571
 20
16810.63705289063
 30
0.0
 11
-556.3646747348393
 21
16810.63705289063
 31
0.0
  0
LINE
  5
988
330
8C7
100
AcDbEntity
  8
0
 62
     0
370
    -2
100
AcDbLine
 10
-481.3646747348392
 20
17785.63705289063
 30
0.0
 11
-481.3646747348394
 21
16735.63705289063
 31
0.0
  0
INSERT
  5
989
330
8C7
100
AcDbEntity
  8
0
 62
     0
370
    -2
100
AcDbBlockReference
  2
_ArchTick
 10
-481.3646747348392
 20
17710.63705289063
 30
0.0
 41
100.0
 42
100.0
 43
100.0
 50
90.0
  0
INSERT
  5
98A
330
8C7
100
AcDbEntity
  8
0
 62
     0
370
    -2
100
AcDbBlockReference
  2
_ArchTick
 10
-481.3646747348393
 20
16810.63705289063
 30
0.0
 41
100.0
 42
100.0
 43
100.0
 50
270.0
  0
MTEXT
  5
98B
330
8C7
100
AcDbEntity
  8
0
 62
     0
100
AcDbMText
 10
-582.4219735070112
 20
17260.63705289063
 30
0.0
 40
100.0
 41
0.0
 71
     5
 72
     1
  1
~900
 11
0.0000000000000001
 21
1.0
 31
0.0
 73
     1
 44
1.0
1001
ACAD
1000
MTEXTBEGIN
1070
    73
1070
     1
1070
    44
1040
1.0
1070
    74
1070
     0
1000
MTEXTEND
  0
POINT
  5
98C
330
8C7
100
AcDbEntity
  8
Defpoints
 62
     0
100
AcDbPoint
 10
-139.5987877901575
 20
17710.63705289063
 30
0.0
  0
POINT
  5
98D
330
8C7
100
AcDbEntity
  8
Defpoints
 62
     0
100
AcDbPoint
 10
-139.5987877901571
 20
16810.63705289063
 30
0.0
  0
POINT
  5
98E
330
8C7
100
AcDbEntity
  8
Defpoints
 62
     0
100
AcDbPoint
 10
-481.3646747348393
 20
16810.63705289063
 30
0.0
  0
ENDBLK
  5
8C9
330
8C7
100
AcDbEntity
  8
0
100
AcDbBlockEnd
  0
BLOCK
  5
8D5
330
8D4
100
AcDbEntity
  8
0
100
AcDbBlockBegin
  2
*D22
 70
     1
 10
0.0
 20
0.0
 30
0.0
  3
*D22
  1

  0
LINE
  5
A09
330
8D4
100
AcDbEntity
  8
0
 62
     0
370
    -2
100
AcDbLine
 10
-264.5987877901575
 20
16275.31551691307
 30
0.0
 11
-555.9480080681732
 21
16275.31551691307
 31
0.0
  0
LINE
  5
A0A
330
8D4
100
AcDbEntity
  8
0
 62
     0
370
    -2
100
AcDbLine
 10
-264.5987877901575
 20
15675.31551691307
 30
0.0
 11
-555.9480080681732
 21
15675.31551691307
 31
0.0
  0
LINE
  5
A0B
330
8D4
100
AcDbEntity
  8
0
 62
     0
370
    -2
100
AcDbLine
 10
-480.9480080681731
 20
16350.31551691307
 30
0.0
 11
-480.9480080681733
 21
15600.31551691307
 31
0.0
  0
INSERT
  5
A0C
330
8D4
100
AcDbEntity
  8
0
 62
     0
370
    -2
100
AcDbBlockReference
  2
_ArchTick
 10
-480.9480080681731
 20
16275.31551691307
 30
0.0
 41
100.0
 42
100.0
 43
100.0
 50
90.0
  0
INSERT
  5
A0D
330
8D4
100
AcDbEntity
  8
0
 62
     0
370
    -2
100
AcDbBlockReference
  2
_ArchTick
 10
-480.9480080681733
 20
15675.31551691307
 30
0.0
 41
100.0
 42
100.0
 43
100.0
 50
270.0
  0
MTEXT
  5
A0E
330
8D4
100
AcDbEntity
  8
0
 62
     0
100
AcDbMText
 10
-582.0053068403447
 20
15975.31551691307
 30
0.0
 40
100.0
 41
0.0
 71
     5
 72
     1
  1
~600
 11
0.0000000000000001
 21
1.0
 31
0.0
 73
     1
 44
1.0
1001
ACAD
1000
MTEXTBEGIN
1070
    73
1070
     1
1070
    44
1040
1.0
1070
    74
1070
     0
1000
MTEXTEND
  0
POINT
  5
A0F
330
8D4
100
AcDbEntity
  8
Defpoints
 62
     0
100
AcDbPoint
 10
-139.5987877901575
 20
16275.31551691307
 30
0.0
  0
POINT
  5
A10
330
8D4
100
AcDbEntity
  8
Defpoints
 62
     0
100
AcDbPoint
 10
-139.5987877901575
 20
15675.31551691307
 30
0.0
  0
POINT
  5
A11
330
8D4
100
AcDbEntity
  8
Defpoints
 62
     0
100
AcDbPoint
 10
-480.9480080681733
 20
15675.31551691307
 30
0.0
  0
ENDBLK
  5
8D6
330
8D4
100
AcDbEntity
  8
0
100
AcDbBlockEnd
  0
BLOCK
  5
8ED
330
8EC
100
AcDbEntity
  8
0
100
AcDbBlockBegin
  2
*D23
 70
     1
 10
0.0
 20
0.0
 30
0.0
  3
*D23
  1

  0
LINE
  5
A59
330
8EC
100
AcDbEntity
  8
0
 62
     0
370
    -2
100
AcDbLine
 10
7487.685482524779
 20
17835.63705289064
 30
0.0
 11
7487.685482524779
 21
18105.44711299433
 31
0.0
  0
LINE
  5
A5A
330
8EC
100
AcDbEntity
  8
0
 62
     0
370
    -2
100
AcDbLine
 10
8387.685482524778
 20
17835.63705289063
 30
0.0
 11
8387.685482524778
 21
18105.44711299433
 31
0.0
  0
LINE
  5
A5B
330
8EC
100
AcDbEntity
  8
0
 62
     0
370
    -2
100
AcDbLine
 10
7412.685482524778
 20
18030.44711299433
 30
0.0
 11
8462.685482524779
 21
18030.44711299433
 31
0.0
  0
INSERT
  5
A5C
330
8EC
100
AcDbEntity
  8
0
 62
     0
370
    -2
100
AcDbBlockReference
  2
_ArchTick
 10
7487.685482524779
 20
18030.44711299433
 30
0.0
 41
100.0
 42
100.0
 43
100.0
 50
180.0
  0
INSERT
  5
A5D
330
8EC
100
AcDbEntity
  8
0
 62
     0
370
    -2
100
AcDbBlockReference
  2
_ArchTick
 10
8387.685482524778
 20
18030.44711299433
 30
0.0
 41
100.0
 42
100.0
 43
100.0
  0
MTEXT
  5
A5E
330
8EC
100
AcDbEntity
  8
0
 62
     0
100
AcDbMText
 10
7937.685482524779
 20
18131.5044117665
 30
0.0
 40
100.0
 41
0.0
 71
     5
 72
     1
  1
~900
 73
     1
 44
1.0
1001
ACAD
1000
MTEXTBEGIN
1070
    73
1070
     1
1070
    44
1040
1.0
1070
    74
1070
     0
1000
MTEXTEND
  0
POINT
  5
A5F
330
8EC
100
AcDbEntity
  8
Defpoints
 62
     0
100
AcDbPoint
 10
7487.685482524779
 20
17710.63705289064
 30
0.0
  0
POINT
  5
A60
330
8EC
100
AcDbEntity
  8
Defpoints
 62
     0
100
AcDbPoint
 10
8387.685482524778
 20
17710.63705289063
 30
0.0
  0
POINT
  5
A61
330
8EC
100
AcDbEntity
  8
Defpoints
 62
     0
100
AcDbPoint
 10
8387.685482524778
 20
18030.44711299433
 30
0.0
  0
ENDBLK
  5
8EE
330
8EC
100
AcDbEntity
  8
0
100
AcDbBlockEnd
  0
BLOCK
  5
9A5
330
9A4
100
AcDbEntity
  8
0
100
AcDbBlockBegin
  2
*D24
 70
     1
 10
0.0
 20
0.0
 30
0.0
  3
*D24
  1

  0
LINE
  5
A62
330
9A4
100
AcDbEntity
  8
0
 62
     0
370
    -2
100
AcDbLine
 10
7362.685482524779
 20
16275.31551691307
 30
0.0
 11
7071.336262246763
 21
16275.31551691307
 31
0.0
  0
LINE
  5
A63
330
9A4
100
AcDbEntity
  8
0
 62
     0
370
    -2
100
AcDbLine
 10
7362.685482524779
 20
15675.31551691307
 30
0.0
 11
7071.336262246763
 21
15675.31551691307
 31
0.0
  0
LINE
  5
A64
330
9A4
100
AcDbEntity
  8
0
 62
     0
370
    -2
100
AcDbLine
 10
7146.336262246761
 20
16350.31551691307
 30
0.0
 11
7146.336262246761
 21
15600.31551691307
 31
0.0
  0
INSERT
  5
A65
330
9A4
100
AcDbEntity
  8
0
 62
     0
370
    -2
100
AcDbBlockReference
  2
_ArchTick
 10
7146.336262246761
 20
16275.31551691307
 30
0.0
 41
100.0
 42
100.0
 43
100.0
 50
90.0
  0
INSERT
  5
A66
330
9A4
100
AcDbEntity
  8
0
 62
     0
370
    -2
100
AcDbBlockReference
  2
_ArchTick
 10
7146.336262246761
 20
15675.31551691307
 30
0.0
 41
100.0
 42
100.0
 43
100.0
 50
270.0
  0
MTEXT
  5
A67
330
9A4
100
AcDbEntity
  8
0
 62
     0
100
AcDbMText
 10
7045.278963474591
 20
15975.31551691307
 30
0.0
 40
100.0
 41
0.0
 71
     5
 72
     1
  1
~600
 11
0.0000000000000001
 21
1.0
 31
0.0
 73
     1
 44
1.0
1001
ACAD
1000
MTEXTBEGIN
1070
    73
1070
     1
1070
    44
1040
1.0
1070
    74
1070
     0
1000
MTEXTEND
  0
POINT
  5
A68
330
9A4
100
AcDbEntity
  8
Defpoints
 62
     0
100
AcDbPoint
 10
7487.685482524779
 20
16275.31551691307
 30
0.0
  0
POINT
  5
A69
330
9A4
100
AcDbEntity
  8
Defpoints
 62
     0
100
AcDbPoint
 10
7487.685482524779
 20
15675.31551691307
 30
0.0
  0
POINT
  5
A6A
330
9A4
100
AcDbEntity
  8
Defpoints
 62
     0
100
AcDbPoint
 10
7146.336262246761
 20
15675.31551691307
 30
0.0
  0
ENDBLK
  5
9A6
330
9A4
100
AcDbEntity
  8
0
100
AcDbBlockEnd
  0
BLOCK
  5
9BB
330
9BA
100
AcDbEntity
  8
0
100
AcDbBlockBegin
  2
*D25
 70
     1
 10
0.0
 20
0.0
 30
0.0
  3
*D25
  1

  0
LINE
  5
A6B
330
9BA
100
AcDbEntity
  8
0
 62
     0
370
    -2
100
AcDbLine
 10
2362.628504714179
 20
18885.63705289063
 30
0.0
 11
2362.628504714179
 21
19155.44711299433
 31
0.0
  0
LINE
  5
A6C
330
9BA
100
AcDbEntity
  8
0
 62
     0
370
    -2
100
AcDbLine
 10
5362.628504714179
 20
18885.63705289063
 30
0.0
 11
5362.628504714179
 21
19155.44711299433
 31
0.0
  0
LINE
  5
A6D
330
9BA
100
AcDbEntity
  8
0
 62
     0
370
    -2
100
AcDbLine
 10
2287.628504714179
 20
19080.44711299433
 30
0.0
 11
5437.628504714179
 21
19080.44711299433
 31
0.0
  0
INSERT
  5
A6E
330
9BA
100
AcDbEntity
  8
0
 62
     0
370
    -2
100
AcDbBlockReference
  2
_ArchTick
 10
2362.628504714179
 20
19080.44711299433
 30
0.0
 41
100.0
 42
100.0
 43
100.0
 50
180.0
  0
INSERT
  5
A6F
330
9BA
100
AcDbEntity
  8
0
 62
     0
370
    -2
100
AcDbBlockReference
  2
_ArchTick
 10
5362.628504714179
 20
19080.44711299433
 30
0.0
 41
100.0
 42
100.0
 43
100.0
  0
MTEXT
  5
A70
330
9BA
100
AcDbEntity
  8
0
 62
     0
100
AcDbMText
 10
3862.628504714179
 20
19181.5385181785
 30
0.0
 40
100.0
 41
0.0
 71
     5
 72
     1
  1
~3000
 73
     1
 44
1.0
1001
ACAD
1000
MTEXTBEGIN
1070
    73
1070
     1
1070
    44
1040
1.0
1070
    74
1070
     0
1000
MTEXTEND
  0
POINT
  5
A71
330
9BA
100
AcDbEntity
  8
Defpoints
 62
     0
100
AcDbPoint
 10
2362.628504714179
 20
18760.63705289063
 30
0.0
  0
POINT
  5
A72
330
9BA
100
AcDbEntity
  8
Defpoints
 62
     0
100
AcDbPoint
 10
5362.628504714179
 20
18760.63705289063
 30
0.0
  0
POINT
  5
A73
330
9BA
100
AcDbEntity
  8
Defpoints
 62
     0
100
AcDbPoint
 10
5362.628504714179
 20
19080.44711299433
 30
0.0
  0
ENDBLK
  5
9BC
330
9BA
100
AcDbEntity
  8
0
100
AcDbBlockEnd
  0
BLOCK
  5
9DA
330
9D9
100
AcDbEntity
  8
0
100
AcDbBlockBegin
  2
*D26
 70
     1
 10
0.0
 20
0.0
 30
0.0
  3
*D26
  1

  0
LINE
  5
A74
330
9D9
100
AcDbEntity
  8
0
 62
     0
370
    -2
100
AcDbLine
 10
2237.628504714179
 20
18760.63705289063
 30
0.0
 11
1946.279284436164
 21
18760.63705289063
 31
0.0
  0
LINE
  5
A75
330
9D9
100
AcDbEntity
  8
0
 62
     0
370
    -2
100
AcDbLine
 10
2237.628504714179
 20
15760.63705289063
 30
0.0
 11
1946.279284436163
 21
15760.63705289063
 31
0.0
  0
LINE
  5
A76
330
9D9
100
AcDbEntity
  8
0
 62
     0
370
    -2
100
AcDbLine
 10
2021.279284436164
 20
18835.63705289063
 30
0.0
 11
2021.279284436163
 21
15685.63705289063
 31
0.0
  0
INSERT
  5
A77
330
9D9
100
AcDbEntity
  8
0
 62
     0
370
    -2
100
AcDbBlockReference
  2
_ArchTick
 10
2021.279284436164
 20
18760.63705289063
 30
0.0
 41
100.0
 42
100.0
 43
100.0
 50
90.0
  0
INSERT
  5
A78
330
9D9
100
AcDbEntity
  8
0
 62
     0
370
    -2
100
AcDbBlockReference
  2
_ArchTick
 10
2021.279284436163
 20
15760.63705289063
 30
0.0
 41
100.0
 42
100.0
 43
100.0
 50
270.0
  0
MTEXT
  5
A79
330
9D9
100
AcDbEntity
  8
0
 62
     0
100
AcDbMText
 10
1920.187879251986
 20
17260.63705289063
 30
0.0
 40
100.0
 41
0.0
 71
     5
 72
     1
  1
~3000
 11
0.0000000000000001
 21
1.0
 31
0.0
 73
     1
 44
1.0
1001
ACAD
1000
MTEXTBEGIN
1070
    73
1070
     1
1070
    44
1040
1.0
1070
    74
1070
     0
1000
MTEXTEND
  0
POINT
  5
A7A
330
9D9
100
AcDbEntity
  8
Defpoints
 62
     0
100
AcDbPoint
 10
2362.628504714179
 20
18760.63705289063
 30
0.0
  0
POINT
  5
A7B
330
9D9
100
AcDbEntity
  8
Defpoints
 62
     0
100
AcDbPoint
 10
2362.628504714179
 20
15760.63705289063
 30
0.0
  0
POINT
  5
A7C
330
9D9
100
AcDbEntity
  8
Defpoints
 62
     0
100
AcDbPoint
 10
2021.279284436163
 20
15760.63705289063
 30
0.0
  0
ENDBLK
  5
9DB
330
9D9
100
AcDbEntity
  8
0
100
AcDbBlockEnd
  0
BLOCK
  5
A1E
330
A1D
100
AcDbEntity
  8
0
100
AcDbBlockBegin
  2
*D27
 70
     1
 10
0.0
 20
0.0
 30
0.0
  3
*D27
  1

  0
LINE
  5
A35
330
A1D
100
AcDbEntity
  8
0
 62
     0
370
    -2
100
AcDbLine
 10
10183.86355840696
 20
18885.63705289063
 30
0.0
 11
10183.86355840696
 21
19155.44711299433
 31
0.0
  0
LINE
  5
A36
330
A1D
100
AcDbEntity
  8
0
 62
     0
370
    -2
100
AcDbLine
 10
13183.86355840696
 20
18885.63705289063
 30
0.0
 11
13183.86355840696
 21
19155.44711299433
 31
0.0
  0
LINE
  5
A37
330
A1D
100
AcDbEntity
  8
0
 62
     0
370
    -2
100
AcDbLine
 10
10108.86355840696
 20
19080.44711299433
 30
0.0
 11
13258.86355840696
 21
19080.44711299433
 31
0.0
  0
INSERT
  5
A38
330
A1D
100
AcDbEntity
  8
0
 62
     0
370
    -2
100
AcDbBlockReference
  2
_ArchTick
 10
10183.86355840696
 20
19080.44711299433
 30
0.0
 41
100.0
 42
100.0
 43
100.0
 50
180.0
  0
INSERT
  5
A39
330
A1D
100
AcDbEntity
  8
0
 62
     0
370
    -2
100
AcDbBlockReference
  2
_ArchTick
 10
13183.86355840696
 20
19080.44711299433
 30
0.0
 41
100.0
 42
100.0
 43
100.0
  0
MTEXT
  5
A3A
330
A1D
100
AcDbEntity
  8
0
 62
     0
100
AcDbMText
 10
11683.86355840696
 20
19181.5385181785
 30
0.0
 40
100.0
 41
0.0
 71
     5
 72
     1
  1
~3000
 73
     1
 44
1.0
1001
ACAD
1000
MTEXTBEGIN
1070
    73
1070
     1
1070
    44
1040
1.0
1070
    74
1070
     0
1000
MTEXTEND
  0
POINT
  5
A3B
330
A1D
100
AcDbEntity
  8
Defpoints
 62
     0
100
AcDbPoint
 10
10183.86355840696
 20
18760.63705289063
 30
0.0
  0
POINT
  5
A3C
330
A1D
100
AcDbEntity
  8
Defpoints
 62
     0
100
AcDbPoint
 10
13183.86355840696
 20
18760.63705289063
 30
0.0
  0
POINT
  5
A3D
330
A1D
100
AcDbEntity
  8
Defpoints
 62
     0
100
AcDbPoint
 10
13183.86355840696
 20
19080.44711299433
 30
0.0
  0
ENDBLK
  5
A1F
330
A1D
100
AcDbEntity
  8
0
100
AcDbBlockEnd
  0
BLOCK
  5
A2A
330
A29
100
AcDbEntity
  8
0
100
AcDbBlockBegin
  2
*D28
 70
     1
 10
0.0
 20
0.0
 30
0.0
  3
*D28
  1

  0
LINE
  5
A3E
330
A29
100
AcDbEntity
  8
0
 62
     0
370
    -2
100
AcDbLine
 10
10058.86355840696
 20
18760.63705289063
 30
0.0
 11
9767.514338128947
 21
18760.63705289063
 31
0.0
  0
LINE
  5
A3F
330
A29
100
AcDbEntity
  8
0
 62
     0
370
    -2
100
AcDbLine
 10
10058.86355840696
 20
15760.63705289063
 30
0.0
 11
9767.514338128947
 21
15760.63705289063
 31
0.0
  0
LINE
  5
A40
330
A29
100
AcDbEntity
  8
0
 62
     0
370
    -2
100
AcDbLine
 10
9842.514338128948
 20
18835.63705289063
 30
0.0
 11
9842.514338128948
 21
15685.63705289063
 31
0.0
  0
INSERT
  5
A41
330
A29
100
AcDbEntity
  8
0
 62
     0
370
    -2
100
AcDbBlockReference
  2
_ArchTick
 10
9842.514338128948
 20
18760.63705289063
 30
0.0
 41
100.0
 42
100.0
 43
100.0
 50
90.0
  0
INSERT
  5
A42
330
A29
100
AcDbEntity
  8
0
 62
     0
370
    -2
100
AcDbBlockReference
  2
_ArchTick
 10
9842.514338128948
 20
15760.63705289063
 30
0.0
 41
100.0
 42
100.0
 43
100.0
 50
270.0
  0
MTEXT
  5
A43
330
A29
100
AcDbEntity
  8
0
 62
     0
100
AcDbMText
 10
9741.422932944772
 20
17260.63705289063
 30
0.0
 40
100.0
 41
0.0
 71
     5
 72
     1
  1
~3000
 11
0.0000000000000001
 21
1.0
 31
0.0
 73
     1
 44
1.0
1001
ACAD
1000
MTEXTBEGIN
1070
    73
1070
     1
1070
    44
1040
1.0
1070
    74
1070
     0
1000
MTEXTEND
  0
POINT
  5
A44
330
A29
100
AcDbEntity
  8
Defpoints
 62
     0
100
AcDbPoint
 10
10183.86355840696
 20
18760.63705289063
 30
0.0
  0
POINT
  5
A45
330
A29
100
AcDbEntity
  8
Defpoints
 62
     0
100
AcDbPoint
 10
10183.86355840696
 20
15760.63705289063
 30
0.0
  0
POINT
  5
A46
330
A29
100
AcDbEntity
  8
Defpoints
 62
     0
100
AcDbPoint
 10
9842.514338128948
 20
15760.63705289063
 30
0.0
  0
ENDBLK
  5
A2B
330
A29
100
AcDbEntity
  8
0
100
AcDbBlockEnd
  0
BLOCK
  5
D06
330
D05
100
AcDbEntity
  8
0
100
AcDbBlockBegin
  2
*D29
 70
     1
 10
0.0
 20
0.0
 30
0.0
  3
*D29
  1

  0
LINE
  5
D6B
330
D05
100
AcDbEntity
  8
0
 62
     0
370
    -2
100
AcDbLine
 10
23845.44700505966
 20
3419.678566540484
 30
0.0
 11
24225.41510756707
 21
3419.678566540484
 31
0.0
  0
LINE
  5
D6C
330
D05
100
AcDbEntity
  8
0
 62
     0
370
    -2
100
AcDbLine
 10
23845.44700505966
 20
2419.678566540484
 30
0.0
 11
24225.41510756707
 21
2419.678566540484
 31
0.0
  0
LINE
  5
D6D
330
D05
100
AcDbEntity
  8
0
 62
     0
370
    -2
100
AcDbLine
 10
24150.41510756707
 20
3494.678566540484
 30
0.0
 11
24150.41510756707
 21
2344.678566540484
 31
0.0
  0
INSERT
  5
D6E
330
D05
100
AcDbEntity
  8
0
 62
     0
370
    -2
100
AcDbBlockReference
  2
_ArchTick
 10
24150.41510756707
 20
3419.678566540484
 30
0.0
 41
100.0
 42
100.0
 43
100.0
 50
90.0
  0
INSERT
  5
D6F
330
D05
100
AcDbEntity
  8
0
 62
     0
370
    -2
100
AcDbBlockReference
  2
_ArchTick
 10
24150.41510756707
 20
2419.678566540484
 30
0.0
 41
100.0
 42
100.0
 43
100.0
 50
270.0
  0
MTEXT
  5
D70
330
D05
100
AcDbEntity
  8
0
 62
     0
100
AcDbMText
 10
24049.3578087949
 20
2919.678566540488
 30
0.0
 40
100.0
 41
0.0
 71
     5
 72
     1
  1
1000
 11
0.0000000000000001
 21
1.0
 31
0.0
 73
     1
 44
1.0
1001
ACAD
1000
MTEXTBEGIN
1070
    73
1070
     1
1070
    44
1040
1.0
1070
    74
1070
     0
1000
MTEXTEND
  0
POINT
  5
D71
330
D05
100
AcDbEntity
  8
Defpoints
 62
     0
100
AcDbPoint
 10
23720.44700505966
 20
3419.678566540484
 30
0.0
  0
POINT
  5
D72
330
D05
100
AcDbEntity
  8
Defpoints
 62
     0
100
AcDbPoint
 10
23720.44700505966
 20
2419.678566540484
 30
0.0
  0
POINT
  5
D73
330
D05
100
AcDbEntity
  8
Defpoints
 62
     0
100
AcDbPoint
 10
24150.41510756707
 20
2419.678566540484
 30
0.0
  0
ENDBLK
  5
D07
330
D05
100
AcDbEntity
  8
0
100
AcDbBlockEnd
  0
BLOCK
  5
D12
330
D11
100
AcDbEntity
  8
0
100
AcDbBlockBegin
  2
*D30
 70
     1
 10
0.0
 20
0.0
 30
0.0
  3
*D30
  1

  0
LINE
  5
D74
330
D11
100
AcDbEntity
  8
0
 62
     0
370
    -2
100
AcDbLine
 10
21353.28749711587
 20
1940.112451238732
 30
0.0
 11
21353.28749711587
 21
1916.174640138662
 31
0.0
  0
LINE
  5
D75
330
D11
100
AcDbEntity
  8
0
 62
     0
370
    -2
100
AcDbLine
 10
23353.28749711587
 20
1940.112451238732
 30
0.0
 11
23353.28749711587
 21
1916.174640138662
 31
0.0
  0
LINE
  5
D76
330
D11
100
AcDbEntity
  8
0
 62
     0
370
    -2
100
AcDbLine
 10
21278.28749711587
 20
1991.174640138662
 30
0.0
 11
23428.28749711587
 21
1991.174640138662
 31
0.0
  0
INSERT
  5
D77
330
D11
100
AcDbEntity
  8
0
 62
     0
370
    -2
100
AcDbBlockReference
  2
_ArchTick
 10
21353.28749711587
 20
1991.174640138662
 30
0.0
 41
100.0
 42
100.0
 43
100.0
 50
180.0
  0
INSERT
  5
D78
330
D11
100
AcDbEntity
  8
0
 62
     0
370
    -2
100
AcDbBlockReference
  2
_ArchTick
 10
23353.28749711587
 20
1991.174640138662
 30
0.0
 41
100.0
 42
100.0
 43
100.0
  0
MTEXT
  5
D79
330
D11
100
AcDbEntity
  8
0
 62
     0
100
AcDbMText
 10
22353.28749711587
 20
2092.231938910832
 30
0.0
 40
100.0
 41
0.0
 71
     5
 72
     1
  1
ca:2000
 73
     1
 44
1.0
1001
ACAD
1000
MTEXTBEGIN
1070
    73
1070
     1
1070
    44
1040
1.0
1070
    74
1070
     0
1000
MTEXTEND
  0
POINT
  5
D7A
330
D11
100
AcDbEntity
  8
Defpoints
 62
     0
100
AcDbPoint
 10
21353.28749711587
 20
2065.112451238732
 30
0.0
  0
POINT
  5
D7B
330
D11
100
AcDbEntity
  8
Defpoints
 62
     0
100
AcDbPoint
 10
23353.28749711587
 20
2065.112451238732
 30
0.0
  0
POINT
  5
D7C
330
D11
100
AcDbEntity
  8
Defpoints
 62
     0
100
AcDbPoint
 10
23353.28749711587
 20
1991.174640138662
 30
0.0
  0
ENDBLK
  5
D13
330
D11
100
AcDbEntity
  8
0
100
AcDbBlockEnd
  0
BLOCK
  5
D1E
330
D1D
100
AcDbEntity
  8
0
100
AcDbBlockBegin
  2
*D31
 70
     1
 10
0.0
 20
0.0
 30
0.0
  3
*D31
  1

  0
LINE
  5
D59
330
D1D
100
AcDbEntity
  8
0
 62
     0
370
    -2
100
AcDbLine
 10
20138.76276166973
 20
9417.698581367146
 30
0.0
 11
20138.76276166973
 21
10288.49626532008
 31
0.0
  0
LINE
  5
D5A
330
D1D
100
AcDbEntity
  8
0
 62
     0
370
    -2
100
AcDbLine
 10
24138.76276166973
 20
9417.698581367146
 30
0.0
 11
24138.76276166973
 21
10288.49626532008
 31
0.0
  0
LINE
  5
D5B
330
D1D
100
AcDbEntity
  8
0
 62
     0
370
    -2
100
AcDbLine
 10
20063.76276166973
 20
10213.49626532008
 30
0.0
 11
24213.76276166973
 21
10213.49626532008
 31
0.0
  0
INSERT
  5
D5C
330
D1D
100
AcDbEntity
  8
0
 62
     0
370
    -2
100
AcDbBlockReference
  2
_ArchTick
 10
20138.76276166973
 20
10213.49626532008
 30
0.0
 41
100.0
 42
100.0
 43
100.0
 50
180.0
  0
INSERT
  5
D5D
330
D1D
100
AcDbEntity
  8
0
 62
     0
370
    -2
100
AcDbBlockReference
  2
_ArchTick
 10
24138.76276166973
 20
10213.49626532008
 30
0.0
 41
100.0
 42
100.0
 43
100.0
  0
MTEXT
  5
D5E
330
D1D
100
AcDbEntity
  8
0
 62
     0
100
AcDbMText
 10
22138.76276166973
 20
10314.55356409225
 30
0.0
 40
100.0
 41
0.0
 71
     5
 72
     1
  1
4000
 73
     1
 44
1.0
1001
ACAD
1000
MTEXTBEGIN
1070
    73
1070
     1
1070
    44
1040
1.0
1070
    74
1070
     0
1000
MTEXTEND
  0
POINT
  5
D5F
330
D1D
100
AcDbEntity
  8
Defpoints
 62
     0
100
AcDbPoint
 10
20138.76276166973
 20
9292.698581367146
 30
0.0
  0
POINT
  5
D60
330
D1D
100
AcDbEntity
  8
Defpoints
 62
     0
100
AcDbPoint
 10
24138.76276166973
 20
9292.698581367146
 30
0.0
  0
POINT
  5
D61
330
D1D
100
AcDbEntity
  8
Defpoints
 62
     0
100
AcDbPoint
 10
24138.76276166973
 20
10213.49626532008
 30
0.0
  0
ENDBLK
  5
D1F
330
D1D
100
AcDbEntity
  8
0
100
AcDbBlockEnd
  0
BLOCK
  5
D2A
330
D29
100
AcDbEntity
  8
0
100
AcDbBlockBegin
  2
*D32
 70
     1
 10
0.0
 20
0.0
 30
0.0
  3
*D32
  1

  0
LINE
  5
D62
330
D29
100
AcDbEntity
  8
0
 62
     0
370
    -2
100
AcDbLine
 10
24263.76276166973
 20
9292.698581367146
 30
0.0
 11
25379.80243420063
 21
9292.698581367146
 31
0.0
  0
LINE
  5
D63
330
D29
100
AcDbEntity
  8
0
 62
     0
370
    -2
100
AcDbLine
 10
24263.76276166973
 20
4292.698581367143
 30
0.0
 11
25379.80243420062
 21
4292.698581367143
 31
0.0
  0
LINE
  5
D64
330
D29
100
AcDbEntity
  8
0
 62
     0
370
    -2
100
AcDbLine
 10
25304.80243420063
 20
9367.698581367143
 30
0.0
 11
25304.80243420063
 21
4217.698581367144
 31
0.0
  0
INSERT
  5
D65
330
D29
100
AcDbEntity
  8
0
 62
     0
370
    -2
100
AcDbBlockReference
  2
_ArchTick
 10
25304.80243420063
 20
9292.698581367146
 30
0.0
 41
100.0
 42
100.0
 43
100.0
 50
90.0
  0
INSERT
  5
D66
330
D29
100
AcDbEntity
  8
0
 62
     0
370
    -2
100
AcDbBlockReference
  2
_ArchTick
 10
25304.80243420063
 20
4292.698581367143
 30
0.0
 41
100.0
 42
100.0
 43
100.0
 50
270.0
  0
MTEXT
  5
D67
330
D29
100
AcDbEntity
  8
0
 62
     0
100
AcDbMText
 10
25203.74513542846
 20
6792.698581367147
 30
0.0
 40
100.0
 41
0.0
 71
     5
 72
     1
  1
5000
 11
0.0000000000000001
 21
1.0
 31
0.0
 73
     1
 44
1.0
1001
ACAD
1000
MTEXTBEGIN
1070
    73
1070
     1
1070
    44
1040
1.0
1070
    74
1070
     0
1000
MTEXTEND
  0
POINT
  5
D68
330
D29
100
AcDbEntity
  8
Defpoints
 62
     0
100
AcDbPoint
 10
24138.76276166973
 20
9292.698581367146
 30
0.0
  0
POINT
  5
D69
330
D29
100
AcDbEntity
  8
Defpoints
 62
     0
100
AcDbPoint
 10
24138.76276166973
 20
4292.698581367143
 30
0.0
  0
POINT
  5
D6A
330
D29
100
AcDbEntity
  8
Defpoints
 62
     0
100
AcDbPoint
 10
25304.80243420063
 20
4292.698581367143
 30
0.0
  0
ENDBLK
  5
D2B
330
D29
100
AcDbEntity
  8
0
100
AcDbBlockEnd
  0
BLOCK
  5
DAB
330
DAA
100
AcDbEntity
  8
0
100
AcDbBlockBegin
  2
*D33
 70
     1
 10
0.0
 20
0.0
 30
0.0
  3
*D33
  1

  0
LINE
  5
130B
330
DAA
100
AcDbEntity
  8
0
 62
     0
370
    -2
100
AcDbLine
 10
18500.18086458112
 20
19040.47396376223
 30
0.0
 11
18500.18086458112
 21
19500.6528827279
 31
0.0
  0
LINE
  5
130C
330
DAA
100
AcDbEntity
  8
0
 62
     0
370
    -2
100
AcDbLine
 10
21000.18086458113
 20
19040.47396376223
 30
0.0
 11
21000.18086458113
 21
19500.6528827279
 31
0.0
  0
LINE
  5
130D
330
DAA
100
AcDbEntity
  8
0
 62
     0
370
    -2
100
AcDbLine
 10
18425.18086458112
 20
19425.65288272789
 30
0.0
 11
21075.18086458112
 21
19425.65288272789
 31
0.0
  0
INSERT
  5
130E
330
DAA
100
AcDbEntity
  8
0
 62
     0
370
    -2
100
AcDbBlockReference
  2
_ArchTick
 10
18500.18086458112
 20
19425.65288272789
 30
0.0
 41
100.0
 42
100.0
 43
100.0
 50
180.0
  0
INSERT
  5
130F
330
DAA
100
AcDbEntity
  8
0
 62
     0
370
    -2
100
AcDbBlockReference
  2
_ArchTick
 10
21000.18086458113
 20
19425.65288272789
 30
0.0
 41
100.0
 42
100.0
 43
100.0
  0
MTEXT
  5
1310
330
DAA
100
AcDbEntity
  8
0
 62
     0
100
AcDbMText
 10
19750.18086458112
 20
19526.71018150006
 30
0.0
 40
100.0
 41
0.0
 71
     5
 72
     1
  1
2500
 73
     1
 44
1.0
1001
ACAD
1000
MTEXTBEGIN
1070
    73
1070
     1
1070
    44
1040
1.0
1070
    74
1070
     0
1000
MTEXTEND
  0
POINT
  5
1311
330
DAA
100
AcDbEntity
  8
Defpoints
 62
     0
100
AcDbPoint
 10
18500.18086458112
 20
18915.47396376223
 30
0.0
  0
POINT
  5
1312
330
DAA
100
AcDbEntity
  8
Defpoints
 62
     0
100
AcDbPoint
 10
21000.18086458113
 20
18915.47396376223
 30
0.0
  0
POINT
  5
1313
330
DAA
100
AcDbEntity
  8
Defpoints
 62
     0
100
AcDbPoint
 10
21000.18086458113
 20
19425.65288272789
 30
0.0
  0
ENDBLK
  5
DAC
330
DAA
100
AcDbEntity
  8
0
100
AcDbBlockEnd
  0
BLOCK
  5
DC3
330
DC2
100
AcDbEntity
  8
0
100
AcDbBlockBegin
  2
*D34
 70
     1
 10
0.0
 20
0.0
 30
0.0
  3
*D34
  1

  0
LINE
  5
1314
330
DC2
100
AcDbEntity
  8
0
 62
     0
370
    -2
100
AcDbLine
 10
18375.18086458112
 20
18915.47396376223
 30
0.0
 11
17920.29556578726
 21
18915.47396376223
 31
0.0
  0
LINE
  5
1315
330
DC2
100
AcDbEntity
  8
0
 62
     0
370
    -2
100
AcDbLine
 10
18375.18086458112
 20
16415.47396376223
 30
0.0
 11
17920.29556578726
 21
16415.47396376223
 31
0.0
  0
LINE
  5
1316
330
DC2
100
AcDbEntity
  8
0
 62
     0
370
    -2
100
AcDbLine
 10
17995.29556578726
 20
18990.47396376223
 30
0.0
 11
17995.29556578726
 21
16340.47396376223
 31
0.0
  0
INSERT
  5
1317
330
DC2
100
AcDbEntity
  8
0
 62
     0
370
    -2
100
AcDbBlockReference
  2
_ArchTick
 10
17995.29556578726
 20
18915.47396376223
 30
0.0
 41
100.0
 42
100.0
 43
100.0
 50
90.0
  0
INSERT
  5
1318
330
DC2
100
AcDbEntity
  8
0
 62
     0
370
    -2
100
AcDbBlockReference
  2
_ArchTick
 10
17995.29556578726
 20
16415.47396376223
 30
0.0
 41
100.0
 42
100.0
 43
100.0
 50
270.0
  0
MTEXT
  5
1319
330
DC2
100
AcDbEntity
  8
0
 62
     0
100
AcDbMText
 10
17894.23826701509
 20
17665.47396376223
 30
0.0
 40
100.0
 41
0.0
 71
     5
 72
     1
  1
2500
 11
0.0000000000000001
 21
1.0
 31
0.0
 73
     1
 44
1.0
1001
ACAD
1000
MTEXTBEGIN
1070
    73
1070
     1
1070
    44
1040
1.0
1070
    74
1070
     0
1000
MTEXTEND
  0
POINT
  5
131A
330
DC2
100
AcDbEntity
  8
Defpoints
 62
     0
100
AcDbPoint
 10
18500.18086458112
 20
18915.47396376223
 30
0.0
  0
POINT
  5
131B
330
DC2
100
AcDbEntity
  8
Defpoints
 62
     0
100
AcDbPoint
 10
18500.18086458112
 20
16415.47396376223
 30
0.0
  0
POINT
  5
131C
330
DC2
100
AcDbEntity
  8
Defpoints
 62
     0
100
AcDbPoint
 10
17995.29556578726
 20
16415.47396376223
 30
0.0
  0
ENDBLK
  5
DC4
330
DC2
100
AcDbEntity
  8
0
100
AcDbBlockEnd
  0
BLOCK
  5
DE4
330
DE3
100
AcDbEntity
  8
0
100
AcDbBlockBegin
  2
*D35
 70
     1
 10
0.0
 20
0.0
 30
0.0
  3
*D35
  1

  0
LINE
  5
F1E
330
DE3
100
AcDbEntity
  8
0
 62
     0
370
    -2
100
AcDbLine
 10
18627.82345942226
 20
15168.74872352314
 30
0.0
 11
18559.8202218253
 21
15168.74872352314
 31
0.0
  0
LINE
  5
F1F
330
DE3
100
AcDbEntity
  8
0
 62
     0
370
    -2
100
AcDbLine
 10
18627.82345942226
 20
14868.74872352314
 30
0.0
 11
18559.8202218253
 21
14868.74872352314
 31
0.0
  0
LINE
  5
F20
330
DE3
100
AcDbEntity
  8
0
 62
     0
370
    -2
100
AcDbLine
 10
18634.8202218253
 20
15243.74872352314
 30
0.0
 11
18634.8202218253
 21
14868.74872352314
 31
0.0
  0
LINE
  5
F21
330
DE3
100
AcDbEntity
  8
0
 62
     0
370
    -2
100
AcDbLine
 10
18634.8202218253
 20
14868.74872352314
 30
0.0
 11
18634.8202218253
 21
14366.70233880281
 31
0.0
  0
INSERT
  5
F22
330
DE3
100
AcDbEntity
  8
0
 62
     0
370
    -2
100
AcDbBlockReference
  2
_ArchTick
 10
18634.8202218253
 20
15168.74872352314
 30
0.0
 41
100.0
 42
100.0
 43
100.0
 50
90.0
  0
INSERT
  5
F23
330
DE3
100
AcDbEntity
  8
0
 62
     0
370
    -2
100
AcDbBlockReference
  2
_ArchTick
 10
18634.8202218253
 20
14868.74872352314
 30
0.0
 41
100.0
 42
100.0
 43
100.0
 50
270.0
  0
MTEXT
  5
F24
330
DE3
100
AcDbEntity
  8
0
 62
     0
100
AcDbMText
 10
18533.72881664112
 20
14567.72553116297
 30
0.0
 40
100.0
 41
0.0
 71
     5
 72
     1
  1
~300
 11
0.0000000000000001
 21
1.0
 31
0.0
 73
     1
 44
1.0
1001
ACAD
1000
MTEXTBEGIN
1070
    73
1070
     1
1070
    44
1040
1.0
1070
    74
1070
     0
1000
MTEXTEND
  0
POINT
  5
F25
330
DE3
100
AcDbEntity
  8
Defpoints
 62
     0
100
AcDbPoint
 10
18752.82345942226
 20
15168.74872352314
 30
0.0
  0
POINT
  5
F26
330
DE3
100
AcDbEntity
  8
Defpoints
 62
     0
100
AcDbPoint
 10
18752.82345942226
 20
14868.74872352314
 30
0.0
  0
POINT
  5
F27
330
DE3
100
AcDbEntity
  8
Defpoints
 62
     0
100
AcDbPoint
 10
18634.8202218253
 20
14868.74872352314
 30
0.0
  0
ENDBLK
  5
DE5
330
DE3
100
AcDbEntity
  8
0
100
AcDbBlockEnd
  0
BLOCK
  5
DFC
330
DFB
100
AcDbEntity
  8
0
100
AcDbBlockBegin
  2
*D36
 70
     1
 10
0.0
 20
0.0
 30
0.0
  3
*D36
  1

  0
LINE
  5
F15
330
DFB
100
AcDbEntity
  8
0
 62
     0
370
    -2
100
AcDbLine
 10
18752.82345942226
 20
15293.74872352314
 30
0.0
 11
18752.82345942226
 21
15396.61047840264
 31
0.0
  0
LINE
  5
F16
330
DFB
100
AcDbEntity
  8
0
 62
     0
370
    -2
100
AcDbLine
 10
19252.82345942226
 20
15293.74872352314
 30
0.0
 11
19252.82345942226
 21
15396.61047840264
 31
0.0
  0
LINE
  5
F17
330
DFB
100
AcDbEntity
  8
0
 62
     0
370
    -2
100
AcDbLine
 10
18677.82345942226
 20
15321.61047840265
 30
0.0
 11
19327.82345942226
 21
15321.61047840265
 31
0.0
  0
INSERT
  5
F18
330
DFB
100
AcDbEntity
  8
0
 62
     0
370
    -2
100
AcDbBlockReference
  2
_ArchTick
 10
18752.82345942226
 20
15321.61047840265
 30
0.0
 41
100.0
 42
100.0
 43
100.0
 50
180.0
  0
INSERT
  5
F19
330
DFB
100
AcDbEntity
  8
0
 62
     0
370
    -2
100
AcDbBlockReference
  2
_ArchTick
 10
19252.82345942226
 20
15321.61047840265
 30
0.0
 41
100.0
 42
100.0
 43
100.0
  0
MTEXT
  5
F1A
330
DFB
100
AcDbEntity
  8
0
 62
     0
100
AcDbMText
 10
19002.82345942226
 20
15422.66777717482
 30
0.0
 40
100.0
 41
0.0
 71
     5
 72
     1
  1
~500
 73
     1
 44
1.0
1001
ACAD
1000
MTEXTBEGIN
1070
    73
1070
     1
1070
    44
1040
1.0
1070
    74
1070
     0
1000
MTEXTEND
  0
POINT
  5
F1B
330
DFB
100
AcDbEntity
  8
Defpoints
 62
     0
100
AcDbPoint
 10
18752.82345942226
 20
15168.74872352314
 30
0.0
  0
POINT
  5
F1C
330
DFB
100
AcDbEntity
  8
Defpoints
 62
     0
100
AcDbPoint
 10
19252.82345942226
 20
15168.74872352314
 30
0.0
  0
POINT
  5
F1D
330
DFB
100
AcDbEntity
  8
Defpoints
 62
     0
100
AcDbPoint
 10
19252.82345942226
 20
15321.61047840265
 30
0.0
  0
ENDBLK
  5
DFD
330
DFB
100
AcDbEntity
  8
0
100
AcDbBlockEnd
  0
BLOCK
  5
E27
330
E26
100
AcDbEntity
  8
0
100
AcDbBlockBegin
  2
*D37
 70
     1
 10
0.0
 20
0.0
 30
0.0
  3
*D37
  1

  0
LINE
  5
F86
330
E26
100
AcDbEntity
  8
0
 62
     0
370
    -2
100
AcDbLine
 10
20229.2823445722
 20
15168.74872352313
 30
0.0
 11
20161.27910697523
 21
15168.74872352313
 31
0.0
  0
LINE
  5
F87
330
E26
100
AcDbEntity
  8
0
 62
     0
370
    -2
100
AcDbLine
 10
20229.2823445722
 20
14868.74872352314
 30
0.0
 11
20161.27910697523
 21
14868.74872352314
 31
0.0
  0
LINE
  5
F88
330
E26
100
AcDbEntity
  8
0
 62
     0
370
    -2
100
AcDbLine
 10
20236.27910697523
 20
15243.74872352313
 30
0.0
 11
20236.27910697523
 21
14868.74872352314
 31
0.0
  0
LINE
  5
F89
330
E26
100
AcDbEntity
  8
0
 62
     0
370
    -2
100
AcDbLine
 10
20236.27910697523
 20
14868.74872352314
 30
0.0
 11
20236.27910697523
 21
14366.7023388028
 31
0.0
  0
INSERT
  5
F8A
330
E26
100
AcDbEntity
  8
0
 62
     0
370
    -2
100
AcDbBlockReference
  2
_ArchTick
 10
20236.27910697523
 20
15168.74872352313
 30
0.0
 41
100.0
 42
100.0
 43
100.0
 50
90.0
  0
INSERT
  5
F8B
330
E26
100
AcDbEntity
  8
0
 62
     0
370
    -2
100
AcDbBlockReference
  2
_ArchTick
 10
20236.27910697523
 20
14868.74872352314
 30
0.0
 41
100.0
 42
100.0
 43
100.0
 50
270.0
  0
MTEXT
  5
F8C
330
E26
100
AcDbEntity
  8
0
 62
     0
100
AcDbMText
 10
20135.18770179105
 20
14567.72553116297
 30
0.0
 40
100.0
 41
0.0
 71
     5
 72
     1
  1
~300
 11
0.0000000000000001
 21
1.0
 31
0.0
 73
     1
 44
1.0
1001
ACAD
1000
MTEXTBEGIN
1070
    73
1070
     1
1070
    44
1040
1.0
1070
    74
1070
     0
1000
MTEXTEND
  0
POINT
  5
F8D
330
E26
100
AcDbEntity
  8
Defpoints
 62
     0
100
AcDbPoint
 10
20354.28234457219
 20
15168.74872352313
 30
0.0
  0
POINT
  5
F8E
330
E26
100
AcDbEntity
  8
Defpoints
 62
     0
100
AcDbPoint
 10
20354.28234457219
 20
14868.74872352314
 30
0.0
  0
POINT
  5
F8F
330
E26
100
AcDbEntity
  8
Defpoints
 62
     0
100
AcDbPoint
 10
20236.27910697523
 20
14868.74872352314
 30
0.0
  0
ENDBLK
  5
E28
330
E26
100
AcDbEntity
  8
0
100
AcDbBlockEnd
  0
BLOCK
  5
E33
330
E32
100
AcDbEntity
  8
0
100
AcDbBlockBegin
  2
*D38
 70
     1
 10
0.0
 20
0.0
 30
0.0
  3
*D38
  1

  0
LINE
  5
F90
330
E32
100
AcDbEntity
  8
0
 62
     0
370
    -2
100
AcDbLine
 10
20354.28234457219
 20
15293.74872352313
 30
0.0
 11
20354.28234457219
 21
15396.61047840264
 31
0.0
  0
LINE
  5
F91
330
E32
100
AcDbEntity
  8
0
 62
     0
370
    -2
100
AcDbLine
 10
20854.2823445722
 20
15293.74872352314
 30
0.0
 11
20854.2823445722
 21
15396.61047840264
 31
0.0
  0
LINE
  5
F92
330
E32
100
AcDbEntity
  8
0
 62
     0
370
    -2
100
AcDbLine
 10
20279.2823445722
 20
15321.61047840265
 30
0.0
 11
20929.28234457219
 21
15321.61047840265
 31
0.0
  0
INSERT
  5
F93
330
E32
100
AcDbEntity
  8
0
 62
     0
370
    -2
100
AcDbBlockReference
  2
_ArchTick
 10
20354.28234457219
 20
15321.61047840265
 30
0.0
 41
100.0
 42
100.0
 43
100.0
 50
180.0
  0
INSERT
  5
F94
330
E32
100
AcDbEntity
  8
0
 62
     0
370
    -2
100
AcDbBlockReference
  2
_ArchTick
 10
20854.2823445722
 20
15321.61047840265
 30
0.0
 41
100.0
 42
100.0
 43
100.0
  0
MTEXT
  5
F95
330
E32
100
AcDbEntity
  8
0
 62
     0
100
AcDbMText
 10
20604.2823445722
 20
15422.66777717482
 30
0.0
 40
100.0
 41
0.0
 71
     5
 72
     1
  1
~500
 73
     1
 44
1.0
1001
ACAD
1000
MTEXTBEGIN
1070
    73
1070
     1
1070
    44
1040
1.0
1070
    74
1070
     0
1000
MTEXTEND
  0
POINT
  5
F96
330
E32
100
AcDbEntity
  8
Defpoints
 62
     0
100
AcDbPoint
 10
20354.28234457219
 20
15168.74872352313
 30
0.0
  0
POINT
  5
F97
330
E32
100
AcDbEntity
  8
Defpoints
 62
     0
100
AcDbPoint
 10
20854.2823445722
 20
15168.74872352314
 30
0.0
  0
POINT
  5
F98
330
E32
100
AcDbEntity
  8
Defpoints
 62
     0
100
AcDbPoint
 10
20854.2823445722
 20
15321.61047840265
 30
0.0
  0
ENDBLK
  5
E34
330
E32
100
AcDbEntity
  8
0
100
AcDbBlockEnd
  0
BLOCK
  5
E64
330
E63
100
AcDbEntity
  8
0
100
AcDbBlockBegin
  2
*D39
 70
     1
 10
0.0
 20
0.0
 30
0.0
  3
*D39
  1

  0
LINE
  5
FC8
330
E63
100
AcDbEntity
  8
0
 62
     0
370
    -2
100
AcDbLine
 10
22064.97386711057
 20
15294.37372352314
 30
0.0
 11
22064.97386711057
 21
15396.19381173598
 31
0.0
  0
LINE
  5
FC9
330
E63
100
AcDbEntity
  8
0
 62
     0
370
    -2
100
AcDbLine
 10
22267.50582742639
 20
15294.37372352314
 30
0.0
 11
22267.50582742639
 21
15396.19381173598
 31
0.0
  0
LINE
  5
FCA
330
E63
100
AcDbEntity
  8
0
 62
     0
370
    -2
100
AcDbLine
 10
21989.97386711057
 20
15321.19381173598
 30
0.0
 11
22267.50582742639
 21
15321.19381173598
 31
0.0
  0
LINE
  5
FCB
330
E63
100
AcDbEntity
  8
0
 62
     0
370
    -2
100
AcDbLine
 10
22267.50582742639
 20
15321.19381173598
 30
0.0
 11
22767.84689154643
 21
15321.19381173598
 31
0.0
  0
INSERT
  5
FCC
330
E63
100
AcDbEntity
  8
0
 62
     0
370
    -2
100
AcDbBlockReference
  2
_ArchTick
 10
22064.97386711057
 20
15321.19381173598
 30
0.0
 41
100.0
 42
100.0
 43
100.0
 50
180.0
  0
INSERT
  5
FCD
330
E63
100
AcDbEntity
  8
0
 62
     0
370
    -2
100
AcDbBlockReference
  2
_ArchTick
 10
22267.50582742639
 20
15321.19381173598
 30
0.0
 41
100.0
 42
100.0
 43
100.0
  0
MTEXT
  5
FCE
330
E63
100
AcDbEntity
  8
0
 62
     0
100
AcDbMText
 10
22567.67635948641
 20
15422.28521692016
 30
0.0
 40
100.0
 41
0.0
 71
     5
 72
     1
  1
<300
 73
     1
 44
1.0
1001
ACAD
1000
MTEXTBEGIN
1070
    73
1070
     1
1070
    44
1040
1.0
1070
    74
1070
     0
1000
MTEXTEND
  0
POINT
  5
FCF
330
E63
100
AcDbEntity
  8
Defpoints
 62
     0
100
AcDbPoint
 10
22064.97386711057
 20
15169.37372352314
 30
0.0
  0
POINT
  5
FD0
330
E63
100
AcDbEntity
  8
Defpoints
 62
     0
100
AcDbPoint
 10
22267.50582742639
 20
15169.37372352314
 30
0.0
  0
POINT
  5
FD1
330
E63
100
AcDbEntity
  8
Defpoints
 62
     0
100
AcDbPoint
 10
22267.50582742639
 20
15321.19381173598
 30
0.0
  0
ENDBLK
  5
E65
330
E63
100
AcDbEntity
  8
0
100
AcDbBlockEnd
  0
BLOCK
  5
E71
330
E70
100
AcDbEntity
  8
0
100
AcDbBlockBegin
  2
*D40
 70
     1
 10
0.0
 20
0.0
 30
0.0
  3
*D40
  1

  0
LINE
  5
F28
330
E70
100
AcDbEntity
  8
0
 62
     0
370
    -2
100
AcDbLine
 10
19815.27513530699
 20
14543.77939505373
 30
0.0
 11
19943.82094007762
 21
14543.77939505373
 31
0.0
  0
LINE
  5
F29
330
E70
100
AcDbEntity
  8
0
 62
     0
370
    -2
100
AcDbLine
 10
19815.27513530699
 20
14034.18406682594
 30
0.0
 11
19943.82094007762
 21
14034.18406682594
 31
0.0
  0
LINE
  5
F2A
330
E70
100
AcDbEntity
  8
0
 62
     0
370
    -2
100
AcDbLine
 10
19868.82094007762
 20
14618.77939505373
 30
0.0
 11
19868.82094007762
 21
13959.18406682594
 31
0.0
  0
INSERT
  5
F2B
330
E70
100
AcDbEntity
  8
0
 62
     0
370
    -2
100
AcDbBlockReference
  2
_ArchTick
 10
19868.82094007762
 20
14543.77939505373
 30
0.0
 41
100.0
 42
100.0
 43
100.0
 50
90.0
  0
INSERT
  5
F2C
330
E70
100
AcDbEntity
  8
0
 62
     0
370
    -2
100
AcDbBlockReference
  2
_ArchTick
 10
19868.82094007762
 20
14034.18406682594
 30
0.0
 41
100.0
 42
100.0
 43
100.0
 50
270.0
  0
MTEXT
  5
F2D
330
E70
100
AcDbEntity
  8
0
 62
     0
100
AcDbMText
 10
19767.76364130545
 20
14288.98173093983
 30
0.0
 40
100.0
 41
0.0
 71
     5
 72
     1
  1
<500
 11
0.0000000000000001
 21
1.0
 31
0.0
 73
     1
 44
1.0
1001
ACAD
1000
MTEXTBEGIN
1070
    73
1070
     1
1070
    44
1040
1.0
1070
    74
1070
     0
1000
MTEXTEND
  0
POINT
  5
F2E
330
E70
100
AcDbEntity
  8
Defpoints
 62
     0
100
AcDbPoint
 10
19690.27513530699
 20
14543.77939505373
 30
0.0
  0
POINT
  5
F2F
330
E70
100
AcDbEntity
  8
Defpoints
 62
     0
100
AcDbPoint
 10
19690.27513530699
 20
14034.18406682594
 30
0.0
  0
POINT
  5
F30
330
E70
100
AcDbEntity
  8
Defpoints
 62
     0
100
AcDbPoint
 10
19868.82094007762
 20
14034.18406682594
 30
0.0
  0
ENDBLK
  5
E72
330
E70
100
AcDbEntity
  8
0
100
AcDbBlockEnd
  0
BLOCK
  5
E89
330
E88
100
AcDbEntity
  8
0
100
AcDbBlockBegin
  2
*D41
 70
     1
 10
0.0
 20
0.0
 30
0.0
  3
*D41
  1

  0
LINE
  5
FA3
330
E88
100
AcDbEntity
  8
0
 62
     0
370
    -2
100
AcDbLine
 10
21425.63106639773
 20
14543.77939505373
 30
0.0
 11
21644.78087135157
 21
14543.77939505373
 31
0.0
  0
LINE
  5
FA4
330
E88
100
AcDbEntity
  8
0
 62
     0
370
    -2
100
AcDbLine
 10
21425.63106639773
 20
14043.77939505373
 30
0.0
 11
21644.78087135157
 21
14043.77939505373
 31
0.0
  0
LINE
  5
FA5
330
E88
100
AcDbEntity
  8
0
 62
     0
370
    -2
100
AcDbLine
 10
21569.78087135157
 20
14618.77939505373
 30
0.0
 11
21569.78087135157
 21
13968.77939505373
 31
0.0
  0
INSERT
  5
FA6
330
E88
100
AcDbEntity
  8
0
 62
     0
370
    -2
100
AcDbBlockReference
  2
_ArchTick
 10
21569.78087135157
 20
14543.77939505373
 30
0.0
 41
100.0
 42
100.0
 43
100.0
 50
90.0
  0
INSERT
  5
FA7
330
E88
100
AcDbEntity
  8
0
 62
     0
370
    -2
100
AcDbBlockReference
  2
_ArchTick
 10
21569.78087135157
 20
14043.77939505373
 30
0.0
 41
100.0
 42
100.0
 43
100.0
 50
270.0
  0
MTEXT
  5
FA8
330
E88
100
AcDbEntity
  8
0
 62
     0
100
AcDbMText
 10
21468.7235725794
 20
14293.77939505373
 30
0.0
 40
100.0
 41
0.0
 71
     5
 72
     1
  1
<500
 11
0.0000000000000001
 21
1.0
 31
0.0
 73
     1
 44
1.0
1001
ACAD
1000
MTEXTBEGIN
1070
    73
1070
     1
1070
    44
1040
1.0
1070
    74
1070
     0
1000
MTEXTEND
  0
POINT
  5
FA9
330
E88
100
AcDbEntity
  8
Defpoints
 62
     0
100
AcDbPoint
 10
21300.63106639772
 20
14543.77939505373
 30
0.0
  0
POINT
  5
FAA
330
E88
100
AcDbEntity
  8
Defpoints
 62
     0
100
AcDbPoint
 10
21300.63106639772
 20
14043.77939505373
 30
0.0
  0
POINT
  5
FAB
330
E88
100
AcDbEntity
  8
Defpoints
 62
     0
100
AcDbPoint
 10
21569.78087135157
 20
14043.77939505373
 30
0.0
  0
ENDBLK
  5
E8A
330
E88
100
AcDbEntity
  8
0
100
AcDbBlockEnd
  0
BLOCK
  5
EA1
330
EA0
100
AcDbEntity
  8
0
100
AcDbBlockBegin
  2
*D42
 70
     1
 10
0.0
 20
0.0
 30
0.0
  3
*D42
  1

  0
LINE
  5
FBF
330
EA0
100
AcDbEntity
  8
0
 62
     0
370
    -2
100
AcDbLine
 10
22724.68422514892
 20
14446.23366304302
 30
0.0
 11
23038.40787603246
 21
14446.23366304302
 31
0.0
  0
LINE
  5
FC0
330
EA0
100
AcDbEntity
  8
0
 62
     0
370
    -2
100
AcDbLine
 10
22724.68422514892
 20
14043.77939505373
 30
0.0
 11
23038.40787603246
 21
14043.77939505373
 31
0.0
  0
LINE
  5
FC1
330
EA0
100
AcDbEntity
  8
0
 62
     0
370
    -2
100
AcDbLine
 10
22963.40787603246
 20
14521.23366304302
 30
0.0
 11
22963.40787603246
 21
13968.77939505373
 31
0.0
  0
INSERT
  5
FC2
330
EA0
100
AcDbEntity
  8
0
 62
     0
370
    -2
100
AcDbBlockReference
  2
_ArchTick
 10
22963.40787603246
 20
14446.23366304302
 30
0.0
 41
100.0
 42
100.0
 43
100.0
 50
90.0
  0
INSERT
  5
FC3
330
EA0
100
AcDbEntity
  8
0
 62
     0
370
    -2
100
AcDbBlockReference
  2
_ArchTick
 10
22963.40787603246
 20
14043.77939505373
 30
0.0
 41
100.0
 42
100.0
 43
100.0
 50
270.0
  0
MTEXT
  5
FC4
330
EA0
100
AcDbEntity
  8
0
 62
     0
100
AcDbMText
 10
22862.35057726029
 20
14245.00652904838
 30
0.0
 40
100.0
 41
0.0
 71
     5
 72
     1
  1
<500
 11
0.0000000000000001
 21
1.0
 31
0.0
 73
     1
 44
1.0
1001
ACAD
1000
MTEXTBEGIN
1070
    73
1070
     1
1070
    44
1040
1.0
1070
    74
1070
     0
1000
MTEXTEND
  0
POINT
  5
FC5
330
EA0
100
AcDbEntity
  8
Defpoints
 62
     0
100
AcDbPoint
 10
22599.68422514892
 20
14446.23366304302
 30
0.0
  0
POINT
  5
FC6
330
EA0
100
AcDbEntity
  8
Defpoints
 62
     0
100
AcDbPoint
 10
22599.68422514892
 20
14043.77939505373
 30
0.0
  0
POINT
  5
FC7
330
EA0
100
AcDbEntity
  8
Defpoints
 62
     0
100
AcDbPoint
 10
22963.40787603246
 20
14043.77939505373
 30
0.0
  0
ENDBLK
  5
EA2
330
EA0
100
AcDbEntity
  8
0
100
AcDbBlockEnd
  0
BLOCK
  5
1057
330
1056
100
AcDbEntity
  8
0
100
AcDbBlockBegin
  2
*D43
 70
     1
 10
0.0
 20
0.0
 30
0.0
  3
*D43
  1

  0
LINE
  5
12DF
330
1056
100
AcDbEntity
  8
0
 62
     0
370
    -2
100
AcDbLine
 10
26764.73039200492
 20
13193.5500004576
 30
0.0
 11
26454.90971736345
 21
13193.5500004576
 31
0.0
  0
LINE
  5
12E0
330
1056
100
AcDbEntity
  8
0
 62
     0
370
    -2
100
AcDbLine
 10
26764.73039200492
 20
14143.5500004576
 30
0.0
 11
26454.90971736345
 21
14143.5500004576
 31
0.0
  0
LINE
  5
12E1
330
1056
100
AcDbEntity
  8
0
 62
     0
370
    -2
100
AcDbLine
 10
26529.90971736345
 20
13118.5500004576
 30
0.0
 11
26529.90971736345
 21
14218.5500004576
 31
0.0
  0
INSERT
  5
12E2
330
1056
100
AcDbEntity
  8
0
 62
     0
370
    -2
100
AcDbBlockReference
  2
_ArchTick
 10
26529.90971736345
 20
13193.5500004576
 30
0.0
 41
100.0
 42
100.0
 43
100.0
 50
270.0
  0
INSERT
  5
12E3
330
1056
100
AcDbEntity
  8
0
 62
     0
370
    -2
100
AcDbBlockReference
  2
_ArchTick
 10
26529.90971736345
 20
14143.5500004576
 30
0.0
 41
100.0
 42
100.0
 43
100.0
 50
90.0
  0
MTEXT
  5
12E4
330
1056
100
AcDbEntity
  8
0
 62
     0
100
AcDbMText
 10
26428.85241859128
 20
13668.55000045761
 30
0.0
 40
100.0
 41
0.0
 71
     5
 72
     1
  1
<950
 11
0.0000000000000001
 21
1.0
 31
0.0
 73
     1
 44
1.0
1001
ACAD
1000
MTEXTBEGIN
1070
    73
1070
     1
1070
    44
1040
1.0
1070
    74
1070
     0
1000
MTEXTEND
  0
POINT
  5
12E5
330
1056
100
AcDbEntity
  8
Defpoints
 62
     0
100
AcDbPoint
 10
26889.73039200492
 20
13193.5500004576
 30
0.0
  0
POINT
  5
12E6
330
1056
100
AcDbEntity
  8
Defpoints
 62
     0
100
AcDbPoint
 10
26889.73039200492
 20
14143.5500004576
 30
0.0
  0
POINT
  5
12E7
330
1056
100
AcDbEntity
  8
Defpoints
 62
     0
100
AcDbPoint
 10
26529.90971736345
 20
14143.5500004576
 30
0.0
  0
ENDBLK
  5
1058
330
1056
100
AcDbEntity
  8
0
100
AcDbBlockEnd
  0
BLOCK
  5
106F
330
106E
100
AcDbEntity
  8
0
100
AcDbBlockBegin
  2
*D44
 70
     1
 10
0.0
 20
0.0
 30
0.0
  3
*D44
  1

  0
LINE
  5
12CD
330
106E
100
AcDbEntity
  8
0
 62
     0
370
    -2
100
AcDbLine
 10
26764.73039200492
 20
15123.81155896555
 30
0.0
 11
26454.90971736345
 21
15123.81155896555
 31
0.0
  0
LINE
  5
12CE
330
106E
100
AcDbEntity
  8
0
 62
     0
370
    -2
100
AcDbLine
 10
26764.73039200492
 20
20123.81155896555
 30
0.0
 11
26454.90971736345
 21
20123.81155896555
 31
0.0
  0
LINE
  5
12CF
330
106E
100
AcDbEntity
  8
0
 62
     0
370
    -2
100
AcDbLine
 10
26529.90971736345
 20
15048.81155896555
 30
0.0
 11
26529.90971736345
 21
20198.81155896555
 31
0.0
  0
INSERT
  5
12D0
330
106E
100
AcDbEntity
  8
0
 62
     0
370
    -2
100
AcDbBlockReference
  2
_ArchTick
 10
26529.90971736345
 20
15123.81155896555
 30
0.0
 41
100.0
 42
100.0
 43
100.0
 50
270.0
  0
INSERT
  5
12D1
330
106E
100
AcDbEntity
  8
0
 62
     0
370
    -2
100
AcDbBlockReference
  2
_ArchTick
 10
26529.90971736345
 20
20123.81155896555
 30
0.0
 41
100.0
 42
100.0
 43
100.0
 50
90.0
  0
MTEXT
  5
12D2
330
106E
100
AcDbEntity
  8
0
 62
     0
100
AcDbMText
 10
26428.85241859128
 20
17623.81155896556
 30
0.0
 40
100.0
 41
0.0
 71
     5
 72
     1
  1
~5000
 11
0.0000000000000001
 21
1.0
 31
0.0
 73
     1
 44
1.0
1001
ACAD
1000
MTEXTBEGIN
1070
    73
1070
     1
1070
    44
1040
1.0
1070
    74
1070
     0
1000
MTEXTEND
  0
POINT
  5
12D3
330
106E
100
AcDbEntity
  8
Defpoints
 62
     0
100
AcDbPoint
 10
26889.73039200492
 20
15123.81155896555
 30
0.0
  0
POINT
  5
12D4
330
106E
100
AcDbEntity
  8
Defpoints
 62
     0
100
AcDbPoint
 10
26889.73039200492
 20
20123.81155896555
 30
0.0
  0
POINT
  5
12D5
330
106E
100
AcDbEntity
  8
Defpoints
 62
     0
100
AcDbPoint
 10
26529.90971736345
 20
20123.81155896555
 30
0.0
  0
ENDBLK
  5
1070
330
106E
100
AcDbEntity
  8
0
100
AcDbBlockEnd
  0
BLOCK
  5
1087
330
1086
100
AcDbEntity
  8
0
100
AcDbBlockBegin
  2
*D45
 70
     1
 10
0.0
 20
0.0
 30
0.0
  3
*D45
  1

  0
LINE
  5
12C4
330
1086
100
AcDbEntity
  8
0
 62
     0
370
    -2
100
AcDbLine
 10
31889.73039200492
 20
20245.99084643368
 30
0.0
 11
31889.73039200492
 21
20590.71133158199
 31
0.0
  0
LINE
  5
12C5
330
1086
100
AcDbEntity
  8
0
 62
     0
370
    -2
100
AcDbLine
 10
26889.73039200492
 20
20245.99084643368
 30
0.0
 11
26889.73039200492
 21
20590.71133158199
 31
0.0
  0
LINE
  5
12C6
330
1086
100
AcDbEntity
  8
0
 62
     0
370
    -2
100
AcDbLine
 10
31964.73039200492
 20
20515.71133158199
 30
0.0
 11
26814.73039200492
 21
20515.71133158199
 31
0.0
  0
INSERT
  5
12C7
330
1086
100
AcDbEntity
  8
0
 62
     0
370
    -2
100
AcDbBlockReference
  2
_ArchTick
 10
31889.73039200492
 20
20515.71133158199
 30
0.0
 41
100.0
 42
100.0
 43
100.0
  0
INSERT
  5
12C8
330
1086
100
AcDbEntity
  8
0
 62
     0
370
    -2
100
AcDbBlockReference
  2
_ArchTick
 10
26889.73039200492
 20
20515.71133158199
 30
0.0
 41
100.0
 42
100.0
 43
100.0
 50
180.0
  0
MTEXT
  5
12C9
330
1086
100
AcDbEntity
  8
0
 62
     0
100
AcDbMText
 10
29389.73039200492
 20
20616.76863035416
 30
0.0
 40
100.0
 41
0.0
 71
     5
 72
     1
  1
~5000
 73
     1
 44
1.0
1001
ACAD
1000
MTEXTBEGIN
1070
    73
1070
     1
1070
    44
1040
1.0
1070
    74
1070
     0
1000
MTEXTEND
  0
POINT
  5
12CA
330
1086
100
AcDbEntity
  8
Defpoints
 62
     0
100
AcDbPoint
 10
31889.73039200492
 20
20120.99084643368
 30
0.0
  0
POINT
  5
12CB
330
1086
100
AcDbEntity
  8
Defpoints
 62
     0
100
AcDbPoint
 10
26889.73039200492
 20
20120.99084643368
 30
0.0
  0
POINT
  5
12CC
330
1086
100
AcDbEntity
  8
Defpoints
 62
     0
100
AcDbPoint
 10
26889.73039200492
 20
20515.71133158199
 30
0.0
  0
ENDBLK
  5
1088
330
1086
100
AcDbEntity
  8
0
100
AcDbBlockEnd
  0
BLOCK
  5
10F9
330
10F8
100
AcDbEntity
  8
0
100
AcDbBlockBegin
  2
*D46
 70
     1
 10
0.0
 20
0.0
 30
0.0
  3
*D46
  1

  0
LINE
  5
1165
330
10F8
100
AcDbEntity
  8
0
 62
     0
370
    -2
100
AcDbLine
 10
32011.07293041089
 20
15441.60201534248
 30
0.0
 11
32391.42911074392
 21
15441.60201534248
 31
0.0
  0
LINE
  5
1166
330
10F8
100
AcDbEntity
  8
0
 62
     0
370
    -2
100
AcDbLine
 10
32011.07293041089
 20
16941.60201534247
 30
0.0
 11
32391.42911074392
 21
16941.60201534247
 31
0.0
  0
LINE
  5
1167
330
10F8
100
AcDbEntity
  8
0
 62
     0
370
    -2
100
AcDbLine
 10
32316.42911074392
 20
15366.60201534248
 30
0.0
 11
32316.42911074392
 21
17016.60201534247
 31
0.0
  0
INSERT
  5
1168
330
10F8
100
AcDbEntity
  8
0
 62
     0
370
    -2
100
AcDbBlockReference
  2
_ArchTick
 10
32316.42911074392
 20
15441.60201534248
 30
0.0
 41
100.0
 42
100.0
 43
100.0
 50
270.0
  0
INSERT
  5
1169
330
10F8
100
AcDbEntity
  8
0
 62
     0
370
    -2
100
AcDbBlockReference
  2
_ArchTick
 10
32316.42911074392
 20
16941.60201534247
 30
0.0
 41
100.0
 42
100.0
 43
100.0
 50
90.0
  0
MTEXT
  5
116A
330
10F8
100
AcDbEntity
  8
0
 62
     0
100
AcDbMText
 10
32215.37181197175
 20
16191.60201534248
 30
0.0
 40
100.0
 41
0.0
 71
     5
 72
     1
  1
1500
 11
0.0000000000000001
 21
1.0
 31
0.0
 73
     1
 44
1.0
1001
ACAD
1000
MTEXTBEGIN
1070
    73
1070
     1
1070
    44
1040
1.0
1070
    74
1070
     0
1000
MTEXTEND
  0
POINT
  5
116B
330
10F8
100
AcDbEntity
  8
Defpoints
 62
     0
100
AcDbPoint
 10
31886.07293041089
 20
15441.60201534248
 30
0.0
  0
POINT
  5
116C
330
10F8
100
AcDbEntity
  8
Defpoints
 62
     0
100
AcDbPoint
 10
31886.07293041089
 20
16941.60201534247
 30
0.0
  0
POINT
  5
116D
330
10F8
100
AcDbEntity
  8
Defpoints
 62
     0
100
AcDbPoint
 10
32316.42911074392
 20
16941.60201534247
 30
0.0
  0
ENDBLK
  5
10FA
330
10F8
100
AcDbEntity
  8
0
100
AcDbBlockEnd
  0
BLOCK
  5
1106
330
1105
100
AcDbEntity
  8
0
100
AcDbBlockBegin
  2
*D47
 70
     1
 10
0.0
 20
0.0
 30
0.0
  3
*D47
  1

  0
LINE
  5
116E
330
1105
100
AcDbEntity
  8
0
 62
     0
370
    -2
100
AcDbLine
 10
31889.73039200492
 20
15016.60201534248
 30
0.0
 11
31889.73039200492
 21
14690.97502724841
 31
0.0
  0
LINE
  5
116F
330
1105
100
AcDbEntity
  8
0
 62
     0
370
    -2
100
AcDbLine
 10
30889.73039200492
 20
15016.60201534248
 30
0.0
 11
30889.73039200492
 21
14690.97502724841
 31
0.0
  0
LINE
  5
1170
330
1105
100
AcDbEntity
  8
0
 62
     0
370
    -2
100
AcDbLine
 10
31964.73039200492
 20
14765.97502724841
 30
0.0
 11
30814.73039200492
 21
14765.97502724841
 31
0.0
  0
INSERT
  5
1171
330
1105
100
AcDbEntity
  8
0
 62
     0
370
    -2
100
AcDbBlockReference
  2
_ArchTick
 10
31889.73039200492
 20
14765.97502724841
 30
0.0
 41
100.0
 42
100.0
 43
100.0
  0
INSERT
  5
1172
330
1105
100
AcDbEntity
  8
0
 62
     0
370
    -2
100
AcDbBlockReference
  2
_ArchTick
 10
30889.73039200492
 20
14765.97502724841
 30
0.0
 41
100.0
 42
100.0
 43
100.0
 50
180.0
  0
MTEXT
  5
1173
330
1105
100
AcDbEntity
  8
0
 62
     0
100
AcDbMText
 10
31389.73039200492
 20
14867.03232602058
 30
0.0
 40
100.0
 41
0.0
 71
     5
 72
     1
  1
1000
 73
     1
 44
1.0
1001
ACAD
1000
MTEXTBEGIN
1070
    73
1070
     1
1070
    44
1040
1.0
1070
    74
1070
     0
1000
MTEXTEND
  0
POINT
  5
1174
330
1105
100
AcDbEntity
  8
Defpoints
 62
     0
100
AcDbPoint
 10
31889.73039200492
 20
15141.60201534248
 30
0.0
  0
POINT
  5
1175
330
1105
100
AcDbEntity
  8
Defpoints
 62
     0
100
AcDbPoint
 10
30889.73039200492
 20
15141.60201534248
 30
0.0
  0
POINT
  5
1176
330
1105
100
AcDbEntity
  8
Defpoints
 62
     0
100
AcDbPoint
 10
30889.73039200492
 20
14765.97502724841
 30
0.0
  0
ENDBLK
  5
1107
330
1105
100
AcDbEntity
  8
0
100
AcDbBlockEnd
  0
BLOCK
  5
11BA
330
11B9
100
AcDbEntity
  8
0
100
AcDbBlockBegin
  2
*D48
 70
     1
 10
0.0
 20
0.0
 30
0.0
  3
*D48
  1

  0
LINE
  5
12A9
330
11B9
100
AcDbEntity
  8
0
 62
     0
370
    -2
100
AcDbLine
 10
38444.64751932081
 20
7082.842979976104
 30
0.0
 11
38444.64751932081
 21
6490.573762677946
 31
0.0
  0
LINE
  5
12AA
330
11B9
100
AcDbEntity
  8
0
 62
     0
370
    -2
100
AcDbLine
 10
34944.64751932082
 20
7082.842979976106
 30
0.0
 11
34944.64751932082
 21
6490.573762677946
 31
0.0
  0
LINE
  5
12AB
330
11B9
100
AcDbEntity
  8
0
 62
     0
370
    -2
100
AcDbLine
 10
38519.64751932081
 20
6565.573762677946
 30
0.0
 11
34869.64751932082
 21
6565.573762677946
 31
0.0
  0
INSERT
  5
12AC
330
11B9
100
AcDbEntity
  8
0
 62
     0
370
    -2
100
AcDbBlockReference
  2
_ArchTick
 10
38444.64751932081
 20
6565.573762677946
 30
0.0
 41
100.0
 42
100.0
 43
100.0
  0
INSERT
  5
12AD
330
11B9
100
AcDbEntity
  8
0
 62
     0
370
    -2
100
AcDbBlockReference
  2
_ArchTick
 10
34944.64751932082
 20
6565.573762677946
 30
0.0
 41
100.0
 42
100.0
 43
100.0
 50
180.0
  0
MTEXT
  5
12AE
330
11B9
100
AcDbEntity
  8
0
 62
     0
100
AcDbMText
 10
36694.64751932082
 20
6666.66516786212
 30
0.0
 40
100.0
 41
0.0
 71
     5
 72
     1
  1
3500
 73
     1
 44
1.0
1001
ACAD
1000
MTEXTBEGIN
1070
    73
1070
     1
1070
    44
1040
1.0
1070
    74
1070
     0
1000
MTEXTEND
  0
POINT
  5
12AF
330
11B9
100
AcDbEntity
  8
Defpoints
 62
     0
100
AcDbPoint
 10
38444.64751932081
 20
7207.842979976104
 30
0.0
  0
POINT
  5
12B0
330
11B9
100
AcDbEntity
  8
Defpoints
 62
     0
100
AcDbPoint
 10
34944.64751932082
 20
7207.842979976106
 30
0.0
  0
POINT
  5
12B1
330
11B9
100
AcDbEntity
  8
Defpoints
 62
     0
100
AcDbPoint
 10
34944.64751932082
 20
6565.573762677946
 30
0.0
  0
ENDBLK
  5
11BB
330
11B9
100
AcDbEntity
  8
0
100
AcDbBlockEnd
  0
BLOCK
  5
124F
330
124E
100
AcDbEntity
  8
0
100
AcDbBlockBegin
  2
*D49
 70
     1
 10
0.0
 20
0.0
 30
0.0
  3
*D49
  1

  0
LINE
  5
12B2
330
124E
100
AcDbEntity
  8
0
 62
     0
370
    -2
100
AcDbLine
 10
34819.64751932082
 20
11022.10170675188
 30
0.0
 11
34081.19872461153
 21
11022.10170675188
 31
0.0
  0
LINE
  5
12B3
330
124E
100
AcDbEntity
  8
0
 62
     0
370
    -2
100
AcDbLine
 10
34819.64751932082
 20
7693.403899718858
 30
0.0
 11
34081.19872461153
 21
7693.403899718859
 31
0.0
  0
LINE
  5
12B4
330
124E
100
AcDbEntity
  8
0
 62
     0
370
    -2
100
AcDbLine
 10
34156.19872461153
 20
11097.10170675188
 30
0.0
 11
34156.19872461153
 21
7618.403899718861
 31
0.0
  0
INSERT
  5
12B5
330
124E
100
AcDbEntity
  8
0
 62
     0
370
    -2
100
AcDbBlockReference
  2
_ArchTick
 10
34156.19872461153
 20
11022.10170675188
 30
0.0
 41
100.0
 42
100.0
 43
100.0
 50
90.0
  0
INSERT
  5
12B6
330
124E
100
AcDbEntity
  8
0
 62
     0
370
    -2
100
AcDbBlockReference
  2
_ArchTick
 10
34156.19872461153
 20
7693.403899718859
 30
0.0
 41
100.0
 42
100.0
 43
100.0
 50
270.0
  0
MTEXT
  5
12B7
330
124E
100
AcDbEntity
  8
0
 62
     0
100
AcDbMText
 10
34046.10322665791
 20
9357.752803235376
 30
0.0
 40
100.0
 41
0.0
 71
     5
 72
     1
  1
3328,7
 11
0.0000000000000001
 21
1.0
 31
0.0
 73
     1
 44
1.0
1001
ACAD
1000
MTEXTBEGIN
1070
    73
1070
     1
1070
    44
1040
1.0
1070
    74
1070
     0
1000
MTEXTEND
  0
POINT
  5
12B8
330
124E
100
AcDbEntity
  8
Defpoints
 62
     0
100
AcDbPoint
 10
34944.64751932082
 20
11022.10170675188
 30
0.0
  0
POINT
  5
12B9
330
124E
100
AcDbEntity
  8
Defpoints
 62
     0
100
AcDbPoint
 10
34944.64751932082
 20
7693.403899718858
 30
0.0
  0
POINT
  5
12BA
330
124E
100
AcDbEntity
  8
Defpoints
 62
     0
100
AcDbPoint
 10
34156.19872461153
 20
7693.403899718859
 30
0.0
  0
ENDBLK
  5
1250
330
124E
100
AcDbEntity
  8
0
100
AcDbBlockEnd
  0
BLOCK
  5
128B
330
128A
100
AcDbEntity
  8
0
100
AcDbBlockBegin
  2
*D50
 70
     1
 10
0.0
 20
0.0
 30
0.0
  3
*D50
  1

  0
LINE
  5
12BB
330
128A
100
AcDbEntity
  8
0
 62
     0
370
    -2
100
AcDbLine
 10
34819.6475193197
 20
2825.385120608567
 30
0.0
 11
33903.40724729384
 21
2825.385120608567
 31
0.0
  0
LINE
  5
12BC
330
128A
100
AcDbEntity
  8
0
 62
     0
370
    -2
100
AcDbLine
 10
34819.6475193197
 20
5825.385120608569
 30
0.0
 11
33903.40724729384
 21
5825.385120608569
 31
0.0
  0
LINE
  5
12BD
330
128A
100
AcDbEntity
  8
0
 62
     0
370
    -2
100
AcDbLine
 10
33978.40724729384
 20
2750.385120608568
 30
0.0
 11
33978.40724729384
 21
5900.385120608568
 31
0.0
  0
INSERT
  5
12BE
330
128A
100
AcDbEntity
  8
0
 62
     0
370
    -2
100
AcDbBlockReference
  2
_ArchTick
 10
33978.40724729384
 20
2825.385120608567
 30
0.0
 41
100.0
 42
100.0
 43
100.0
 50
270.0
  0
INSERT
  5
12BF
330
128A
100
AcDbEntity
  8
0
 62
     0
370
    -2
100
AcDbBlockReference
  2
_ArchTick
 10
33978.40724729384
 20
5825.385120608569
 30
0.0
 41
100.0
 42
100.0
 43
100.0
 50
90.0
  0
MTEXT
  5
12C0
330
128A
100
AcDbEntity
  8
0
 62
     0
100
AcDbMText
 10
33877.31584210964
 20
4325.385120608575
 30
0.0
 40
100.0
 41
0.0
 71
     5
 72
     1
  1
3000
 11
0.0000000000000001
 21
1.0
 31
0.0
 73
     1
 44
1.0
1001
ACAD
1000
MTEXTBEGIN
1070
    73
1070
     1
1070
    44
1040
1.0
1070
    74
1070
     0
1000
MTEXTEND
  0
POINT
  5
12C1
330
128A
100
AcDbEntity
  8
Defpoints
 62
     0
100
AcDbPoint
 10
34944.64751931971
 20
2825.385120608567
 30
0.0
  0
POINT
  5
12C2
330
128A
100
AcDbEntity
  8
Defpoints
 62
     0
100
AcDbPoint
 10
34944.64751931971
 20
5825.385120608569
 30
0.0
  0
POINT
  5
12C3
330
128A
100
AcDbEntity
  8
Defpoints
 62
     0
100
AcDbPoint
 10
33978.40724729384
 20
5825.385120608569
 30
0.0
  0
ENDBLK
  5
128C
330
128A
100
AcDbEntity
  8
0
100
AcDbBlockEnd
  0
BLOCK
  5
137C
330
137B
100
AcDbEntity
  8
0
100
AcDbBlockBegin
  2
*D51
 70
     1
 10
0.0
 20
0.0
 30
0.0
  3
*D51
  1

  0
LINE
  5
13FC
330
137B
100
AcDbEntity
  8
0
 62
     0
370
    -2
100
AcDbLine
 10
35193.57479376794
 20
17280.1015727099
 30
0.0
 11
35047.44933835187
 21
17280.1015727099
 31
0.0
  0
LINE
  5
13FD
330
137B
100
AcDbEntity
  8
0
 62
     0
370
    -2
100
AcDbLine
 10
35193.57479376794
 20
16780.1015727099
 30
0.0
 11
35047.44933835187
 21
16780.1015727099
 31
0.0
  0
LINE
  5
13FE
330
137B
100
AcDbEntity
  8
0
 62
     0
370
    -2
100
AcDbLine
 10
35122.44933835187
 20
17355.1015727099
 30
0.0
 11
35122.44933835187
 21
16705.1015727099
 31
0.0
  0
INSERT
  5
13FF
330
137B
100
AcDbEntity
  8
0
 62
     0
370
    -2
100
AcDbBlockReference
  2
_ArchTick
 10
35122.44933835187
 20
17280.1015727099
 30
0.0
 41
100.0
 42
100.0
 43
100.0
 50
90.0
  0
INSERT
  5
1400
330
137B
100
AcDbEntity
  8
0
 62
     0
370
    -2
100
AcDbBlockReference
  2
_ArchTick
 10
35122.44933835187
 20
16780.1015727099
 30
0.0
 41
100.0
 42
100.0
 43
100.0
 50
270.0
  0
MTEXT
  5
1401
330
137B
100
AcDbEntity
  8
0
 62
     0
100
AcDbMText
 10
35021.39203957971
 20
17030.1015727099
 30
0.0
 40
100.0
 41
0.0
 71
     5
 72
     1
  1
500
 11
0.0000000000000001
 21
1.0
 31
0.0
 73
     1
 44
1.0
1001
ACAD
1000
MTEXTBEGIN
1070
    73
1070
     1
1070
    44
1040
1.0
1070
    74
1070
     0
1000
MTEXTEND
  0
POINT
  5
1402
330
137B
100
AcDbEntity
  8
Defpoints
 62
     0
100
AcDbPoint
 10
35318.57479376794
 20
17280.1015727099
 30
0.0
  0
POINT
  5
1403
330
137B
100
AcDbEntity
  8
Defpoints
 62
     0
100
AcDbPoint
 10
35318.57479376794
 20
16780.1015727099
 30
0.0
  0
POINT
  5
1404
330
137B
100
AcDbEntity
  8
Defpoints
 62
     0
100
AcDbPoint
 10
35122.44933835187
 20
16780.1015727099
 30
0.0
  0
ENDBLK
  5
137D
330
137B
100
AcDbEntity
  8
0
100
AcDbBlockEnd
  0
BLOCK
  5
13A7
330
13A6
100
AcDbEntity
  8
0
100
AcDbBlockBegin
  2
*D52
 70
     1
 10
0.0
 20
0.0
 30
0.0
  3
*D52
  1

  0
LINE
  5
1420
330
13A6
100
AcDbEntity
  8
0
 62
     0
370
    -2
100
AcDbLine
 10
39318.57479376794
 20
18376.71981823828
 30
0.0
 11
39318.57479376794
 21
18029.15805073536
 31
0.0
  0
LINE
  5
1421
330
13A6
100
AcDbEntity
  8
0
 62
     0
370
    -2
100
AcDbLine
 10
35318.57479376794
 20
18376.71981823828
 30
0.0
 11
35318.57479376794
 21
18029.15805073536
 31
0.0
  0
LINE
  5
1422
330
13A6
100
AcDbEntity
  8
0
 62
     0
370
    -2
100
AcDbLine
 10
39393.57479376795
 20
18104.15805073535
 30
0.0
 11
35243.57479376794
 21
18104.15805073535
 31
0.0
  0
INSERT
  5
1423
330
13A6
100
AcDbEntity
  8
0
 62
     0
370
    -2
100
AcDbBlockReference
  2
_ArchTick
 10
39318.57479376794
 20
18104.15805073535
 30
0.0
 41
100.0
 42
100.0
 43
100.0
  0
INSERT
  5
1424
330
13A6
100
AcDbEntity
  8
0
 62
     0
370
    -2
100
AcDbBlockReference
  2
_ArchTick
 10
35318.57479376794
 20
18104.15805073535
 30
0.0
 41
100.0
 42
100.0
 43
100.0
 50
180.0
  0
MTEXT
  5
1425
330
13A6
100
AcDbEntity
  8
0
 62
     0
100
AcDbMText
 10
37318.57479376794
 20
18205.21534950753
 30
0.0
 40
100.0
 41
0.0
 71
     5
 72
     1
  1
4000
 73
     1
 44
1.0
1001
ACAD
1000
MTEXTBEGIN
1070
    73
1070
     1
1070
    44
1040
1.0
1070
    74
1070
     0
1000
MTEXTEND
  0
POINT
  5
1426
330
13A6
100
AcDbEntity
  8
Defpoints
 62
     0
100
AcDbPoint
 10
39318.57479376794
 20
18501.71981823828
 30
0.0
  0
POINT
  5
1427
330
13A6
100
AcDbEntity
  8
Defpoints
 62
     0
100
AcDbPoint
 10
35318.57479376794
 20
18501.71981823828
 30
0.0
  0
POINT
  5
1428
330
13A6
100
AcDbEntity
  8
Defpoints
 62
     0
100
AcDbPoint
 10
35318.57479376794
 20
18104.15805073535
 30
0.0
  0
ENDBLK
  5
13A8
330
13A6
100
AcDbEntity
  8
0
100
AcDbBlockEnd
  0
BLOCK
  5
13B4
330
13B3
100
AcDbEntity
  8
0
100
AcDbBlockBegin
  2
*D53
 70
     1
 10
0.0
 20
0.0
 30
0.0
  3
*D53
  1

  0
LINE
  5
1429
330
13B3
100
AcDbEntity
  8
0
 62
     0
370
    -2
100
AcDbLine
 10
34936.09563380395
 20
19231.87456576014
 30
0.0
 11
34789.97017838789
 21
19231.87456576014
 31
0.0
  0
LINE
  5
142A
330
13B3
100
AcDbEntity
  8
0
 62
     0
370
    -2
100
AcDbLine
 10
34936.09563380395
 20
18731.87456576014
 30
0.0
 11
34789.97017838789
 21
18731.87456576014
 31
0.0
  0
LINE
  5
142B
330
13B3
100
AcDbEntity
  8
0
 62
     0
370
    -2
100
AcDbLine
 10
34864.97017838789
 20
19306.87456576014
 30
0.0
 11
34864.97017838789
 21
18656.87456576014
 31
0.0
  0
INSERT
  5
142C
330
13B3
100
AcDbEntity
  8
0
 62
     0
370
    -2
100
AcDbBlockReference
  2
_ArchTick
 10
34864.97017838789
 20
19231.87456576014
 30
0.0
 41
100.0
 42
100.0
 43
100.0
 50
90.0
  0
INSERT
  5
142D
330
13B3
100
AcDbEntity
  8
0
 62
     0
370
    -2
100
AcDbBlockReference
  2
_ArchTick
 10
34864.97017838789
 20
18731.87456576014
 30
0.0
 41
100.0
 42
100.0
 43
100.0
 50
270.0
  0
MTEXT
  5
142E
330
13B3
100
AcDbEntity
  8
0
 62
     0
100
AcDbMText
 10
34763.91287961572
 20
18981.87456576014
 30
0.0
 40
100.0
 41
0.0
 71
     5
 72
     1
  1
500
 11
0.0000000000000001
 21
1.0
 31
0.0
 73
     1
 44
1.0
1001
ACAD
1000
MTEXTBEGIN
1070
    73
1070
     1
1070
    44
1040
1.0
1070
    74
1070
     0
1000
MTEXTEND
  0
POINT
  5
142F
330
13B3
100
AcDbEntity
  8
Defpoints
 62
     0
100
AcDbPoint
 10
35061.09563380396
 20
19231.87456576014
 30
0.0
  0
POINT
  5
1430
330
13B3
100
AcDbEntity
  8
Defpoints
 62
     0
100
AcDbPoint
 10
35061.09563380396
 20
18731.87456576014
 30
0.0
  0
POINT
  5
1431
330
13B3
100
AcDbEntity
  8
Defpoints
 62
     0
100
AcDbPoint
 10
34864.97017838789
 20
18731.87456576014
 30
0.0
  0
ENDBLK
  5
13B5
330
13B3
100
AcDbEntity
  8
0
100
AcDbBlockEnd
  0
BLOCK
  5
13DC
330
13DB
100
AcDbEntity
  8
0
100
AcDbBlockBegin
  2
*D54
 70
     1
 10
0.0
 20
0.0
 30
0.0
  3
*D54
  1

  0
LINE
  5
1432
330
13DB
100
AcDbEntity
  8
0
 62
     0
370
    -2
100
AcDbLine
 10
40413.59240887448
 20
18376.09481823828
 30
0.0
 11
40413.59240887448
 21
18029.15805073536
 31
0.0
  0
LINE
  5
1433
330
13DB
100
AcDbEntity
  8
0
 62
     0
370
    -2
100
AcDbLine
 10
40955.39343974148
 20
18376.09481823828
 30
0.0
 11
40955.39343974148
 21
18029.15805073536
 31
0.0
  0
LINE
  5
1434
330
13DB
100
AcDbEntity
  8
0
 62
     0
370
    -2
100
AcDbLine
 10
40338.59240887448
 20
18104.15805073535
 30
0.0
 11
41030.39343974146
 21
18104.15805073535
 31
0.0
  0
INSERT
  5
1435
330
13DB
100
AcDbEntity
  8
0
 62
     0
370
    -2
100
AcDbBlockReference
  2
_ArchTick
 10
40413.59240887448
 20
18104.15805073535
 30
0.0
 41
100.0
 42
100.0
 43
100.0
 50
180.0
  0
INSERT
  5
1436
330
13DB
100
AcDbEntity
  8
0
 62
     0
370
    -2
100
AcDbBlockReference
  2
_ArchTick
 10
40955.39343974148
 20
18104.15805073535
 30
0.0
 41
100.0
 42
100.0
 43
100.0
  0
MTEXT
  5
1437
330
13DB
100
AcDbEntity
  8
0
 62
     0
100
AcDbMText
 10
40684.49292430798
 20
18214.25354868898
 30
0.0
 40
100.0
 41
0.0
 71
     5
 72
     1
  1
541,8
 73
     1
 44
1.0
1001
ACAD
1000
MTEXTBEGIN
1070
    73
1070
     1
1070
    44
1040
1.0
1070
    74
1070
     0
1000
MTEXTEND
  0
POINT
  5
1438
330
13DB
100
AcDbEntity
  8
Defpoints
 62
     0
100
AcDbPoint
 10
40413.59240887448
 20
18501.09481823828
 30
0.0
  0
POINT
  5
1439
330
13DB
100
AcDbEntity
  8
Defpoints
 62
     0
100
AcDbPoint
 10
40955.39343974148
 20
18501.09481823828
 30
0.0
  0
POINT
  5
143A
330
13DB
100
AcDbEntity
  8
Defpoints
 62
     0
100
AcDbPoint
 10
40955.39343974148
 20
18104.15805073535
 30
0.0
  0
ENDBLK
  5
13DD
330
13DB
100
AcDbEntity
  8
0
100
AcDbBlockEnd
  0
ENDSEC
  0
SECTION
  2
ENTITIES
  0
CIRCLE
  5
1BA
102
{ACAD_REACTORS
330
1480
102
}
330
1F
100
AcDbEntity
  8
0
100
AcDbCircle
 10
1446.303850425597
 20
149.9999999999999
 30
0.0
 40
150.0
  0
CIRCLE
  5
1BB
102
{ACAD_REACTORS
330
1480
102
}
330
1F
100
AcDbEntity
  8
0
100
AcDbCircle
 10
2776.303850425596
 20
139.9999999999999
 30
0.0
 40
140.0
  0
LINE
  5
1BC
102
{ACAD_REACTORS
330
1480
102
}
330
1F
100
AcDbEntity
  8
0
100
AcDbLine
 10
3056.303850425596
 20
109.9999999999999
 30
0.0
 11
2916.303850425597
 21
109.9999999999999
 31
0.0
  0
LINE
  5
1BE
102
{ACAD_REACTORS
330
1480
102
}
330
1F
100
AcDbEntity
  8
0
100
AcDbLine
 10
2076.303850425597
 20
240.0
 30
0.0
 11
2061.303850425598
 21
381.1313415777013
 31
0.0
  0
LINE
  5
1BF
102
{ACAD_REACTORS
330
1480
102
}
330
1F
100
AcDbEntity
  8
0
100
AcDbLine
 10
2054.622167259811
 20
390.0000000000001
 30
0.0
 11
1826.303850425597
 21
390.0000000000001
 31
0.0
  0
LINE
  5
1C0
102
{ACAD_REACTORS
330
1480
102
}
330
1F
100
AcDbEntity
  8
0
100
AcDbLine
 10
1826.303850425597
 20
390.0000000000001
 30
0.0
 11
1806.303850425597
 21
530.5459872172368
 31
0.0
  0
LINE
  5
1C1
102
{ACAD_REACTORS
330
1480
102
}
330
1F
100
AcDbEntity
  8
0
100
AcDbLine
 10
2076.303850425597
 20
240.0
 30
0.0
 11
2376.303850425597
 21
240.0
 31
0.0
  0
LINE
  5
1C2
102
{ACAD_REACTORS
330
1480
102
}
330
1F
100
AcDbEntity
  8
0
100
AcDbLine
 10
2376.303850425597
 20
240.0
 30
0.0
 11
2376.303850425597
 21
530.0
 31
0.0
  0
LINE
  5
1C8
102
{ACAD_REACTORS
330
1480
102
}
330
1F
100
AcDbEntity
  8
0
100
AcDbLine
 10
3056.303850425596
 20
109.9999999999999
 30
0.0
 11
3076.303850425597
 21
414.9999999999995
 31
0.0
  0
LINE
  5
1C9
102
{ACAD_REACTORS
330
1480
102
}
330
1F
100
AcDbEntity
  8
0
100
AcDbLine
 10
3076.303850425597
 20
414.9999999999995
 30
0.0
 11
2991.303850425597
 21
530.0
 31
0.0
  0
LWPOLYLINE
  5
1CB
102
{ACAD_REACTORS
330
1480
102
}
330
1F
100
AcDbEntity
  8
0
100
AcDbPolyline
 90
        4
 70
     0
 43
0.0
 10
2376.303850425597
 20
530.0
 42
-0.3718439124520112
 10
2393.092957355634
 20
549.4540127827631
 42
-0.0898919110182567
 10
2434.319472263145
 20
548.1133131109741
 42
0.0221562746375587
 10
2991.303850425597
 20
530.0
 42
-6.965975078969892
  0
LINE
  5
1CD
102
{ACAD_REACTORS
330
1480
102
}
330
1F
100
AcDbEntity
  8
0
100
AcDbLine
 10
1296.63755495464
 20
110.0000000000001
 30
0.0
 11
1086.303850425597
 21
110.0000000000001
 31
0.0
  0
LINE
  5
1D0
102
{ACAD_REACTORS
330
1480
102
}
330
1F
100
AcDbEntity
  8
0
100
AcDbLine
 10
2639.555907113824
 20
109.9999999999999
 30
0.0
 11
1590.872173373607
 21
110.0000000000001
 31
0.0
  0
LINE
  5
1D1
102
{ACAD_REACTORS
330
1480
102
}
330
1F
100
AcDbEntity
  8
0
100
AcDbLine
 10
2376.303850425597
 20
435.0000000000001
 30
0.0
 11
2276.303850425597
 21
534.9999999999997
 31
0.0
  0
LINE
  5
1D2
102
{ACAD_REACTORS
330
1480
102
}
330
1F
100
AcDbEntity
  8
0
100
AcDbLine
 10
2376.303850425597
 20
505.710678118655
 30
0.0
 11
2311.659189484924
 21
570.3553390593273
 31
0.0
  0
LINE
  5
1D3
102
{ACAD_REACTORS
330
1480
102
}
330
1F
100
AcDbEntity
  8
0
100
AcDbLine
 10
2364.692198073916
 20
623.3883476483182
 30
0.0
 11
2223.270841836606
 21
481.9669914110088
 31
0.0
  0
LINE
  5
1D5
102
{ACAD_REACTORS
330
1480
102
}
330
1F
100
AcDbEntity
  8
0
100
AcDbLine
 10
2343.478994638319
 20
644.6015510839147
 30
0.0
 11
2202.057638401011
 21
503.1801948466052
 31
0.0
  0
LINE
  5
1D6
102
{ACAD_REACTORS
330
1480
102
}
330
1F
100
AcDbEntity
  8
0
100
AcDbLine
 10
2364.692198073916
 20
623.3883476483181
 30
0.0
 11
2343.478994638319
 21
644.6015510839146
 31
0.0
  0
LINE
  5
1D7
102
{ACAD_REACTORS
330
1480
102
}
330
1F
100
AcDbEntity
  8
0
100
AcDbLine
 10
2223.270841836606
 20
481.9669914110089
 30
0.0
 11
2202.057638401011
 21
503.1801948466052
 31
0.0
  0
LINE
  5
1D8
102
{ACAD_REACTORS
330
1480
102
}
330
1F
100
AcDbEntity
  8
0
100
AcDbLine
 10
1086.303850425597
 20
110.0000000000001
 30
0.0
 11
1078.122032243779
 21
347.6674610275167
 31
0.0
  0
LINE
  5
1D9
102
{ACAD_REACTORS
330
1480
102
}
330
1F
100
AcDbEntity
  8
0
100
AcDbLine
 10
1078.122032243779
 20
347.6674610275167
 30
0.0
 11
1135.477874402234
 21
410.677056291245
 31
0.0
  0
LWPOLYLINE
  5
1DA
102
{ACAD_REACTORS
330
1480
102
}
330
1F
100
AcDbEntity
  8
0
100
AcDbPolyline
 90
        2
 70
     0
 43
0.0
 10
2061.303850425598
 20
381.1313415777013
 42
0.2583422277368318
 10
2054.622167259811
 20
390.0000000000001
 42
-5.350858652760995
  0
LINE
  5
1DB
102
{ACAD_REACTORS
330
64B
330
147F
102
}
330
1F
100
AcDbEntity
  8
0
100
AcDbLine
 10
1076.303850425597
 20
1470.802996733359
 30
0.0
 11
1076.303850425597
 21
1925.900856317649
 31
0.0
  0
LINE
  5
1DD
102
{ACAD_REACTORS
330
147F
102
}
330
1F
100
AcDbEntity
  8
0
100
AcDbLine
 10
3076.303850425597
 20
1448.351926525505
 30
0.0
 11
3076.303850425597
 21
1948.351926525505
 31
0.0
  0
LINE
  5
1DE
102
{ACAD_REACTORS
330
147F
102
}
330
1F
100
AcDbEntity
  8
0
100
AcDbLine
 10
2991.303850425599
 20
1448.351926525505
 30
0.0
 11
2991.303850425599
 21
1948.351926525505
 31
0.0
  0
LINE
  5
1DF
102
{ACAD_REACTORS
330
147F
102
}
330
1F
100
AcDbEntity
  8
0
100
AcDbLine
 10
2376.303850425596
 20
1448.351926525505
 30
0.0
 11
2376.303850425597
 21
1948.351926525505
 31
0.0
  0
LINE
  5
1E2
102
{ACAD_REACTORS
330
147F
102
}
330
1F
100
AcDbEntity
  8
0
100
AcDbLine
 10
2061.303850425598
 20
1458.275439173795
 30
0.0
 11
2061.303850425598
 21
1938.428413877215
 31
0.0
  0
LINE
  5
1E3
102
{ACAD_REACTORS
330
147F
102
}
330
1F
100
AcDbEntity
  8
0
100
AcDbLine
 10
1789.514743495563
 20
1469.000272466833
 30
0.0
 11
1789.514743495563
 21
1927.703580584176
 31
0.0
  0
ARC
  5
1E4
102
{ACAD_REACTORS
330
1480
102
}
330
1F
100
AcDbEntity
  8
0
100
AcDbCircle
 10
1786.638339698557
 20
530.5459872172366
 30
0.0
 40
19.66551072704033
100
AcDbArc
 50
0.0000000000003312
 51
81.58937851579082
  0
ARC
  5
1E5
102
{ACAD_REACTORS
330
1480
102
}
330
1F
100
AcDbEntity
  8
0
100
AcDbCircle
 10
1754.205265938721
 20
114.038577485099
 30
0.0
 40
437.3889814873631
100
AcDbArc
 50
85.36959549010544
 51
96.4496532404375
  0
ARC
  5
1E6
102
{ACAD_REACTORS
330
1480
102
}
330
1F
100
AcDbEntity
  8
0
100
AcDbCircle
 10
1046.939201673201
 20
4304.180289162203
 30
0.0
 40
3894.509792123422
100
AcDbArc
 50
271.302687533719
 51
279.1609587415308
  0
LINE
  5
1E7
102
{ACAD_REACTORS
330
1480
102
}
330
1F
100
AcDbEntity
  8
0
100
AcDbLine
 10
1705.073317047151
 20
548.659300328211
 30
0.0
 11
1666.978331879977
 21
459.3450523857735
 31
0.0
  0
LINE
  5
1E8
102
{ACAD_REACTORS
330
147F
102
}
330
1F
100
AcDbEntity
  8
0
100
AcDbLine
 10
1135.477874402233
 20
1471.233259622294
 30
0.0
 11
1135.477874402231
 21
1925.470593428715
 31
0.0
  0
LINE
  5
1E9
102
{ACAD_REACTORS
330
147F
102
}
330
1F
100
AcDbEntity
  8
0
100
AcDbLine
 10
1296.303850425598
 20
1298.351926525505
 30
0.0
 11
1296.303850425598
 21
1471.872555030745
 31
0.0
  0
LINE
  5
1EA
102
{ACAD_REACTORS
330
147F
102
}
330
1F
100
AcDbEntity
  8
0
100
AcDbLine
 10
1596.303850425598
 20
1298.351926525505
 30
0.0
 11
1596.303850425598
 21
1470.993901049765
 31
0.0
  0
LINE
  5
1EB
102
{ACAD_REACTORS
330
147F
102
}
330
1F
100
AcDbEntity
  8
0
100
AcDbLine
 10
2636.303850425598
 20
1298.351926525505
 30
0.0
 11
2636.303850425598
 21
1448.351926525505
 31
0.0
  0
LINE
  5
1EC
102
{ACAD_REACTORS
330
147F
102
}
330
1F
100
AcDbEntity
  8
0
100
AcDbLine
 10
2916.303850425597
 20
1298.351926525505
 30
0.0
 11
2916.303850425597
 21
1448.351926525505
 31
0.0
  0
LINE
  5
1ED
102
{ACAD_REACTORS
330
147F
102
}
330
1F
100
AcDbEntity
  8
0
100
AcDbLine
 10
2376.303850425597
 20
1448.351926525505
 30
0.0
 11
3076.303850425597
 21
1448.351926525505
 31
0.0
  0
LINE
  5
1EE
102
{ACAD_REACTORS
330
147F
102
}
330
1F
100
AcDbEntity
  8
0
100
AcDbLine
 10
2376.303850425597
 20
1948.351926525505
 30
0.0
 11
3076.303850425597
 21
1948.351926525505
 31
0.0
  0
LINE
  5
1F1
102
{ACAD_REACTORS
330
1480
102
}
330
1F
100
AcDbEntity
  8
0
100
AcDbLine
 10
2306.303850425598
 20
240.0
 30
0.0
 11
2376.303850425597
 21
310.0
 31
0.0
  0
LINE
  5
1F3
102
{ACAD_REACTORS
330
147F
102
}
330
1F
100
AcDbEntity
  8
0
100
AcDbLine
 10
2376.303850425597
 20
1653.351926525505
 30
0.0
 11
2357.12817465684
 21
1653.351926525505
 31
0.0
  0
LINE
  5
1F5
102
{ACAD_REACTORS
330
147F
102
}
330
1F
100
AcDbEntity
  8
0
100
AcDbLine
 10
2376.303850425597
 20
1743.351926525505
 30
0.0
 11
2357.12817465684
 21
1743.351926525505
 31
0.0
  0
ELLIPSE
  5
1F9
102
{ACAD_REACTORS
330
147F
102
}
330
1F
100
AcDbEntity
  8
0
100
AcDbEllipse
 10
2272.768316519666
 20
1698.351926525505
 30
0.0
 11
0.0
 21
-100.0
 31
0.0
210
0.0
220
0.0
230
-1.0
 40
0.7071067811865533
 41
-3.141592653589792
 42
3.141592653589792
  0
ELLIPSE
  5
1FD
102
{ACAD_REACTORS
330
147F
102
}
330
1F
100
AcDbEntity
  8
0
100
AcDbEllipse
 10
2293.981519955261
 20
1698.351926525505
 30
0.0
 11
0.0
 21
-100.0
 31
0.0
210
0.0
220
0.0
230
-1.0
 40
0.7071067811865533
 41
-3.141592653589792
 42
0.0
  0
LINE
  5
1FE
102
{ACAD_REACTORS
330
147F
102
}
330
1F
100
AcDbEntity
  8
0
100
AcDbLine
 10
2272.768316519666
 20
1798.351926525505
 30
0.0
 11
2293.981519955261
 21
1798.351926525505
 31
0.0
  0
LINE
  5
1FF
102
{ACAD_REACTORS
330
147F
102
}
330
1F
100
AcDbEntity
  8
0
100
AcDbLine
 10
2272.768316519666
 20
1598.351926525505
 30
0.0
 11
2293.981519955261
 21
1598.351926525505
 31
0.0
  0
LINE
  5
200
102
{ACAD_REACTORS
330
147F
102
}
330
1F
100
AcDbEntity
  8
0
100
AcDbLine
 10
2306.303850425596
 20
1563.351926525505
 30
0.0
 11
2306.303850425596
 21
1599.882030904764
 31
0.0
  0
LINE
  5
201
102
{ACAD_REACTORS
330
147F
102
}
330
1F
100
AcDbEntity
  8
0
100
AcDbLine
 10
2376.303850425596
 20
1623.351926525505
 30
0.0
 11
2340.752237289938
 21
1623.351926525505
 31
0.0
  0
LINE
  5
202
102
{ACAD_REACTORS
330
147F
102
}
330
1F
100
AcDbEntity
  8
0
100
AcDbLine
 10
2376.303850425596
 20
1563.351926525505
 30
0.0
 11
2306.303850425598
 21
1563.351926525505
 31
0.0
  0
LINE
  5
203
102
{ACAD_REACTORS
330
147F
102
}
330
1F
100
AcDbEntity
  8
0
100
AcDbLine
 10
2306.303850425596
 20
1833.351926525505
 30
0.0
 11
2306.303850425596
 21
1796.821822146247
 31
0.0
  0
LINE
  5
204
102
{ACAD_REACTORS
330
147F
102
}
330
1F
100
AcDbEntity
  8
0
100
AcDbLine
 10
2376.303850425596
 20
1773.351926525505
 30
0.0
 11
2340.752237289938
 21
1773.351926525505
 31
0.0
  0
LINE
  5
205
102
{ACAD_REACTORS
330
147F
102
}
330
1F
100
AcDbEntity
  8
0
100
AcDbLine
 10
2376.303850425596
 20
1833.351926525505
 30
0.0
 11
2306.303850425598
 21
1833.351926525505
 31
0.0
  0
LWPOLYLINE
  5
208
102
{ACAD_REACTORS
330
147F
102
}
330
1F
100
AcDbEntity
  8
0
100
AcDbPolyline
 90
        4
 70
     0
 43
0.0
 10
2376.303850425597
 20
1948.351926525505
 42
0.012199913060877
 10
2061.303850425598
 20
1938.428413877215
 42
-0.0184526247695461
 10
1903.448628190204
 20
1929.403584432283
 42
-0.0061962037044017
 10
1076.303850425597
 20
1925.900856317649
 42
0.3948377945263162
  0
LINE
  5
20A
102
{ACAD_REACTORS
330
64B
330
147F
102
}
330
1F
100
AcDbEntity
  8
0
100
AcDbLine
 10
1296.303850425598
 20
2098.351926525506
 30
0.0
 11
1596.303850425598
 21
2098.351926525506
 31
0.0
  0
LINE
  5
20B
102
{ACAD_REACTORS
330
147F
102
}
330
1F
100
AcDbEntity
  8
0
100
AcDbLine
 10
1296.303850425598
 20
1298.351926525505
 30
0.0
 11
1596.303850425598
 21
1298.351926525505
 31
0.0
  0
LINE
  5
20C
102
{ACAD_REACTORS
330
147F
102
}
330
1F
100
AcDbEntity
  8
0
100
AcDbLine
 10
2636.303850425598
 20
2098.351926525506
 30
0.0
 11
2916.303850425597
 21
2098.351926525506
 31
0.0
  0
LINE
  5
20D
102
{ACAD_REACTORS
330
147F
102
}
330
1F
100
AcDbEntity
  8
0
100
AcDbLine
 10
2636.303850425598
 20
1298.351926525505
 30
0.0
 11
2916.303850425597
 21
1298.351926525505
 31
0.0
  0
LINE
  5
20E
102
{ACAD_REACTORS
330
147F
102
}
330
1F
100
AcDbEntity
  8
0
100
AcDbLine
 10
2916.303850425597
 20
1948.351926525505
 30
0.0
 11
2916.303850425597
 21
2098.351926525506
 31
0.0
  0
LINE
  5
20F
102
{ACAD_REACTORS
330
147F
102
}
330
1F
100
AcDbEntity
  8
0
100
AcDbLine
 10
2636.303850425598
 20
1948.351926525505
 30
0.0
 11
2636.303850425598
 21
2098.351926525506
 31
0.0
  0
LINE
  5
211
102
{ACAD_REACTORS
330
147F
102
}
330
1F
100
AcDbEntity
  8
0
100
AcDbLine
 10
1596.303850425598
 20
1925.709952001244
 30
0.0
 11
1596.303850425598
 21
2098.351926525506
 31
0.0
  0
LINE
  5
212
102
{ACAD_REACTORS
330
147F
102
}
330
1F
100
AcDbEntity
  8
0
100
AcDbLine
 10
1296.303850425598
 20
1924.831298020263
 30
0.0
 11
1296.303850425598
 21
2098.351926525506
 31
0.0
  0
LINE
  5
214
102
{ACAD_REACTORS
330
147F
102
}
330
1F
100
AcDbEntity
  8
0
100
AcDbLine
 10
1826.303850425597
 20
1468.493875870177
 30
0.0
 11
1826.303850425597
 21
1928.209977180831
 31
0.0
  0
LINE
  5
217
102
{ACAD_REACTORS
330
147F
102
}
330
1F
100
AcDbEntity
  8
0
100
AcDbLine
 10
2991.303850425599
 20
1918.351926525505
 30
0.0
 11
2376.303850425597
 21
1918.351926525505
 31
0.0
  0
LWPOLYLINE
  5
218
102
{ACAD_REACTORS
330
147F
102
}
330
1F
100
AcDbEntity
  8
0
100
AcDbPolyline
 90
        2
 70
     0
 43
0.0
 10
2991.303850425599
 20
1918.351926525505
 42
-0.1391626325461954
 10
3076.303850425597
 20
1948.351926525505
 42
-14.44092174399048
  0
LINE
  5
219
102
{ACAD_REACTORS
330
147F
102
}
330
1F
100
AcDbEntity
  8
0
100
AcDbLine
 10
2991.303850425599
 20
1478.351926525505
 30
0.0
 11
2376.303850425597
 21
1478.351926525505
 31
0.0
  0
LWPOLYLINE
  5
21A
102
{ACAD_REACTORS
330
147F
102
}
330
1F
100
AcDbEntity
  8
0
100
AcDbPolyline
 90
        2
 70
     0
 43
0.0
 10
2991.303850425599
 20
1478.351926525505
 42
0.1391626325461954
 10
3076.303850425597
 20
1448.351926525505
 42
14.44092174399048
  0
LINE
  5
21B
102
{ACAD_REACTORS
330
147F
102
}
330
1F
100
AcDbEntity
  8
0
100
AcDbLine
 10
1705.073317047151
 20
1470.00919551172
 30
0.0
 11
1705.073317047151
 21
1926.694657539289
 31
0.0
  0
LWPOLYLINE
  5
21D
102
{ACAD_REACTORS
330
147F
102
}
330
1F
100
AcDbEntity
  8
0
100
AcDbPolyline
 90
        4
 70
     0
 43
0.0
 10
2376.303850425597
 20
1448.351926525505
 42
-0.012199913060877
 10
2061.303850425598
 20
1458.275439173795
 42
0.0184526247695461
 10
1903.448628190204
 20
1467.300268618727
 42
0.0061962037044017
 10
1076.303850425597
 20
1470.802996733363
 42
-0.3948377945263162
  0
LINE
  5
21E
102
{ACAD_REACTORS
330
1482
102
}
330
1F
100
AcDbEntity
  8
0
100
AcDbLine
 10
7202.403138861033
 20
1470.802996733359
 30
0.0
 11
7202.403138861033
 21
1925.900856317649
 31
0.0
  0
LINE
  5
21F
102
{ACAD_REACTORS
330
1482
102
}
330
1F
100
AcDbEntity
  8
0
100
AcDbLine
 10
9202.403138861033
 20
1448.351926525505
 30
0.0
 11
9202.403138861033
 21
1948.351926525505
 31
0.0
  0
LINE
  5
220
102
{ACAD_REACTORS
330
1482
102
}
330
1F
100
AcDbEntity
  8
0
100
AcDbLine
 10
9117.403138861034
 20
1448.351926525505
 30
0.0
 11
9117.403138861034
 21
1948.351926525505
 31
0.0
  0
LINE
  5
221
102
{ACAD_REACTORS
330
1482
102
}
330
1F
100
AcDbEntity
  8
0
100
AcDbLine
 10
8502.403138861032
 20
1448.351926525505
 30
0.0
 11
8502.403138861032
 21
1948.351926525505
 31
0.0
  0
LINE
  5
222
102
{ACAD_REACTORS
330
1482
102
}
330
1F
100
AcDbEntity
  8
0
100
AcDbLine
 10
8187.403138861034
 20
1458.275439173795
 30
0.0
 11
8187.403138861034
 21
1938.428413877215
 31
0.0
  0
LINE
  5
223
102
{ACAD_REACTORS
330
1482
102
}
330
1F
100
AcDbEntity
  8
0
100
AcDbLine
 10
7915.614031930991
 20
1469.000272466833
 30
0.0
 11
7915.614031930991
 21
1927.703580584176
 31
0.0
  0
LINE
  5
224
102
{ACAD_REACTORS
330
1482
102
}
330
1F
100
AcDbEntity
  8
0
100
AcDbLine
 10
7261.577162837665
 20
1471.233259622294
 30
0.0
 11
7261.577162837665
 21
1925.470593428715
 31
0.0
  0
LINE
  5
225
102
{ACAD_REACTORS
330
1482
102
}
330
1F
100
AcDbEntity
  8
0
100
AcDbLine
 10
7422.403138861032
 20
1298.351926525505
 30
0.0
 11
7422.403138861032
 21
1471.872555030745
 31
0.0
  0
LINE
  5
226
102
{ACAD_REACTORS
330
1482
102
}
330
1F
100
AcDbEntity
  8
0
100
AcDbLine
 10
7422.403138861032
 20
1924.831298020263
 30
0.0
 11
7422.403138861032
 21
2098.351926525506
 31
0.0
  0
LINE
  5
227
102
{ACAD_REACTORS
330
1482
102
}
330
1F
100
AcDbEntity
  8
0
100
AcDbLine
 10
7722.403138861032
 20
1298.351926525505
 30
0.0
 11
7722.403138861032
 21
1470.993901049765
 31
0.0
  0
LINE
  5
228
102
{ACAD_REACTORS
330
1482
102
}
330
1F
100
AcDbEntity
  8
0
100
AcDbLine
 10
7722.403138861032
 20
1925.709952001244
 30
0.0
 11
7722.403138861032
 21
2098.351926525506
 31
0.0
  0
LINE
  5
229
102
{ACAD_REACTORS
330
1482
102
}
330
1F
100
AcDbEntity
  8
0
100
AcDbLine
 10
8762.403138861033
 20
1298.351926525505
 30
0.0
 11
8762.403138861033
 21
1448.351926525505
 31
0.0
  0
LINE
  5
22A
102
{ACAD_REACTORS
330
1482
102
}
330
1F
100
AcDbEntity
  8
0
100
AcDbLine
 10
8762.403138861033
 20
1948.351926525505
 30
0.0
 11
8762.403138861033
 21
2098.351926525506
 31
0.0
  0
LINE
  5
22B
102
{ACAD_REACTORS
330
1482
102
}
330
1F
100
AcDbEntity
  8
0
100
AcDbLine
 10
9042.403138861033
 20
1298.351926525505
 30
0.0
 11
9042.403138861033
 21
1448.351926525505
 31
0.0
  0
LINE
  5
22C
102
{ACAD_REACTORS
330
1482
102
}
330
1F
100
AcDbEntity
  8
0
100
AcDbLine
 10
9042.403138861033
 20
1948.351926525505
 30
0.0
 11
9042.403138861033
 21
2098.351926525506
 31
0.0
  0
LINE
  5
22D
102
{ACAD_REACTORS
330
1482
102
}
330
1F
100
AcDbEntity
  8
0
100
AcDbLine
 10
8502.403138861032
 20
1448.351926525505
 30
0.0
 11
9202.403138861033
 21
1448.351926525505
 31
0.0
  0
LINE
  5
22E
102
{ACAD_REACTORS
330
1482
102
}
330
1F
100
AcDbEntity
  8
0
100
AcDbLine
 10
8502.403138861032
 20
1948.351926525505
 30
0.0
 11
9202.403138861033
 21
1948.351926525505
 31
0.0
  0
LINE
  5
22F
102
{ACAD_REACTORS
330
1482
102
}
330
1F
100
AcDbEntity
  8
0
100
AcDbLine
 10
8502.403138861032
 20
1653.351926525505
 30
0.0
 11
8483.227463092273
 21
1653.351926525505
 31
0.0
  0
LINE
  5
230
102
{ACAD_REACTORS
330
1482
102
}
330
1F
100
AcDbEntity
  8
0
100
AcDbLine
 10
8502.403138861032
 20
1743.351926525505
 30
0.0
 11
8483.227463092273
 21
1743.351926525505
 31
0.0
  0
ELLIPSE
  5
231
102
{ACAD_REACTORS
330
1482
102
}
330
1F
100
AcDbEntity
  8
0
100
AcDbEllipse
 10
8398.867604955103
 20
1698.351926525505
 30
0.0
 11
0.0
 21
-100.0
 31
0.0
210
0.0
220
0.0
230
-1.0
 40
0.7071067811865533
 41
-3.141592653589792
 42
3.141592653589792
  0
ELLIPSE
  5
232
102
{ACAD_REACTORS
330
1482
102
}
330
1F
100
AcDbEntity
  8
0
100
AcDbEllipse
 10
8420.080808390695
 20
1698.351926525505
 30
0.0
 11
0.0
 21
-100.0
 31
0.0
210
0.0
220
0.0
230
-1.0
 40
0.7071067811865533
 41
-3.141592653589792
 42
0.0
  0
LINE
  5
233
102
{ACAD_REACTORS
330
1482
102
}
330
1F
100
AcDbEntity
  8
0
100
AcDbLine
 10
8398.867604955103
 20
1798.351926525505
 30
0.0
 11
8420.080808390695
 21
1798.351926525505
 31
0.0
  0
LINE
  5
234
102
{ACAD_REACTORS
330
1482
102
}
330
1F
100
AcDbEntity
  8
0
100
AcDbLine
 10
8398.867604955103
 20
1598.351926525505
 30
0.0
 11
8420.080808390695
 21
1598.351926525505
 31
0.0
  0
LINE
  5
235
102
{ACAD_REACTORS
330
1482
102
}
330
1F
100
AcDbEntity
  8
0
100
AcDbLine
 10
8432.403138861033
 20
1563.351926525505
 30
0.0
 11
8432.403138861033
 21
1599.882030904764
 31
0.0
  0
LINE
  5
236
102
{ACAD_REACTORS
330
1482
102
}
330
1F
100
AcDbEntity
  8
0
100
AcDbLine
 10
8502.403138861032
 20
1623.351926525505
 30
0.0
 11
8466.851525725372
 21
1623.351926525505
 31
0.0
  0
LINE
  5
237
102
{ACAD_REACTORS
330
1482
102
}
330
1F
100
AcDbEntity
  8
0
100
AcDbLine
 10
8502.403138861032
 20
1563.351926525505
 30
0.0
 11
8432.403138861033
 21
1563.351926525505
 31
0.0
  0
LINE
  5
238
102
{ACAD_REACTORS
330
1482
102
}
330
1F
100
AcDbEntity
  8
0
100
AcDbLine
 10
8432.403138861033
 20
1833.351926525505
 30
0.0
 11
8432.403138861033
 21
1796.821822146247
 31
0.0
  0
LINE
  5
239
102
{ACAD_REACTORS
330
1482
102
}
330
1F
100
AcDbEntity
  8
0
100
AcDbLine
 10
8502.403138861032
 20
1773.351926525505
 30
0.0
 11
8466.851525725372
 21
1773.351926525505
 31
0.0
  0
LINE
  5
23A
102
{ACAD_REACTORS
330
1482
102
}
330
1F
100
AcDbEntity
  8
0
100
AcDbLine
 10
8502.403138861032
 20
1833.351926525505
 30
0.0
 11
8432.403138861033
 21
1833.351926525505
 31
0.0
  0
LWPOLYLINE
  5
23B
102
{ACAD_REACTORS
330
1482
102
}
330
1F
100
AcDbEntity
  8
0
100
AcDbPolyline
 90
        4
 70
     0
 43
0.0
 10
8502.403138861032
 20
1948.351926525505
 42
0.012199913060877
 10
8187.403138861034
 20
1938.428413877215
 42
-0.0184526247695461
 10
8029.547916625643
 20
1929.403584432283
 42
-0.0061962037044017
 10
7202.403138861033
 20
1925.900856317649
 42
0.3948377945263162
  0
LINE
  5
23C
102
{ACAD_REACTORS
330
1482
102
}
330
1F
100
AcDbEntity
  8
0
100
AcDbLine
 10
7422.403138861032
 20
2098.351926525506
 30
0.0
 11
7722.403138861032
 21
2098.351926525506
 31
0.0
  0
LINE
  5
23D
102
{ACAD_REACTORS
330
1482
102
}
330
1F
100
AcDbEntity
  8
0
100
AcDbLine
 10
7422.403138861032
 20
1298.351926525505
 30
0.0
 11
7722.403138861032
 21
1298.351926525505
 31
0.0
  0
LINE
  5
23E
102
{ACAD_REACTORS
330
1482
102
}
330
1F
100
AcDbEntity
  8
0
100
AcDbLine
 10
8762.403138861033
 20
2098.351926525506
 30
0.0
 11
9042.403138861033
 21
2098.351926525506
 31
0.0
  0
LINE
  5
23F
102
{ACAD_REACTORS
330
1482
102
}
330
1F
100
AcDbEntity
  8
0
100
AcDbLine
 10
8762.403138861033
 20
1298.351926525505
 30
0.0
 11
9042.403138861033
 21
1298.351926525505
 31
0.0
  0
LINE
  5
240
102
{ACAD_REACTORS
330
1482
102
}
330
1F
100
AcDbEntity
  8
0
100
AcDbLine
 10
7952.403138861033
 20
1468.493875870177
 30
0.0
 11
7952.403138861033
 21
1928.209977180831
 31
0.0
  0
LINE
  5
241
102
{ACAD_REACTORS
330
1482
102
}
330
1F
100
AcDbEntity
  8
0
100
AcDbLine
 10
9117.403138861034
 20
1918.351926525505
 30
0.0
 11
8502.403138861032
 21
1918.351926525505
 31
0.0
  0
LWPOLYLINE
  5
242
102
{ACAD_REACTORS
330
1482
102
}
330
1F
100
AcDbEntity
  8
0
100
AcDbPolyline
 90
        2
 70
     0
 43
0.0
 10
9117.403138861034
 20
1918.351926525505
 42
-0.1391626325461954
 10
9202.403138861033
 20
1948.351926525505
 42
-14.44092174399048
  0
LINE
  5
243
102
{ACAD_REACTORS
330
1482
102
}
330
1F
100
AcDbEntity
  8
0
100
AcDbLine
 10
9117.403138861034
 20
1478.351926525505
 30
0.0
 11
8502.403138861032
 21
1478.351926525505
 31
0.0
  0
LWPOLYLINE
  5
244
102
{ACAD_REACTORS
330
1482
102
}
330
1F
100
AcDbEntity
  8
0
100
AcDbPolyline
 90
        2
 70
     0
 43
0.0
 10
9117.403138861034
 20
1478.351926525505
 42
0.1391626325461954
 10
9202.403138861033
 20
1448.351926525505
 42
14.44092174399048
  0
LINE
  5
245
102
{ACAD_REACTORS
330
1482
102
}
330
1F
100
AcDbEntity
  8
0
100
AcDbLine
 10
7831.172605482582
 20
1470.00919551172
 30
0.0
 11
7831.172605482582
 21
1926.694657539289
 31
0.0
  0
LWPOLYLINE
  5
246
102
{ACAD_REACTORS
330
1482
102
}
330
1F
100
AcDbEntity
  8
0
100
AcDbPolyline
 90
        4
 70
     0
 43
0.0
 10
8502.403138861032
 20
1448.351926525505
 42
-0.012199913060877
 10
8187.403138861034
 20
1458.275439173795
 42
0.0184526247695461
 10
8029.547916625643
 20
1467.300268618727
 42
0.0061962037044017
 10
7202.403138861033
 20
1470.802996733363
 42
-0.3948377945263162
  0
LINE
  5
24A
102
{ACAD_REACTORS
330
1482
102
}
330
1F
100
AcDbEntity
  8
0
100
AcDbLine
 10
9202.403138861033
 20
1698.351926525505
 30
0.0
 11
7202.403138861033
 21
1698.351926525504
 31
0.0
  0
LWPOLYLINE
  5
252
102
{ACAD_REACTORS
330
1482
102
}
330
1F
100
AcDbEntity
  8
0
  6
ACAD_ISO03W100
 48
10.0
100
AcDbPolyline
 90
        8
 70
     1
 43
0.0
 10
9702.403138861033
 20
3698.351926525505
 42
-0.4142135623730952
 10
10702.40313886103
 20
2698.351926525505
 10
10702.40313886103
 20
698.3519265255048
 42
-0.4142135623730952
 10
9702.403138861033
 20
-301.6480734744952
 10
6702.403138861033
 20
-301.6480734744952
 42
-0.4142135623730959
 10
5702.403138861033
 20
698.3519265255048
 10
5702.403138861033
 20
2698.351926525504
 42
-0.4142135623730959
 10
6702.403138861033
 20
3698.351926525505
  0
LINE
  5
254
102
{ACAD_REACTORS
330
1481
102
}
330
1F
100
AcDbEntity
  8
0
100
AcDbLine
 10
216.6969722017666
 20
530.0
 30
0.0
 11
583.3030277982361
 21
530.0
 31
0.0
  0
LINE
  5
255
102
{ACAD_REACTORS
330
1481
102
}
330
1F
100
AcDbEntity
  8
0
100
AcDbLine
 10
156.1250320348545
 20
414.9999999999996
 30
0.0
 11
643.8749679651482
 21
414.9999999999996
 31
0.0
  0
LINE
  5
258
102
{ACAD_REACTORS
330
1481
102
}
330
1F
100
AcDbEntity
  8
0
100
AcDbLine
 10
0.0
 20
280.0
 30
0.0
 11
163.1456143534597
 21
280.0
 31
0.0
  0
LINE
  5
259
102
{ACAD_REACTORS
330
1481
102
}
330
1F
100
AcDbEntity
  8
0
100
AcDbLine
 10
0.0
 20
0.0
 30
0.0
 11
800.0
 21
0.0
 31
0.0
  0
LINE
  5
25A
102
{ACAD_REACTORS
330
1481
102
}
330
1F
100
AcDbEntity
  8
0
100
AcDbLine
 10
800.0
 20
0.0
 30
0.0
 11
800.0
 21
280.0
 31
0.0
  0
LINE
  5
25B
102
{ACAD_REACTORS
330
1481
102
}
330
1F
100
AcDbEntity
  8
0
100
AcDbLine
 10
0.0
 20
0.0
 30
0.0
 11
0.0
 21
280.0
 31
0.0
  0
LINE
  5
25D
102
{ACAD_REACTORS
330
1481
102
}
330
1F
100
AcDbEntity
  8
0
100
AcDbLine
 10
238.2666514132652
 20
550.636628051698
 30
0.0
 11
561.7333485867384
 21
550.636628051698
 31
0.0
  0
ARC
  5
25E
102
{ACAD_REACTORS
330
1481
102
}
330
1F
100
AcDbEntity
  8
0
100
AcDbCircle
 10
400.0000000000018
 20
360.0
 30
0.0
 40
250.0000000000013
100
AcDbArc
 50
130.3107899867644
 51
49.68921001323517
  0
LINE
  5
25F
102
{ACAD_REACTORS
330
1481
102
}
330
1F
100
AcDbEntity
  8
0
100
AcDbLine
 10
636.854385646543
 20
280.0
 30
0.0
 11
800.0
 21
280.0
 31
0.0
  0
ELLIPSE
  5
261
102
{ACAD_REACTORS
330
1481
102
}
330
1F
100
AcDbEntity
  8
0
100
AcDbEllipse
 10
400.0
 20
573.8908729652593
 30
0.0
 11
100.0
 21
-0.0000000000000061
 31
0.0
210
0.0
220
0.0
230
-1.0
 40
0.7071067811865533
 41
3.141592653589792
 42
6.283185307179585
  0
ELLIPSE
  5
263
102
{ACAD_REACTORS
330
1481
102
}
330
1F
100
AcDbEntity
  8
0
100
AcDbEllipse
 10
400.0
 20
552.677669529663
 30
0.0
 11
-99.99999999999992
 21
0.0000000000220552
 31
0.0
210
0.0
220
0.0
230
-1.0
 40
0.7071067811865542
 41
-0.0288686950975032
 42
3.17046134868667
  0
LINE
  5
264
102
{ACAD_REACTORS
330
1481
102
}
330
1F
100
AcDbEntity
  8
0
100
AcDbLine
 10
499.9999999999991
 20
573.8908729652593
 30
0.0
 11
499.9999999999991
 21
552.677669529663
 31
0.0
  0
LINE
  5
265
102
{ACAD_REACTORS
330
1481
102
}
330
1F
100
AcDbEntity
  8
0
100
AcDbLine
 10
300.0
 20
573.8908729652593
 30
0.0
 11
300.0
 21
552.677669529663
 31
0.0
  0
ELLIPSE
  5
26A
102
{ACAD_REACTORS
330
1481
102
}
330
1F
100
AcDbEntity
  8
0
100
AcDbEllipse
 10
399.9999999957072
 20
551.1796632905688
 30
0.0
 11
-45.0
 21
0.0
 31
0.0
210
0.0
220
0.0
230
1.0
 40
0.4261261281946445
 41
3.113269904809283
 42
6.311508055960095
  0
DIMENSION
  5
634
102
{ACAD_XDICTIONARY
360
641
102
}
102
{ACAD_REACTORS
330
64B
102
}
330
1F
100
AcDbEntity
  8
0
100
AcDbDimension
  2
*D13
 10
3076.303850425597
 20
2391.323510726679
 30
0.0
 11
2076.303850425597
 21
2492.380809498849
 31
0.0
 70
    32
  1
~2000
 71
     5
 42
1999.999999999999
  3
ISO-25
100
AcDbAlignedDimension
 13
1076.303850425597
 23
2098.351926525506
 33
0.0
 14
3076.303850425597
 24
2098.351926525506
 34
0.0
100
AcDbRotatedDimension
1001
ACAD
1000
DSTYLE
1002
{
1070
    41
1040
100.0
1070
    42
1040
125.0
1070
    44
1040
75.0
1070
    46
1040
75.0
1070
   140
1040
100.0
1070
   147
1040
50.0
1070
   173
1070
     1
1070
   343
1005
338
1070
   344
1005
338
1002
}
  0
DIMENSION
  5
64C
330
1F
100
AcDbEntity
  8
0
100
AcDbDimension
  2
*D14
 10
757.0830585494213
 20
2098.351926525507
 30
0.0
 11
656.0257597772519
 21
1698.351926525505
 31
0.0
 70
    32
  1
~800
 71
     5
 42
800.0000000000008
  3
ISO-25
100
AcDbAlignedDimension
 13
1076.303850425597
 23
1298.351926525505
 33
0.0
 14
1076.303850425597
 24
2098.351926525506
 34
0.0
 50
90.0
100
AcDbRotatedDimension
1001
ACAD
1000
DSTYLE
1002
{
1070
    41
1040
100.0
1070
    42
1040
125.0
1070
    44
1040
75.0
1070
    46
1040
75.0
1070
   140
1040
100.0
1070
   147
1040
50.0
1070
   173
1070
     1
1070
   343
1005
338
1070
   344
1005
338
1002
}
  0
DIMENSION
  5
6EE
330
1F
100
AcDbEntity
  8
0
100
AcDbDimension
  2
*D17
 10
-311.1262106642944
 20
550.0
 30
0.0
 11
-412.1835094364636
 21
275.0
 31
0.0
 70
    32
  1
~550
 71
     5
 42
549.9999999999999
  3
ISO-25
100
AcDbAlignedDimension
 13
8.094581211880722
 23
-0.0000000000000214
 33
0.0
 14
8.094581211880722
 24
549.9999999999999
 34
0.0
 50
90.0
100
AcDbRotatedDimension
1001
ACAD
1000
DSTYLE
1002
{
1070
    41
1040
100.0
1070
    42
1040
125.0
1070
    44
1040
75.0
1070
    46
1040
75.0
1070
   140
1040
100.0
1070
   147
1040
50.0
1070
   173
1070
     1
1070
   343
1005
338
1070
   344
1005
338
1002
}
  0
DIMENSION
  5
772
330
1F
100
AcDbEntity
  8
0
100
AcDbDimension
  2
*D18
 10
10702.40313886103
 20
4381.588666311765
 30
0.0
 11
8202.403138861033
 21
4482.645965083935
 31
0.0
 70
    32
  1
~5000
 71
     5
 42
5000.0
  3
ISO-25
100
AcDbAlignedDimension
 13
5702.403138861033
 23
3698.351926525505
 33
0.0
 14
10702.40313886103
 24
3698.351926525505
 34
0.0
100
AcDbRotatedDimension
1001
ACAD
1000
DSTYLE
1002
{
1070
    41
1040
100.0
1070
    42
1040
125.0
1070
    44
1040
75.0
1070
    46
1040
75.0
1070
   140
1040
100.0
1070
   147
1040
50.0
1070
   173
1070
     1
1070
   343
1005
338
1070
   344
1005
338
1002
}
  0
DIMENSION
  5
78A
330
1F
100
AcDbEntity
  8
0
100
AcDbDimension
  2
*D19
 10
5081.710073128114
 20
-301.648073474495
 30
0.0
 11
4980.652774355945
 21
1698.351926525506
 31
0.0
 70
    32
  1
~4000
 71
     5
 42
4000.0
  3
ISO-25
100
AcDbAlignedDimension
 13
5702.403138861033
 23
3698.351926525505
 33
0.0
 14
5702.403138861033
 24
-301.6480734744952
 34
0.0
 50
90.0
100
AcDbRotatedDimension
1001
ACAD
1000
DSTYLE
1002
{
1070
    41
1040
100.0
1070
    42
1040
125.0
1070
    44
1040
75.0
1070
    46
1040
75.0
1070
   140
1040
100.0
1070
   147
1040
50.0
1070
   173
1070
     1
1070
   343
1005
338
1070
   344
1005
338
1002
}
  0
ENDSEC
  0
SECTION
  2
OBJECTS
  0
DICTIONARY
  5
C
330
0
100
AcDbDictionary
281
     1
  3
ACAD_2007HEADERVARS_RT
350
14D7
  3
ACAD_COLOR
350
6B
  3
ACAD_GROUP
350
D
  3
ACAD_IMAGE_DICT
350
C43
  3
ACAD_IMAGE_VARS
350
C46
  3
ACAD_LAYOUT
350
1A
  3
ACAD_MATERIAL
350
6A
  3
ACAD_MLEADERSTYLE
350
12D
  3
ACAD_MLINESTYLE
350
17
  3
ACAD_PLOTSETTINGS
350
19
  3
ACAD_PLOTSTYLENAME
350
E
  3
ACAD_SCALELIST
350
10C
  3
ACAD_TABLESTYLE
350
7E
  3
ACAD_VISUALSTYLE
350
EF
  3
ACDB_RECOMPOSE_DATA
350
15D
  3
AcDbVariableDictionary
350
5E
  3
DWGPROPS
350
14D6
  0
DICTIONARY
  5
13C
330
10
100
AcDbDictionary
280
     1
281
     1
  3
ADSK_XREC_LAYER_RECONCILED
360
6BF
  0
DICTIONARY
  5
1CE
330
1F
100
AcDbDictionary
280
     1
281
     1
  3
ACAD_SORTENTS
360
1CF
  0
DICTIONARY
  5
641
330
634
100
AcDbDictionary
280
     1
281
     1
  3
ACAD_DIMASSOC
360
64B
  0
DICTIONARY
  5
14D7
102
{ACAD_REACTORS
330
C
102
}
330
C
100
AcDbDictionary
281
     1
  3
DIMFXL
350
14D8
  0
DICTIONARY
  5
6B
102
{ACAD_REACTORS
330
C
102
}
330
C
100
AcDbDictionary
281
     1
  0
DICTIONARY
  5
D
102
{ACAD_REACTORS
330
C
102
}
330
C
100
AcDbDictionary
281
     1
  3
*A1
350
147F
  3
*A2
350
1480
  3
*A3
350
1481
  3
*A4
350
1482
  0
DICTIONARY
  5
C43
102
{ACAD_REACTORS
330
C
102
}
330
C
100
AcDbDictionary
281
     1
  3
SLK05_stor
350
C44
  0
RASTERVARIABLES
  5
C46
102
{ACAD_REACTORS
330
C
102
}
330
C
100
AcDbRasterVariables
 90
        0
 70
     1
 71
     1
 72
     1
  0
DICTIONARY
  5
1A
102
{ACAD_REACTORS
330
C
102
}
330
C
100
AcDbDictionary
281
     1
  3
Layout1
350
D3
  3
Layout2
350
D7
  3
Model
350
22
  0
DICTIONARY
  5
6A
102
{ACAD_REACTORS
330
C
102
}
330
C
100
AcDbDictionary
281
     1
  3
ByBlock
350
ED
  3
ByLayer
350
EC
  3
Global
350
EE
  0
DICTIONARY
  5
12D
102
{ACAD_REACTORS
330
C
102
}
330
C
100
AcDbDictionary
281
     1
  3
Annotative
350
13B
  3
Standard
350
12E
  0
DICTIONARY
  5
17
102
{ACAD_REACTORS
330
C
102
}
330
C
100
AcDbDictionary
281
     1
  3
Standard
350
18
  0
DICTIONARY
  5
19
102
{ACAD_REACTORS
330
C
102
}
330
C
100
AcDbDictionary
281
     1
  0
ACDBDICTIONARYWDFLT
  5
E
102
{ACAD_REACTORS
330
C
102
}
330
C
100
AcDbDictionary
281
     1
  3
Normal
350
F
100
AcDbDictionaryWithDefault
340
F
  0
DICTIONARY
  5
10C
102
{ACAD_REACTORS
330
C
102
}
330
C
100
AcDbDictionary
281
     1
  3
A0
350
10D
  3
A1
350
188
  3
A2
350
189
  3
A3
350
18A
  3
A4
350
18B
  3
A5
350
18C
  3
A6
350
18D
  3
A7
350
18E
  3
A8
350
18F
  3
A9
350
190
  3
B0
350
191
  3
B1
350
192
  3
B2
350
193
  3
B3
350
194
  3
B4
350
195
  3
B5
350
196
  3
B6
350
197
  3
B7
350
198
  3
B8
350
199
  3
B9
350
19A
  3
C0
350
19B
  3
C1
350
19C
  3
C2
350
19D
  3
C3
350
19E
  3
C4
350
19F
  3
C5
350
1A0
  3
C6
350
1A1
  3
C7
350
1A2
  3
C8
350
1A3
  3
C9
350
1A4
  3
D0
350
1A5
  3
D1
350
1A6
  3
D2
350
1A7
  0
DICTIONARY
  5
7E
102
{ACAD_REACTORS
330
C
102
}
330
C
100
AcDbDictionary
281
     1
  3
Standard
350
7F
  0
DICTIONARY
  5
EF
102
{ACAD_REACTORS
330
C
102
}
330
C
100
AcDbDictionary
281
     1
  3
2dWireframe
350
F5
  3
3D Hidden
350
F7
  3
3dWireframe
350
F6
  3
Basic
350
F4
  3
Brighten
350
FB
  3
ColorChange
350
FF
  3
Conceptual
350
F8
  3
Dim
350
FA
  3
Facepattern
350
FE
  3
Flat
350
F0
  3
FlatWithEdges
350
F1
  3
Gouraud
350
F2
  3
GouraudWithEdges
350
F3
  3
Linepattern
350
FD
  3
Realistic
350
F9
  3
Thicken
350
FC
  0
XRECORD
  5
15D
102
{ACAD_REACTORS
330
C
102
}
330
C
100
AcDbXrecord
280
     1
 90
        1
330
7F
  0
DICTIONARY
  5
5E
102
{ACAD_REACTORS
330
C
102
}
330
C
100
AcDbDictionary
281
     1
  3
CANNOSCALE
350
146
  3
CMLEADERSTYLE
350
145
  3
CTABLESTYLE
350
84
  3
DIMASSOC
350
5F
  3
HIDETEXT
350
63
  3
INDEXCTL
350
1357
  3
LIGHTINGUNITS
350
1355
  3
MSLTSCALE
350
1354
  3
PSOLHEIGHT
350
14D4
  3
PSOLWIDTH
350
14D3
  3
SORTENTS
350
1356
  0
XRECORD
  5
14D6
102
{ACAD_REACTORS
330
C
102
}
330
C
100
AcDbXrecord
280
     1
  1
DWGPROPS COOKIE
  2

  3

  4

  6

  7

  8
dk
  9

300
=
301
=
302
=
303
=
304
=
305
=
306
=
307
=
308
=
309
=
 40
0.3514135069444444
 41
2454525.590090787
 42
2454547.697352581
  1

 90
        0
  0
XRECORD
  5
6BF
102
{ACAD_REACTORS
330
13C
102
}
330
13C
100
AcDbXrecord
280
     1
290
     1
  0
SORTENTSTABLE
  5
1CF
102
{ACAD_REACTORS
330
1CE
102
}
330
1CE
100
AcDbSortentsTable
330
1F
331
219
  5
219
331
1E2
  5
1E5
331
221
  5
221
331
229
  5
229
331
1EA
  5
1EB
331
1C8
  5
1CB
331
231
  5
231
331
239
  5
239
331
241
  5
241
331
1BB
  5
1BB
331
202
  5
207
331
1D3
  5
1D7
331
20A
  5
20E
331
1DB
  5
1DF
331
212
  5
1EA
331
259
  5
25A
331
261
  5
261
331
21A
  5
21A
331
222
  5
222
331
1E3
  5
1E6
331
1EB
  5
1ED
331
22A
  5
22A
331
1F3
  5
1FE
331
1C9
  5
1CC
331
232
  5
232
331
23A
  5
23A
331
242
  5
242
331
24A
  5
24A
331
1BC
  5
1BC
331
203
  5
208
331
20B
  5
20F
331
772
  5
772
331
78A
  5
78A
331
252
  5
252
331
25A
  5
25B
331
26A
  5
26A
331
21B
  5
21B
331
1E4
  5
1D1
331
223
  5
223
331
22B
  5
22B
331
1EC
  5
1F1
331
233
  5
233
331
23B
  5
23B
331
243
  5
243
331
204
  5
20A
331
1D5
  5
1D8
331
20C
  5
210
331
1DD
  5
1E0
331
214
  5
214
331
25B
  5
25D
331
263
  5
263
331
1E5
  5
1D2
331
224
  5
224
331
1ED
  5
1F5
331
22C
  5
22C
331
1F5
  5
1FF
331
1CB
  5
1CD
331
234
  5
234
331
23C
  5
23C
331
244
  5
244
331
1BE
  5
1C0
331
1FD
  5
201
331
205
  5
20B
331
20D
  5
211
331
1D6
  5
1D9
331
1DE
  5
1E1
331
254
  5
254
331
264
  5
264
331
21D
  5
21D
331
1E6
  5
1D3
331
225
  5
225
331
22D
  5
22D
331
1EE
  5
1F9
331
235
  5
235
331
23D
  5
23D
331
245
  5
245
331
1FE
  5
202
331
1BF
  5
1C1
331
1D7
  5
1DA
331
20E
  5
1F3
331
1DF
  5
1E2
331
255
  5
255
331
25D
  5
25E
331
265
  5
265
331
21E
  5
21E
331
1E7
  5
1E7
331
226
  5
226
331
22E
  5
22E
331
1CD
  5
1BF
331
236
  5
236
331
23E
  5
23E
331
246
  5
246
331
1C0
  5
1C2
331
1FF
  5
203
331
1D0
  5
1BE
331
20F
  5
1EE
331
1D8
  5
1DB
331
217
  5
217
331
6EE
  5
6EE
331
25E
  5
25F
331
21F
  5
21F
331
1E8
  5
1E8
331
227
  5
227
331
22F
  5
22F
331
237
  5
237
331
23F
  5
23F
331
200
  5
204
331
1C1
  5
1C6
331
1D1
  5
1D5
331
208
  5
20D
331
1D9
  5
1DD
331
25F
  5
259
331
218
  5
218
331
220
  5
220
331
1E9
  5
1E9
331
228
  5
228
331
1F1
  5
1FD
331
634
  5
634
331
64C
  5
64C
331
230
  5
230
331
238
  5
238
331
240
  5
240
331
1BA
  5
1BA
331
1F9
  5
200
331
1C2
  5
1C8
331
201
  5
205
331
1D2
  5
1D6
331
211
  5
1EC
331
1DA
  5
1DE
331
258
  5
258
  0
DIMASSOC
  5
64B
102
{ACAD_REACTORS
330
641
102
}
330
641
100
AcDbDimAssoc
330
634
 90
        1
 70
     0
 71
     0
  1
AcDbOsnapPointRef
 72
     6
331
1DB
 73
     2
 91
        0
 40
1.37893184196775
 10
0.0
 20
0.0
 30
0.0
332
20A
 74
     2
 92
        0
 75
     0
  0
XRECORD
  5
14D8
102
{ACAD_REACTORS
330
14D7
102
}
330
14D7
100
AcDbXrecord
280
     1
 40
1.25
  0
GROUP
  5
147F
102
{ACAD_REACTORS
330
D
102
}
330
D
100
AcDbGroup
300

 70
     1
 71
     1
340
21D
340
21B
340
219
340
217
340
214
340
20C
340
20A
340
208
340
205
340
204
340
203
340
202
340
201
340
200
340
1FF
340
1FE
340
1FD
340
1F9
340
1F5
340
1F3
340
20E
340
20F
340
211
340
212
340
1E8
340
1E3
340
1E2
340
1DF
340
1DE
340
1DB
340
21A
340
218
340
20D
340
20B
340
1EE
340
1ED
340
1EC
340
1EB
340
1EA
340
1E9
340
1DD
  0
GROUP
  5
1480
102
{ACAD_REACTORS
330
D
102
}
330
D
100
AcDbGroup
300

 70
     1
 71
     1
340
1F1
340
1E7
340
1DA
340
1D9
340
1D8
340
1D7
340
1D6
340
1D5
340
1D3
340
1D2
340
1D1
340
1E6
340
1E5
340
1E4
340
1CB
340
1C9
340
1C8
340
1C2
340
1C1
340
1C0
340
1BF
340
1BE
340
1CD
340
1D0
340
1BC
340
1BB
340
1BA
  0
GROUP
  5
1481
102
{ACAD_REACTORS
330
D
102
}
330
D
100
AcDbGroup
300

 70
     1
 71
     1
340
26A
340
265
340
264
340
263
340
261
340
25E
340
25D
340
259
340
25F
340
258
340
255
340
254
340
25B
340
25A
  0
GROUP
  5
1482
102
{ACAD_REACTORS
330
D
102
}
330
D
100
AcDbGroup
300

 70
     1
 71
     1
340
252
340
24A
340
246
340
245
340
244
340
243
340
242
340
241
340
240
340
23F
340
23E
340
23D
340
23C
340
23B
340
23A
340
239
340
238
340
237
340
236
340
235
340
234
340
233
340
232
340
231
340
230
340
22F
340
22E
340
22D
340
22C
340
22B
340
22A
340
229
340
228
340
227
340
226
340
225
340
224
340
223
340
222
340
221
340
220
340
21F
340
21E
  0
IMAGEDEF
  5
C44
102
{ACAD_REACTORS
330
C43
102
}
330
C43
100
AcDbRasterImageDef
 90
        0
  1
C:\Users\Magnus Helgesson\Projekt\Magnusprojekt\Marbit\Naturlek\SLK05_stor.jpg
 10
1136.0
 20
852.0
 11
0.0008802816901408
 21
0.0008802816901408
280
     1
281
     0
  0
LAYOUT
  5
D3
102
{ACAD_XDICTIONARY
360
14DC
102
}
102
{ACAD_REACTORS
330
1A
102
}
330
1A
100
AcDbPlotSettings
  1

  2
C:\Documents and Settings\basas\Application Data\Autodesk\AutoCAD 2005\R16.1\enu\plotters\Default Windows System Printer.pc3
  4

  6

 40
0.0
 41
0.0
 42
0.0
 43
0.0
 44
0.0
 45
0.0
 46
0.0
 47
0.0
 48
0.0
 49
0.0
140
0.0
141
0.0
142
1.0
143
1.0
 70
   688
 72
     0
 73
     0
 74
     5
  7

 75
    16
147
1.0
148
0.0
149
0.0
100
AcDbLayout
  1
Layout1
 70
     1
 71
     1
 10
0.0
 20
0.0
 11
12.0
 21
9.0
 12
0.0
 22
0.0
 32
0.0
 14
0.0
 24
0.0
 34
0.0
 15
0.0
 25
0.0
 35
0.0
146
0.0
 13
0.0
 23
0.0
 33
0.0
 16
1.0
 26
0.0
 36
0.0
 17
0.0
 27
1.0
 37
0.0
 76
     0
330
D2
  0
LAYOUT
  5
D7
102
{ACAD_XDICTIONARY
360
14DE
102
}
102
{ACAD_REACTORS
330
1A
102
}
330
1A
100
AcDbPlotSettings
  1

  2
C:\Documents and Settings\basas\Application Data\Autodesk\AutoCAD 2005\R16.1\enu\plotters\Default Windows System Printer.pc3
  4

  6

 40
0.0
 41
0.0
 42
0.0
 43
0.0
 44
0.0
 45
0.0
 46
0.0
 47
0.0
 48
0.0
 49
0.0
140
0.0
141
0.0
142
1.0
143
1.0
 70
   688
 72
     0
 73
     0
 74
     5
  7

 75
    16
147
1.0
148
0.0
149
0.0
100
AcDbLayout
  1
Layout2
 70
     1
 71
     2
 10
0.0
 20
0.0
 11
12.0
 21
9.0
 12
0.0
 22
0.0
 32
0.0
 14
0.0
 24
0.0
 34
0.0
 15
0.0
 25
0.0
 35
0.0
146
0.0
 13
0.0
 23
0.0
 33
0.0
 16
1.0
 26
0.0
 36
0.0
 17
0.0
 27
1.0
 37
0.0
 76
     0
330
D6
  0
LAYOUT
  5
22
102
{ACAD_XDICTIONARY
360
14D9
102
}
102
{ACAD_REACTORS
330
1A
102
}
330
1A
100
AcDbPlotSettings
  1

  2
none_device
  4
ISO_A4_(210.00_x_297.00_MM)
  6

 40
7.5
 41
20.0
 42
7.5
 43
20.0
 44
210.0
 45
297.0
 46
11.54999923706054
 47
-13.65000009536743
 48
0.0
 49
0.0
140
0.0
141
0.0
142
1.0
143
8.704084754739808
 70
 11952
 72
     1
 73
     0
 74
     0
  7

 75
     0
147
0.1148885871608098
148
0.0
149
0.0
100
AcDbLayout
  1
Model
 70
     1
 71
     0
 10
0.0
 20
0.0
 11
12.0
 21
9.0
 12
0.0
 22
0.0
 32
0.0
 14
0.0
 24
0.0
 34
0.0
 15
0.0
 25
0.0
 35
0.0
146
0.0
 13
0.0
 23
0.0
 33
0.0
 16
1.0
 26
0.0
 36
0.0
 17
0.0
 27
1.0
 37
0.0
 76
     0
330
1F
331
EA
1001
ACAD_PSEXT
1000
None
1000
None
1000
Not applicable
1000
The layout will not be plotted unless a new plotter configuration name is selected.
1070
     0
  0
MATERIAL
  5
ED
102
{ACAD_XDICTIONARY
360
1494
102
}
102
{ACAD_REACTORS
330
6A
102
}
330
6A
100
AcDbMaterial
  1
ByBlock
  0
MATERIAL
  5
EC
102
{ACAD_XDICTIONARY
360
1492
102
}
102
{ACAD_REACTORS
330
6A
102
}
330
6A
100
AcDbMaterial
  1
ByLayer
  0
MATERIAL
  5
EE
102
{ACAD_XDICTIONARY
360
173
102
}
102
{ACAD_REACTORS
330
6A
102
}
330
6A
100
AcDbMaterial
  1
Global
 43
0.0007999999797903
 43
0.0
 43
0.0
 43
0.0
 43
0.0
 43
0.0007999999797903
 43
0.0
 43
0.0
 43
0.0
 43
0.0
 43
1.0
 43
0.0
 43
0.0
 43
0.0
 43
0.0
 43
1.0
 49
0.0007999999797903
 49
0.0
 49
0.0
 49
0.0
 49
0.0
 49
0.0007999999797903
 49
0.0
 49
0.0
 49
0.0
 49
0.0
 49
1.0
 49
0.0
 49
0.0
 49
0.0
 49
0.0
 49
1.0
142
0.0007999999797903
142
0.0
142
0.0
142
0.0
142
0.0
142
0.0007999999797903
142
0.0
142
0.0
142
0.0
142
0.0
142
1.0
142
0.0
142
0.0
142
0.0
142
0.0
142
1.0
144
0.0007999999797903
144
0.0
144
0.0
144
0.0
144
0.0
144
0.0007999999797903
144
0.0
144
0.0
144
0.0
144
0.0
144
1.0
144
0.0
144
0.0
144
0.0
144
0.0
144
1.0
1001
ACAD
1070
    -1
1070
     3
1070
     0
1000

1071
        0
1070
     0
  0
MLEADERSTYLE
  5
13B
102
{ACAD_REACTORS
330
12D
102
}
330
12D
100
AcDbMLeaderStyle
170
     2
171
     1
172
     0
 90
        2
 40
0.0
 41
0.0
173
     1
 91
-1056964608
340
14
 92
       -2
290
     1
 42
2.0
291
     1
 43
8.0
  3
Standard
 44
4.0
300

342
11
174
     1
178
     1
175
     1
176
     0
 93
-1056964608
 45
4.0
292
     0
297
     0
 46
4.0
 94
-1056964608
 47
1.0
 49
1.0
140
1.0
293
     1
141
0.0
294
     1
177
     0
142
1.0
295
     0
296
     1
143
3.75
1001
ACAD_MLEADERVER
1070
     2
  0
MLEADERSTYLE
  5
12E
102
{ACAD_REACTORS
330
12D
102
}
330
12D
100
AcDbMLeaderStyle
170
     2
171
     1
172
     0
 90
        2
 40
0.0
 41
0.0
173
     1
 91
-1056964608
340
14
 92
       -2
290
     1
 42
2.0
291
     1
 43
8.0
  3
Standard
 44
4.0
300

342
11
174
     1
178
     1
175
     1
176
     0
 93
-1056964608
 45
4.0
292
     0
297
     0
 46
4.0
 94
-1056964608
 47
1.0
 49
1.0
140
1.0
293
     1
141
0.0
294
     1
177
     0
142
1.0
295
     0
296
     0
143
3.75
1001
ACAD_MLEADERVER
1070
     2
  0
MLINESTYLE
  5
18
102
{ACAD_REACTORS
330
17
102
}
330
17
100
AcDbMlineStyle
  2
STANDARD
 70
     0
  3

 62
   256
 51
90.0
 52
90.0
 71
     2
 49
0.5
 62
   256
  6
BYLAYER
 49
-0.5
 62
   256
  6
BYLAYER
  0
ACDBPLACEHOLDER
  5
F
102
{ACAD_REACTORS
330
E
102
}
330
E
  0
SCALE
  5
10D
102
{ACAD_REACTORS
330
10C
102
}
330
10C
100
AcDbScale
 70
     0
300
1:1
140
1.0
141
1.0
290
     1
  0
SCALE
  5
188
102
{ACAD_REACTORS
330
10C
102
}
330
10C
100
AcDbScale
 70
     0
300
1:2
140
1.0
141
2.0
290
     0
  0
SCALE
  5
189
102
{ACAD_REACTORS
330
10C
102
}
330
10C
100
AcDbScale
 70
     0
300
1:4
140
1.0
141
4.0
290
     0
  0
SCALE
  5
18A
102
{ACAD_REACTORS
330
10C
102
}
330
10C
100
AcDbScale
 70
     0
300
1:5
140
1.0
141
5.0
290
     0
  0
SCALE
  5
18B
102
{ACAD_REACTORS
330
10C
102
}
330
10C
100
AcDbScale
 70
     0
300
1:8
140
1.0
141
8.0
290
     0
  0
SCALE
  5
18C
102
{ACAD_REACTORS
330
10C
102
}
330
10C
100
AcDbScale
 70
     0
300
1:10
140
1.0
141
10.0
290
     0
  0
SCALE
  5
18D
102
{ACAD_REACTORS
330
10C
102
}
330
10C
100
AcDbScale
 70
     0
300
1:16
140
1.0
141
16.0
290
     0
  0
SCALE
  5
18E
102
{ACAD_REACTORS
330
10C
102
}
330
10C
100
AcDbScale
 70
     0
300
1:20
140
1.0
141
20.0
290
     0
  0
SCALE
  5
18F
102
{ACAD_REACTORS
330
10C
102
}
330
10C
100
AcDbScale
 70
     0
300
1:30
140
1.0
141
30.0
290
     0
  0
SCALE
  5
190
102
{ACAD_REACTORS
330
10C
102
}
330
10C
100
AcDbScale
 70
     0
300
1:40
140
1.0
141
40.0
290
     0
  0
SCALE
  5
191
102
{ACAD_REACTORS
330
10C
102
}
330
10C
100
AcDbScale
 70
     0
300
1:50
140
1.0
141
50.0
290
     0
  0
SCALE
  5
192
102
{ACAD_REACTORS
330
10C
102
}
330
10C
100
AcDbScale
 70
     0
300
1:100
140
1.0
141
100.0
290
     0
  0
SCALE
  5
193
102
{ACAD_REACTORS
330
10C
102
}
330
10C
100
AcDbScale
 70
     0
300
2:1
140
2.0
141
1.0
290
     0
  0
SCALE
  5
194
102
{ACAD_REACTORS
330
10C
102
}
330
10C
100
AcDbScale
 70
     0
300
4:1
140
4.0
141
1.0
290
     0
  0
SCALE
  5
195
102
{ACAD_REACTORS
330
10C
102
}
330
10C
100
AcDbScale
 70
     0
300
8:1
140
8.0
141
1.0
290
     0
  0
SCALE
  5
196
102
{ACAD_REACTORS
330
10C
102
}
330
10C
100
AcDbScale
 70
     0
300
10:1
140
10.0
141
1.0
290
     0
  0
SCALE
  5
197
102
{ACAD_REACTORS
330
10C
102
}
330
10C
100
AcDbScale
 70
     0
300
100:1
140
100.0
141
1.0
290
     0
  0
SCALE
  5
198
102
{ACAD_REACTORS
330
10C
102
}
330
10C
100
AcDbScale
 70
     0
300
1/128" = 1'-0"
140
0.0078125
141
12.0
290
     0
  0
SCALE
  5
199
102
{ACAD_REACTORS
330
10C
102
}
330
10C
100
AcDbScale
 70
     0
300
1/64" = 1'-0"
140
0.015625
141
12.0
290
     0
  0
SCALE
  5
19A
102
{ACAD_REACTORS
330
10C
102
}
330
10C
100
AcDbScale
 70
     0
300
1/32" = 1'-0"
140
0.03125
141
12.0
290
     0
  0
SCALE
  5
19B
102
{ACAD_REACTORS
330
10C
102
}
330
10C
100
AcDbScale
 70
     0
300
1/16" = 1'-0"
140
0.0625
141
12.0
290
     0
  0
SCALE
  5
19C
102
{ACAD_REACTORS
330
10C
102
}
330
10C
100
AcDbScale
 70
     0
300
3/32" = 1'-0"
140
0.09375
141
12.0
290
     0
  0
SCALE
  5
19D
102
{ACAD_REACTORS
330
10C
102
}
330
10C
100
AcDbScale
 70
     0
300
1/8" = 1'-0"
140
0.125
141
12.0
290
     0
  0
SCALE
  5
19E
102
{ACAD_REACTORS
330
10C
102
}
330
10C
100
AcDbScale
 70
     0
300
3/16" = 1'-0"
140
0.1875
141
12.0
290
     0
  0
SCALE
  5
19F
102
{ACAD_REACTORS
330
10C
102
}
330
10C
100
AcDbScale
 70
     0
300
1/4" = 1'-0"
140
0.25
141
12.0
290
     0
  0
SCALE
  5
1A0
102
{ACAD_REACTORS
330
10C
102
}
330
10C
100
AcDbScale
 70
     0
300
3/8" = 1'-0"
140
0.375
141
12.0
290
     0
  0
SCALE
  5
1A1
102
{ACAD_REACTORS
330
10C
102
}
330
10C
100
AcDbScale
 70
     0
300
1/2" = 1'-0"
140
0.5
141
12.0
290
     0
  0
SCALE
  5
1A2
102
{ACAD_REACTORS
330
10C
102
}
330
10C
100
AcDbScale
 70
     0
300
3/4" = 1'-0"
140
0.75
141
12.0
290
     0
  0
SCALE
  5
1A3
102
{ACAD_REACTORS
330
10C
102
}
330
10C
100
AcDbScale
 70
     0
300
1" = 1'-0"
140
1.0
141
12.0
290
     0
  0
SCALE
  5
1A4
102
{ACAD_REACTORS
330
10C
102
}
330
10C
100
AcDbScale
 70
     0
300
1-1/2" = 1'-0"
140
1.5
141
12.0
290
     0
  0
SCALE
  5
1A5
102
{ACAD_REACTORS
330
10C
102
}
330
10C
100
AcDbScale
 70
     0
300
3" = 1'-0"
140
3.0
141
12.0
290
     0
  0
SCALE
  5
1A6
102
{ACAD_REACTORS
330
10C
102
}
330
10C
100
AcDbScale
 70
     0
300
6" = 1'-0"
140
6.0
141
12.0
290
     0
  0
SCALE
  5
1A7
102
{ACAD_REACTORS
330
10C
102
}
330
10C
100
AcDbScale
 70
     0
300
1'-0" = 1'-0"
140
12.0
141
12.0
290
     0
  0
TABLESTYLE
  5
7F
102
{ACAD_XDICTIONARY
360
162
102
}
102
{ACAD_REACTORS
330
7E
102
}
330
7E
100
AcDbTableStyle
  3
Standard
 70
     0
 71
     0
 40
1.5
 41
1.5
280
     0
281
     0
  7
Standard
140
4.5
170
     2
 62
     0
 63
     7
283
     0
274
    -2
284
     1
 64
     0
275
    -2
285
     1
 65
     0
276
    -2
286
     1
 66
     0
277
    -2
287
     1
 67
     0
278
    -2
288
     1
 68
     0
279
    -2
289
     1
 69
     0
  7
Standard
140
6.0
170
     5
 62
     0
 63
     7
283
     0
274
    -2
284
     1
 64
     0
275
    -2
285
     1
 65
     0
276
    -2
286
     1
 66
     0
277
    -2
287
     1
 67
     0
278
    -2
288
     1
 68
     0
279
    -2
289
     1
 69
     0
  7
Standard
140
4.5
170
     5
 62
     0
 63
     7
283
     0
274
    -2
284
     1
 64
     0
275
    -2
285
     1
 65
     0
276
    -2
286
     1
 66
     0
277
    -2
287
     1
 67
     0
278
    -2
288
     1
 68
     0
279
    -2
289
     1
 69
     0
  0
VISUALSTYLE
  5
F5
102
{ACAD_REACTORS
330
EF
102
}
330
EF
100
AcDbVisualStyle
  2
2dWireframe
 70
     4
 71
     0
 72
     2
 73
     1
 90
        0
 40
-0.6
 41
-30.0
 62
     5
 63
     7
 74
     1
 91
        4
 64
     7
 65
   257
 75
     1
175
     1
 42
1.0
 92
        0
 66
   257
 43
1.0
 76
     1
 77
     6
 78
     2
 67
     7
 79
     5
170
     0
171
     0
290
     0
174
     0
 93
        1
 44
0.0
173
     0
291
     0
 45
0.0
1001
ACAD
1000
AcDbSavedByObjectVersion
1070
     0
1000
AcDbSavedByObjectVersion
1070
     0
  0
VISUALSTYLE
  5
F7
102
{ACAD_REACTORS
330
EF
102
}
330
EF
100
AcDbVisualStyle
  2
3D Hidden
 70
     6
 71
     1
 72
     2
 73
     2
 90
        0
 40
-0.6
 41
-30.0
 62
     5
 63
     7
 74
     2
 91
        2
 64
     7
 65
   257
 75
     2
175
     1
 42
40.0
 92
        0
 66
   257
 43
1.0
 76
     1
 77
     6
 78
     2
 67
     7
 79
     3
170
     0
171
     0
290
     0
174
     0
 93
        1
 44
0.0
173
     0
291
     0
 45
0.0
1001
ACAD
1000
AcDbSavedByObjectVersion
1070
     0
1000
AcDbSavedByObjectVersion
1070
     0
  0
VISUALSTYLE
  5
F6
102
{ACAD_REACTORS
330
EF
102
}
330
EF
100
AcDbVisualStyle
  2
3dWireframe
 70
     5
 71
     0
 72
     2
 73
     1
 90
        0
 40
-0.6
 41
-30.0
 62
     5
 63
     7
 74
     1
 91
        4
 64
     7
 65
   257
 75
     1
175
     1
 42
1.0
 92
        0
 66
   257
 43
1.0
 76
     1
 77
     6
 78
     2
 67
     7
 79
     5
170
     0
171
     0
290
     0
174
     0
 93
        1
 44
0.0
173
     0
291
     0
 45
0.0
1001
ACAD
1000
AcDbSavedByObjectVersion
1070
     0
1000
AcDbSavedByObjectVersion
1070
     0
  0
VISUALSTYLE
  5
F4
102
{ACAD_REACTORS
330
EF
102
}
330
EF
100
AcDbVisualStyle
  2
Basic
 70
     7
 71
     1
 72
     0
 73
     1
 90
        0
 40
-0.6
 41
-30.0
 62
     5
 63
     7
 74
     0
 91
        4
 64
     7
 65
   257
 75
     1
175
     1
 42
1.0
 92
        8
 66
     7
 43
1.0
 76
     1
 77
     6
 78
     2
 67
     7
 79
     5
170
     0
171
     0
290
     0
174
     0
 93
        1
 44
0.0
173
     0
291
     1
 45
0.0
1001
ACAD
1000
AcDbSavedByObjectVersion
1070
     0
1000
AcDbSavedByObjectVersion
1070
     0
  0
VISUALSTYLE
  5
FB
102
{ACAD_REACTORS
330
EF
102
}
330
EF
100
AcDbVisualStyle
  2
Brighten
 70
    12
 71
     2
 72
     2
 73
     1
 90
        0
 40
-0.6
 41
-30.0
 62
     5
 63
     7
 74
     1
 91
        4
 64
     7
 65
   257
 75
     1
175
     1
 42
1.0
 92
        8
 66
     7
 43
1.0
 76
     1
 77
     6
 78
     2
 67
     7
 79
     5
170
     0
171
     0
290
     0
174
     0
 93
        1
 44
50.0
173
     0
291
     1
 45
0.0
1001
ACAD
1000
AcDbSavedByObjectVersion
1070
     0
1000
AcDbSavedByObjectVersion
1070
     0
  0
VISUALSTYLE
  5
FF
102
{ACAD_REACTORS
330
EF
102
}
330
EF
100
AcDbVisualStyle
  2
ColorChange
 70
    16
 71
     2
 72
     2
 73
     3
 90
        0
 40
-0.6
 41
-30.0
 62
     5
 63
     8
 74
     1
 91
        4
 64
     7
 65
   257
 75
     1
175
     1
 42
1.0
 92
        8
 66
     8
 43
1.0
 76
     1
 77
     6
 78
     2
 67
     7
 79
     5
170
     0
171
     0
290
     0
174
     0
 93
        1
 44
0.0
173
     0
291
     1
 45
0.0
1001
ACAD
1000
AcDbSavedByObjectVersion
1070
     0
1000
AcDbSavedByObjectVersion
1070
     0
  0
VISUALSTYLE
  5
F8
102
{ACAD_REACTORS
330
EF
102
}
330
EF
100
AcDbVisualStyle
  2
Conceptual
 70
     9
 71
     3
 72
     2
 73
     1
 90
        0
 40
-0.6
 41
-30.0
 62
     5
 63
     7
 74
     2
 91
        2
 64
     7
 65
   257
 75
     1
175
     1
 42
40.0
 92
        8
 66
     7
 43
1.0
 76
     1
 77
     6
 78
     2
 67
     7
 79
     3
170
     0
171
     0
290
     0
174
     0
 93
        1
 44
0.0
173
     0
291
     0
 45
0.0
1001
ACAD
1000
AcDbSavedByObjectVersion
1070
     0
1000
AcDbSavedByObjectVersion
1070
     0
  0
VISUALSTYLE
  5
FA
102
{ACAD_REACTORS
330
EF
102
}
330
EF
100
AcDbVisualStyle
  2
Dim
 70
    11
 71
     2
 72
     2
 73
     1
 90
        0
 40
-0.6
 41
-30.0
 62
     5
 63
     7
 74
     1
 91
        4
 64
     7
 65
   257
 75
     1
175
     1
 42
1.0
 92
        8
 66
     7
 43
1.0
 76
     1
 77
     6
 78
     2
 67
     7
 79
     5
170
     0
171
     0
290
     0
174
     0
 93
        1
 44
-50.0
173
     0
291
     1
 45
0.0
1001
ACAD
1000
AcDbSavedByObjectVersion
1070
     0
1000
AcDbSavedByObjectVersion
1070
     0
  0
VISUALSTYLE
  5
FE
102
{ACAD_REACTORS
330
EF
102
}
330
EF
100
AcDbVisualStyle
  2
Facepattern
 70
    15
 71
     2
 72
     2
 73
     1
 90
        0
 40
-0.6
 41
-30.0
 62
     5
 63
     7
 74
     1
 91
        4
 64
     7
 65
   257
 75
     1
175
     1
 42
1.0
 92
        8
 66
     7
 43
1.0
 76
     1
 77
     6
 78
     2
 67
     7
 79
     5
170
     0
171
     0
290
     0
174
     0
 93
        1
 44
0.0
173
     0
291
     1
 45
0.0
1001
ACAD
1000
AcDbSavedByObjectVersion
1070
     0
1000
AcDbSavedByObjectVersion
1070
     0
  0
VISUALSTYLE
  5
F0
102
{ACAD_REACTORS
330
EF
102
}
330
EF
100
AcDbVisualStyle
  2
Flat
 70
     0
 71
     2
 72
     1
 73
     1
 90
        2
 40
-0.6
 41
30.0
 62
     5
 63
     7
 74
     0
 91
        4
 64
     7
 65
   257
 75
     1
175
     1
 42
1.0
 92
        8
 66
     7
 43
1.0
 76
     1
 77
     6
 78
     2
 67
     7
 79
     5
170
     0
171
     0
290
     0
174
     0
 93
        1
 44
0.0
173
     0
291
     1
 45
0.0
1001
ACAD
1000
AcDbSavedByObjectVersion
1070
     0
1000
AcDbSavedByObjectVersion
1070
     0
  0
VISUALSTYLE
  5
F1
102
{ACAD_REACTORS
330
EF
102
}
330
EF
100
AcDbVisualStyle
  2
FlatWithEdges
 70
     1
 71
     2
 72
     1
 73
     1
 90
        2
 40
-0.6
 41
30.0
 62
     5
 63
     7
 74
     1
 91
        4
 64
     7
 65
   257
 75
     1
175
     1
 42
1.0
 92
        0
 66
   257
 43
1.0
 76
     1
 77
     6
 78
     2
 67
     7
 79
     5
170
     0
171
     0
290
     0
174
     0
 93
        1
 44
0.0
173
     0
291
     1
 45
0.0
1001
ACAD
1000
AcDbSavedByObjectVersion
1070
     0
1000
AcDbSavedByObjectVersion
1070
     0
  0
VISUALSTYLE
  5
F2
102
{ACAD_REACTORS
330
EF
102
}
330
EF
100
AcDbVisualStyle
  2
Gouraud
 70
     2
 71
     2
 72
     2
 73
     1
 90
        2
 40
-0.6
 41
30.0
 62
     5
 63
     7
 74
     0
 91
        4
 64
     7
 65
   257
 75
     1
175
     1
 42
1.0
 92
        0
 66
     7
 43
1.0
 76
     1
 77
     6
 78
     2
 67
     7
 79
     5
170
     0
171
     0
290
     0
174
     0
 93
        1
 44
0.0
173
     0
291
     1
 45
0.0
1001
ACAD
1000
AcDbSavedByObjectVersion
1070
     0
1000
AcDbSavedByObjectVersion
1070
     0
  0
VISUALSTYLE
  5
F3
102
{ACAD_REACTORS
330
EF
102
}
330
EF
100
AcDbVisualStyle
  2
GouraudWithEdges
 70
     3
 71
     2
 72
     2
 73
     1
 90
        2
 40
-0.6
 41
30.0
 62
     5
 63
     7
 74
     1
 91
        4
 64
     7
 65
   257
 75
     1
175
     1
 42
1.0
 92
        0
 66
   257
 43
1.0
 76
     1
 77
     6
 78
     2
 67
     7
 79
     5
170
     0
171
     0
290
     0
174
     0
 93
        1
 44
0.0
173
     0
291
     1
 45
0.0
1001
ACAD
1000
AcDbSavedByObjectVersion
1070
     0
1000
AcDbSavedByObjectVersion
1070
     0
  0
VISUALSTYLE
  5
FD
102
{ACAD_REACTORS
330
EF
102
}
330
EF
100
AcDbVisualStyle
  2
Linepattern
 70
    14
 71
     2
 72
     2
 73
     1
 90
        0
 40
-0.6
 41
-30.0
 62
     5
 63
     7
 74
     1
 91
        4
 64
     7
 65
   257
 75
     7
175
     7
 42
1.0
 92
        8
 66
     7
 43
1.0
 76
     1
 77
     6
 78
     2
 67
     7
 79
     5
170
     0
171
     0
290
     0
174
     0
 93
        1
 44
0.0
173
     0
291
     1
 45
0.0
1001
ACAD
1000
AcDbSavedByObjectVersion
1070
     0
1000
AcDbSavedByObjectVersion
1070
     0
  0
VISUALSTYLE
  5
F9
102
{ACAD_REACTORS
330
EF
102
}
330
EF
100
AcDbVisualStyle
  2
Realistic
 70
     8
 71
     2
 72
     2
 73
     1
 90
        0
 40
-0.6
 41
-30.0
 62
     5
 63
     7
 74
     1
 91
        0
 64
     7
 65
   257
 75
     1
175
     1
 42
1.0
 92
        8
 66
     8
 43
1.0
 76
     1
 77
     6
 78
     2
 67
     7
 79
     5
170
     0
171
     0
290
     0
174
     0
 93
       13
 44
0.0
173
     0
291
     0
 45
0.0
1001
ACAD
1000
AcDbSavedByObjectVersion
1070
     0
1000
AcDbSavedByObjectVersion
1070
     0
  0
VISUALSTYLE
  5
FC
102
{ACAD_REACTORS
330
EF
102
}
330
EF
100
AcDbVisualStyle
  2
Thicken
 70
    13
 71
     2
 72
     2
 73
     1
 90
        0
 40
-0.6
 41
-30.0
 62
     5
 63
     7
 74
     1
 91
        4
 64
     7
 65
   257
 75
     1
175
     1
 42
1.0
 92
       12
 66
     7
 43
1.0
 76
     1
 77
     6
 78
     2
 67
     7
 79
     5
170
     0
171
     0
290
     0
174
     0
 93
        1
 44
0.0
173
     0
291
     1
 45
0.0
1001
ACAD
1000
AcDbSavedByObjectVersion
1070
     0
1000
AcDbSavedByObjectVersion
1070
     0
  0
DICTIONARYVAR
  5
146
102
{ACAD_REACTORS
330
5E
102
}
330
5E
100
DictionaryVariables
280
     0
  1
1:1
  0
DICTIONARYVAR
  5
145
102
{ACAD_REACTORS
330
5E
102
}
330
5E
100
DictionaryVariables
280
     0
  1
STANDARD
  0
DICTIONARYVAR
  5
84
102
{ACAD_REACTORS
330
5E
102
}
330
5E
100
DictionaryVariables
280
     0
  1
STANDARD
  0
DICTIONARYVAR
  5
5F
102
{ACAD_REACTORS
330
5E
102
}
330
5E
100
DictionaryVariables
280
     0
  1
2
  0
DICTIONARYVAR
  5
63
102
{ACAD_REACTORS
330
5E
102
}
330
5E
100
DictionaryVariables
280
     0
  1
1
  0
DICTIONARYVAR
  5
1357
102
{ACAD_REACTORS
330
5E
102
}
330
5E
100
DictionaryVariables
280
     0
  1
0
  0
DICTIONARYVAR
  5
1355
102
{ACAD_REACTORS
330
5E
102
}
330
5E
100
DictionaryVariables
280
     0
  1
2
  0
DICTIONARYVAR
  5
1354
102
{ACAD_REACTORS
330
5E
102
}
330
5E
100
DictionaryVariables
280
     0
  1
1
  0
DICTIONARYVAR
  5
14D4
102
{ACAD_REACTORS
330
5E
102
}
330
5E
100
DictionaryVariables
280
     0
  1
80.000000
  0
DICTIONARYVAR
  5
14D3
102
{ACAD_REACTORS
330
5E
102
}
330
5E
100
DictionaryVariables
280
     0
  1
5.000000
  0
DICTIONARYVAR
  5
1356
102
{ACAD_REACTORS
330
5E
102
}
330
5E
100
DictionaryVariables
280
     0
  1
127
  0
DICTIONARY
  5
14DC
330
D3
100
AcDbDictionary
280
     1
281
     1
  3
ACAD_XREC_ROUNDTRIP
360
14DD
  0
DICTIONARY
  5
14DE
330
D7
100
AcDbDictionary
280
     1
281
     1
  3
ACAD_XREC_ROUNDTRIP
360
14DF
  0
DICTIONARY
  5
14D9
330
22
100
AcDbDictionary
280
     1
281
     1
  3
ACAD_XREC_ROUNDTRIP
360
14DA
  0
DICTIONARY
  5
1494
330
ED
100
AcDbDictionary
280
     1
281
     1
  3
ACAD_XREC_ROUNDTRIP
360
1495
  0
DICTIONARY
  5
1492
330
EC
100
AcDbDictionary
280
     1
281
     1
  3
ACAD_XREC_ROUNDTRIP
360
1493
  0
DICTIONARY
  5
173
330
EE
100
AcDbDictionary
280
     1
281
     1
  3
ACAD_XREC_ROUNDTRIP
360
1496
  3
BUMPTILE
360
175
  3
DIFFUSETILE
360
174
  3
OPACITYTILE
360
176
  3
REFLECTIONTILE
360
177
  0
DICTIONARY
  5
162
330
7F
100
AcDbDictionary
280
     1
281
     1
  3
ACAD_ROUNDTRIP_2008_TABLESTYLE_CELLSTYLEMAP
360
14D5
  3
ACAD_XREC_ROUNDTRIP
360
14DB
  0
XRECORD
  5
14DD
102
{ACAD_REACTORS
330
14DC
102
}
330
14DC
100
AcDbXrecord
280
     1
102
SHADEPLOT
 70
     0
102
SHADEPLOTRESLEVEL
 70
     2
102
SHADEPLOTCUSTOMDPI
 70
   300
  0
XRECORD
  5
14DF
102
{ACAD_REACTORS
330
14DE
102
}
330
14DE
100
AcDbXrecord
280
     1
102
SHADEPLOT
 70
     0
102
SHADEPLOTRESLEVEL
 70
     2
102
SHADEPLOTCUSTOMDPI
 70
   300
  0
XRECORD
  5
14DA
102
{ACAD_REACTORS
330
14D9
102
}
330
14D9
100
AcDbXrecord
280
     1
102
SHADEPLOT
 70
     0
102
SHADEPLOTRESLEVEL
 70
     2
102
SHADEPLOTCUSTOMDPI
 70
   300
  0
XRECORD
  5
1495
102
{ACAD_REACTORS
330
1494
102
}
330
1494
100
AcDbXrecord
280
     1
102
MATERIAL
148
0.0
149
0.0
149
0.0
 93
        0
 94
      127
282
     0
 72
     1
 77
     1
171
     1
175
     1
179
     1
273
     0
  0
XRECORD
  5
1493
102
{ACAD_REACTORS
330
1492
102
}
330
1492
100
AcDbXrecord
280
     1
102
MATERIAL
148
0.0
149
0.0
149
0.0
 93
        0
 94
      127
282
     0
 72
     1
 77
     1
171
     1
175
     1
179
     1
273
     0
  0
XRECORD
  5
1496
102
{ACAD_REACTORS
330
173
102
}
330
173
100
AcDbXrecord
280
     1
102
MATERIAL
148
0.0
149
0.0
149
0.0
 93
        0
 94
      127
282
     0
 72
     1
 77
     1
171
     1
175
     1
179
     1
273
     0
  0
XRECORD
  5
175
102
{ACAD_REACTORS
330
173
102
}
330
173
100
AcDbXrecord
280
     1
270
     1
271
     1
  0
XRECORD
  5
174
102
{ACAD_REACTORS
330
173
102
}
330
173
100
AcDbXrecord
280
     1
270
     1
271
     1
  0
XRECORD
  5
176
102
{ACAD_REACTORS
330
173
102
}
330
173
100
AcDbXrecord
280
     1
270
     1
271
     1
  0
XRECORD
  5
177
102
{ACAD_REACTORS
330
173
102
}
330
173
100
AcDbXrecord
280
     1
270
     1
271
     1
  0
CELLSTYLEMAP
  5
14D5
102
{ACAD_REACTORS
330
162
102
}
330
162
100
AcDbCellStyleMap
 90
        3
300
CELLSTYLE
  1
TABLEFORMAT_BEGIN
 90
        5
170
     1
 91
        0
 92
    32768
 62
   257
 93
        1
300
CONTENTFORMAT
  1
CONTENTFORMAT_BEGIN
 90
        0
 91
        0
 92
      512
 93
        0
300

 40
0.0
140
1.0
 94
        5
 62
     0
340
11
144
6.0
309
CONTENTFORMAT_END
171
     1
301
MARGIN
  1
CELLMARGIN_BEGIN
 40
1.5
 40
1.5
 40
1.5
 40
1.5
 40
0.18
 40
0.18
309
CELLMARGIN_END
 94
        6
 95
        1
302
GRIDFORMAT
  1
GRIDFORMAT_BEGIN
 90
        0
 91
        1
 62
     0
 92
       -2
340
14
 93
        0
 40
1.125
309
GRIDFORMAT_END
 95
        2
302
GRIDFORMAT
  1
GRIDFORMAT_BEGIN
 90
        0
 91
        1
 62
     0
 92
       -2
340
14
 93
        0
 40
1.125
309
GRIDFORMAT_END
 95
        4
302
GRIDFORMAT
  1
GRIDFORMAT_BEGIN
 90
        0
 91
        1
 62
     0
 92
       -2
340
14
 93
        0
 40
1.125
309
GRIDFORMAT_END
 95
        8
302
GRIDFORMAT
  1
GRIDFORMAT_BEGIN
 90
        0
 91
        1
 62
     0
 92
       -2
340
14
 93
        0
 40
1.125
309
GRIDFORMAT_END
 95
       16
302
GRIDFORMAT
  1
GRIDFORMAT_BEGIN
 90
        0
 91
        1
 62
     0
 92
       -2
340
14
 93
        0
 40
1.125
309
GRIDFORMAT_END
 95
       32
302
GRIDFORMAT
  1
GRIDFORMAT_BEGIN
 90
        0
 91
        1
 62
     0
 92
       -2
340
14
 93
        0
 40
1.125
309
GRIDFORMAT_END
309
TABLEFORMAT_END
  1
CELLSTYLE_BEGIN
 90
        1
 91
        1
300
_TITLE
309
CELLSTYLE_END
300
CELLSTYLE
  1
TABLEFORMAT_BEGIN
 90
        5
170
     1
 91
        0
 92
        0
 62
   257
 93
        1
300
CONTENTFORMAT
  1
CONTENTFORMAT_BEGIN
 90
        0
 91
        0
 92
      512
 93
        0
300

 40
0.0
140
1.0
 94
        5
 62
     0
340
11
144
4.5
309
CONTENTFORMAT_END
171
     1
301
MARGIN
  1
CELLMARGIN_BEGIN
 40
1.5
 40
1.5
 40
1.5
 40
1.5
 40
0.18
 40
0.18
309
CELLMARGIN_END
 94
        6
 95
        1
302
GRIDFORMAT
  1
GRIDFORMAT_BEGIN
 90
        0
 91
        1
 62
     0
 92
       -2
340
14
 93
        0
 40
1.125
309
GRIDFORMAT_END
 95
        2
302
GRIDFORMAT
  1
GRIDFORMAT_BEGIN
 90
        0
 91
        1
 62
     0
 92
       -2
340
14
 93
        0
 40
1.125
309
GRIDFORMAT_END
 95
        4
302
GRIDFORMAT
  1
GRIDFORMAT_BEGIN
 90
        0
 91
        1
 62
     0
 92
       -2
340
14
 93
        0
 40
1.125
309
GRIDFORMAT_END
 95
        8
302
GRIDFORMAT
  1
GRIDFORMAT_BEGIN
 90
        0
 91
        1
 62
     0
 92
       -2
340
14
 93
        0
 40
1.125
309
GRIDFORMAT_END
 95
       16
302
GRIDFORMAT
  1
GRIDFORMAT_BEGIN
 90
        0
 91
        1
 62
     0
 92
       -2
340
14
 93
        0
 40
1.125
309
GRIDFORMAT_END
 95
       32
302
GRIDFORMAT
  1
GRIDFORMAT_BEGIN
 90
        0
 91
        1
 62
     0
 92
       -2
340
14
 93
        0
 40
1.125
309
GRIDFORMAT_END
309
TABLEFORMAT_END
  1
CELLSTYLE_BEGIN
 90
        2
 91
        1
300
_HEADER
309
CELLSTYLE_END
300
CELLSTYLE
  1
TABLEFORMAT_BEGIN
 90
        5
170
     1
 91
        0
 92
        0
 62
   257
 93
        1
300
CONTENTFORMAT
  1
CONTENTFORMAT_BEGIN
 90
        0
 91
        0
 92
      512
 93
        0
300

 40
0.0
140
1.0
 94
        2
 62
     0
340
11
144
4.5
309
CONTENTFORMAT_END
171
     1
301
MARGIN
  1
CELLMARGIN_BEGIN
 40
1.5
 40
1.5
 40
1.5
 40
1.5
 40
0.18
 40
0.18
309
CELLMARGIN_END
 94
        6
 95
        1
302
GRIDFORMAT
  1
GRIDFORMAT_BEGIN
 90
        0
 91
        1
 62
     0
 92
       -2
340
14
 93
        0
 40
1.125
309
GRIDFORMAT_END
 95
        2
302
GRIDFORMAT
  1
GRIDFORMAT_BEGIN
 90
        0
 91
        1
 62
     0
 92
       -2
340
14
 93
        0
 40
1.125
309
GRIDFORMAT_END
 95
        4
302
GRIDFORMAT
  1
GRIDFORMAT_BEGIN
 90
        0
 91
        1
 62
     0
 92
       -2
340
14
 93
        0
 40
1.125
309
GRIDFORMAT_END
 95
        8
302
GRIDFORMAT
  1
GRIDFORMAT_BEGIN
 90
        0
 91
        1
 62
     0
 92
       -2
340
14
 93
        0
 40
1.125
309
GRIDFORMAT_END
 95
       16
302
GRIDFORMAT
  1
GRIDFORMAT_BEGIN
 90
        0
 91
        1
 62
     0
 92
       -2
340
14
 93
        0
 40
1.125
309
GRIDFORMAT_END
 95
       32
302
GRIDFORMAT
  1
GRIDFORMAT_BEGIN
 90
        0
 91
        1
 62
     0
 92
       -2
340
14
 93
        0
 40
1.125
309
GRIDFORMAT_END
309
TABLEFORMAT_END
  1
CELLSTYLE_BEGIN
 90
        3
 91
        2
300
_DATA
309
CELLSTYLE_END
  0
XRECORD
  5
14DB
102
{ACAD_REACTORS
330
162
102
}
330
162
100
AcDbXrecord
280
     1
102
ACAD_ROUNDTRIP_PRE2007_TABLESTYLE
 90
      512
 91
        0
  1

 92
      512
 93
        0
  2

 94
      512
 95
        0
  3

  0
ENDSEC
  0
EOF
